osu file format v9

[General]
AudioFilename:Migikata no Chou.mp3
AudioLeadIn: 0
PreviewTime: -1
Countdown: 1
SampleSet: Normal
StackLeniency: 0.7
Mode: 0
LetterboxInBreaks: 1

[Editor]
Bookmarks: 15495,208781
DistanceSpacing: 1.1
BeatDivisor: 2
GridSize: 16

[Metadata]
Title:Migikata no Chou(PV ver.)
Artist:Kagamine Rin & Len
Creator:ry5566
Version:Easy
Source:
Tags:

[Difficulty]
HPDrainRate:4
CircleSize:3
OverallDifficulty:3
ApproachRate:1
SliderMultiplier:0.999999904632569
SliderTickRate:1

[Events]
//Background and Video events
Video,0,"videoplayback.flv"
//Break Periods
2,77410,81530
//Storyboard Layer 0 (Background)
//Storyboard Layer 1 (Fail)
//Storyboard Layer 2 (Pass)
//Storyboard Layer 3 (Foreground)
//Storyboard Sound Samples
//Background Colour Transformations
3,100,0,0,0

[TimingPoints]
15496,428.571428571429,4,1,0,100,1,0

[Colours]
Combo1 : 250,35,169
Combo2 : 99,0,198

[HitObjects]
64,64,15495,2,0,B|180:64,1,99.9999904632569
288,64,16353,1,0
144,256,17210,2,0,B|27:256,2,99.9999904632569
368,160,18924,1,0
256,160,19353,2,0,B|153:160,1,99.9999904632569
32,160,20638,6,0,B|31:223,1,49.9999952316285
64,224,21067,2,0,B|64:290,1,49.9999952316285
96,272,21496,2,0,B|95:338,2,49.9999952316285
160,224,22353,2,0,B|261:224,1,99.9999904632569
352,224,23210,1,0
266,84,24067,2,0,B|154:83,2,99.9999904632569
450,124,25781,6,0,B|451:194,1,49.9999952316285
432,176,26210,2,0,B|432:236,1,49.9999952316285
416,240,26638,2,0,B|416:304,2,49.9999952316285
384,240,27496,2,0,B|180:240,2,199.999980926514
400,192,29638,2,0,B|295:192,2,99.9999904632569
368,144,30924,2,0,B|467:144,1,99.9999904632569
432,112,31781,2,0,B|332:112,1,99.9999904632569
192,80,32638,6,0,B|120:82|123:152|129:152,1,99.9999904632569
233,201,33496,2,0,B|292:181|291:118,1,99.9999904632569
171,118,34353,1,0
128,224,34781,1,0
171,118,35210,1,0
368,320,36496,6,0,B|467:320,2,99.9999904632569
224,288,37781,2,0,B|122:288,1,99.9999904632569
263,192,38638,2,0,B|363:192,1,99.9999904632569
208,144,39496,2,0,B|208:80|208:96,1,49.9999952316285
64,224,40353,2,0,B|64:272,1,49.9999952316285
240,160,41210,2,0,B|352:160,2,99.9999904632569
283,319,43353,6,0,B|388:319,2,99.9999904632569
176,326,44639,2,0,B|77:326,1,99.9999904632569
144,272,45496,2,0,B|37:272,1,99.9999904632569
160,320,46353,2,0,B|232:318|229:248|223:248,1,99.9999904632569
224,160,47211,2,0,B|165:180|166:243,1,99.9999904632569
272,240,48068,1,0
315,150,48496,1,0
272,240,48925,1,0
191,100,50211,6,0,B|92:100,2,99.9999904632569
288,96,51496,2,0,B|390:96,1,99.9999904632569
304,160,52353,2,0,B|204:160,1,99.9999904632569
288,240,53211,2,0,B|288:304|288:288,1,49.9999952316285
432,208,54068,2,0,B|432:160,1,49.9999952316285
304,208,54925,2,0,B|192:208,2,99.9999904632569
432,112,56638,5,0
432,112,57067,1,0
432,112,57496,1,0
432,112,57923,1,0
432,112,58353,2,0,B|320:112,1,99.9999904632569
288,160,59210,2,0,B|400:160,1,99.9999904632569
256,192,61781,5,0
256,192,62210,1,0
256,192,62638,1,0
448,320,63496,6,0,B|332:320,1,99.9999904632569
238,320,64354,1,0
368,192,65211,2,0,B|485:192,2,99.9999904632569
144,160,66925,1,0
240,160,67354,2,0,B|343:160,1,99.9999904632569
448,256,68639,6,0,B|449:193,1,49.9999952316285
448,208,69068,2,0,B|448:142,1,49.9999952316285
448,160,69497,2,0,B|449:94,2,49.9999952316285
256,192,70354,2,0,B|155:192,1,99.9999904632569
352,192,71211,1,0
112,256,72068,6,0,B|224:257,2,99.9999904632569
30,260,73782,6,0,B|29:190,1,49.9999952316285
48,192,74211,2,0,B|48:132,1,49.9999952316285
64,128,74639,2,0,B|64:64,2,49.9999952316285
128,160,75496,2,0,B|336:160,2,199.999980926514
416,62,83210,6,0,B|416:112,2,49.9999952316285
416,176,84067,2,0,B|416:288,1,99.9999904632569
336,208,84924,2,0,B|336:336,1,99.9999904632569
256,224,85781,2,0,B|256:336,1,99.9999904632569
176,256,86638,2,0,B|176:128,1,99.9999904632569
208,64,87496,5,0
224,176,87924,1,0
304,96,88353,1,0
224,176,88781,1,0
336,192,89210,1,0
224,176,89638,1,0
272,272,90067,2,0,B|304:352,3,49.9999952316285
