osu file format v13

[General]
AudioFilename: Mask of Hannya.mp3
AudioLeadIn: 0
PreviewTime: 100924
Countdown: 0
SampleSet: Normal
StackLeniency: 0.7
Mode: 0
LetterboxInBreaks: 0
WidescreenStoryboard: 1

[Editor]
Bookmarks: 9890,23683,34717,45752,56786,67821,78855,84372,95407,106441,117476,128510
DistanceSpacing: 1
BeatDivisor: 3
GridSize: 4
TimelineZoom: 1

[Metadata]
Title:Mask of Hannya
TitleUnicode:般若の面
Artist:Kagamine Rin & Len
ArtistUnicode:鏡音リン·レン
Creator:Beren
Version:Easy
Source:
Tags:Irreversible Kiiwa Bless EXIT TUNES PRESENTS Supernova3 VOCALOID
BeatmapID:286769
BeatmapSetID:69989

[Difficulty]
HPDrainRate:1
CircleSize:3
OverallDifficulty:2
ApproachRate:2
SliderMultiplier:0.799999999999999
SliderTickRate:1

[Events]
//Background and Video events
0,0,"1.jpg",0,0
//Break Periods
2,12848,13502
2,79055,82812
2,90089,91088
//Storyboard Layer 0 (Background)
//Storyboard Layer 1 (Fail)
//Storyboard Layer 2 (Pass)
//Storyboard Layer 3 (Foreground)
//Storyboard Sound Samples
//Background Colour Transformations
3,100,163,162,255

[TimingPoints]
9890,344.827586206897,4,1,2,60,1,0
23683,-100,4,1,0,60,0,0
24027,-100,4,1,2,60,0,0
26441,-100,4,1,0,60,0,0
26556,-100,4,1,2,60,0,0
29200,-100,4,1,0,60,0,0
29315,-100,4,1,2,60,0,0
31958,-100,4,1,0,60,0,0
32303,-100,4,1,2,60,0,0

[Colours]
Combo1 : 214,136,251
Combo2 : 242,72,15
Combo3 : 237,207,37
Combo4 : 176,242,40
Combo5 : 80,218,163
Combo6 : 123,199,227

[HitObjects]
256,192,9890,12,0,12648,0:0:0:0:
400,288,15062,5,0,0:0:0:0:
404,232,15407,2,0,P|340:144|332:280,1,320,0|4,0:0|0:0,0:0:0:0:
208,152,17821,5,2,0:0:0:0:
180,104,18166,2,0,P|80:59|141:181,1,320,0|0,0:0|0:0,0:0:0:0:
176,300,20579,5,0,0:0:0:0:
180,244,20924,2,0,B|176:128|264:84|264:84|276:148|352:176,1,320,0|4,0:0|0:0,0:0:0:0:
368,324,23683,5,4,0:0:0:0:
312,312,24027,2,0,P|232:236|264:108,1,240
100,52,26096,6,0,L|20:80|20:80,2,79.9999999999999,0|4|0,0:0|0:0|0:0,0:0:0:0:
164,284,27821,1,0,0:0:0:0:
408,184,28855,2,0,L|500:216,2,79.9999999999999,0|4|0,0:0|0:0|0:0,0:0:0:0:
252,124,30579,1,0,0:0:0:0:
116,300,31958,5,4,0:0:0:0:
108,244,32303,2,0,P|92:112|160:36,2,240
152,276,34717,6,0,L|328:248,1,160,4|0,0:0|0:0,0:0:0:0:
420,228,36096,2,0,P|376:152|412:88,1,160
304,44,37476,1,4,0:0:0:0:
196,76,38165,1,0,0:0:0:0:
88,52,38855,1,0,0:0:0:0:
60,160,39545,6,0,P|44:204|52:252,1,79.9999999999999,0|0,0:0|0:0,0:0:0:0:
52,292,40234,2,0,P|192:248|292:376,1,320,4|0,0:0|0:0,0:0:0:0:
388,312,42303,2,0,L|448:240,1,79.9999999999999
388,228,42993,2,0,B|248:172|272:56|136:16,1,320,4|0,0:0|0:0,0:0:0:0:
96,116,45062,6,0,L|64:212,1,79.9999999999999
76,248,45752,2,0,P|92:320|180:368,2,160,4|0|0,0:0|0:0|0:0,0:0:0:0:
208,144,48165,5,0,0:0:0:0:
264,136,48510,2,0,P|344:112|372:44,2,160,4|0|0,0:0|0:0|0:0,0:0:0:0:
188,216,50579,5,0,0:0:0:0:
120,128,51269,2,0,P|52:200|188:316,1,320,4|0,0:0|0:0,0:0:0:0:
256,232,53338,1,0,0:0:0:0:
340,304,54027,6,0,L|440:180,1,160,4|0,0:0|0:0,0:0:0:0:
440,68,55407,2,0,P|380:96|280:68,1,160,4|0,0:0|0:0,0:0:0:0:
180,56,56786,5,4,0:0:0:0:
112,144,57476,2,0,P|80:228|112:300,2,160
192,224,59545,6,0,L|348:296|348:296,1,160,4|0,0:0|0:0,0:0:0:0:
420,216,60924,2,0,B|430:220|274:148,1,160
176,96,62303,1,4,0:0:0:0:
256,192,62648,12,0,67131,0:0:0:0:
192,236,67821,6,0,P|128:184|120:96,2,160,4|0|0,0:0|0:0|0:0,0:0:0:0:
312,352,70234,5,0,0:0:0:0:
276,312,70579,2,0,P|328:152|472:144,1,320,4|0,0:0|0:0,0:0:0:0:
400,44,72648,2,0,L|232:64,1,160,0|4,0:0|0:0,0:0:0:0:
256,192,73683,12,0,78855,0:0:0:0:
408,304,84372,5,4,0:0:0:0:
300,272,85062,1,0,0:0:0:0:
284,160,85752,2,0,P|180:80|36:176,1,320,0|4,0:0|0:0,0:0:0:0:
68,276,87821,2,0,P|132:328|208:320,1,160
304,272,89200,2,0,P|384:264|452:304,1,160,0|4,0:0|0:0,0:0:0:0:
392,80,92648,5,4,0:0:0:0:
324,292,94027,1,0,0:0:0:0:
104,336,95407,2,0,B|56:288|84:208|60:180,1,160,4|0,0:0|0:0,0:0:0:0:
20,80,96786,1,0,0:0:0:0:
132,92,97476,1,0,0:0:0:0:
256,192,98165,12,0,100924,0:0:0:0:
400,96,101614,5,0,0:0:0:0:
300,148,102303,2,0,P|248:196|256:288,1,160,2|0,0:0|0:0,0:0:0:0:
152,336,103683,6,0,L|84:184,1,160,4|0,0:0|0:0,0:0:0:0:
36,88,105062,1,2,0:0:0:0:
148,100,105752,1,0,0:0:0:0:
256,72,106441,6,0,P|328:48|424:80,1,160,4|0,0:0|0:0,0:0:0:0:
336,152,107821,2,0,P|264:176|168:144,1,160,2|0,0:0|0:0,0:0:0:0:
100,80,109200,5,4,0:0:0:0:
60,184,109890,1,0,0:0:0:0:
108,284,110579,2,0,P|144:336|240:336,1,160,2|0,0:0|0:0,0:0:0:0:
332,284,111958,2,0,P|412:244|488:268,2,160,4|0|2,0:0|0:0|0:0,0:0:0:0:
228,248,114027,1,0,0:0:0:0:
292,156,114717,2,0,P|352:96|436:92,2,160,4|0|2,0:0|0:0|0:0,0:0:0:0:
392,208,116786,1,0,0:0:0:0:
348,312,117476,5,4,0:0:0:0:
236,308,118165,2,0,P|160:296|72:332,2,160,0|2|0,0:0|0:0|0:0,0:0:0:0:
348,320,120234,1,4,0:0:0:0:
320,212,120924,2,0,P|328:140|400:80,2,160,0|2|0,0:0|0:0|0:0,0:0:0:0:
256,192,122993,12,0,128510,0:0:0:0:
