osu file format v9

[General]
AudioFilename: Kagamine Rin & Len - Jutenija.mp3
AudioLeadIn: 0
PreviewTime: 90510
Countdown: 0
SampleSet: Soft
StackLeniency: 0.7
Mode: 0
LetterboxInBreaks: 0

[Editor]
Bookmarks: 54873,82410,90348,126873,137616,174798
DistanceSpacing: 0.8
BeatDivisor: 4
GridSize: 4

[Metadata]
Title:Jutenija
Artist:Kagamine Rin & Len
Creator:Arusha Shuna
Version:Gentle
Source:Vocaloid2
Tags:dateken darkdunskin vocaloid

[Difficulty]
HPDrainRate:3
CircleSize:3
OverallDifficulty:3
ApproachRate:4
SliderMultiplier:1.2
SliderTickRate:2

[Events]
//Background and Video events
0,0,"8f37bd5445ce1005f49a90ace1ba90cbe4606bd4.jpg"
//Break Periods
2,78998,89178
2,117698,119478
2,126998,137478
2,150998,161178
2,186998,195978
//Storyboard Layer 0 (Background)
//Storyboard Layer 1 (Fail)
//Storyboard Layer 2 (Pass)
//Storyboard Layer 3 (Foreground)
//Storyboard Sound Samples
//Background Colour Transformations
3,100,163,162,255

[TimingPoints]
30798.7087958678,300,5,2,0,60,1,0
42798,-100,5,2,0,75,0,0
102798,-100,5,2,0,85,0,1
117492,-100,5,2,0,75,0,0
174798,-100,5,2,0,85,0,1
186798,-100,5,2,0,75,0,0
198798,-100,5,2,0,85,0,1
210798,-100,5,2,0,5,0,0

[Colours]
Combo1 : 140,242,164
Combo2 : 0,255,128
Combo3 : 40,236,19
Combo4 : 128,255,0
SliderBorder : 3,252,108

[HitObjects]
276,112,30798,2,0,B|312:56|400:56|432:120,2,180,0|0|2
352,168,31998,1,0
276,228,32298,2,0,B|312:284|400:284|432:220,2,180,2|2|2
200,168,33498,1,0
128,104,33798,6,0,B|72:64|8:104|0:164|52:204,1,180,0|2
124,296,34698,1,2
124,296,34998,1,0
124,296,35298,6,0,B|312:296,1,180,0|2
380,172,36198,1,2
336,88,36498,1,0
252,44,36798,6,0,B|184:0|104:36|100:112,2,180,0|2|2
196,120,37998,1,0
196,120,38298,6,0,B|176:188|96:208|48:164,2,180,0|2|0
288,88,39498,1,2
368,144,39798,6,0,B|412:172|432:212|412:288|368:304,1,180
256,228,40698,1,2
184,292,40998,1,0
124,212,41298,6,0,B|76:184|60:128|88:72|152:60,1,180
248,144,42198,1,2
292,56,42498,1,0
340,144,42798,6,0,B|340:204|340:204|340:240|308:272|276:272|276:272|248:272,2,180,4|2|2
340,144,43998,1,0
252,184,44298,6,0,B|234:184|234:184|202:184|170:216|170:252|170:252|170:312,2,180,0|2|2
252,184,45498,1,2
228,92,45798,5,0
96,148,46248,1,2
216,232,46698,2,0,B|232:312|152:344,1,120,2|0
120,248,47298,5,0
204,132,47748,1,2
276,256,48198,2,0,B|284:176|356:152,1,120,2|0
372,248,48798,6,0,B|440:216|436:164|444:120|392:80,1,180,0|2
280,40,49698,1,2
280,40,49998,1,0
280,40,50298,6,0,B|248:40|248:40|220:40|192:68|192:100|192:100|192:180,1,180,0|2
144,296,51198,1,2
240,296,51498,1,2
336,296,51798,6,0,B|372:296|372:296|400:296|424:272|424:240|424:240|424:168,2,180,0|2|2
288,212,52998,1,0
288,116,53298,6,0,B|288:80|288:80|288:52|260:28|228:28|228:28|160:28,2,180,0|2|2
208,172,54498,1,0
144,244,54798,5,0
256,324,55248,1,2
368,244,55698,1,2
452,192,55998,1,0
368,140,56298,5,0
256,60,56748,1,2
144,140,57198,1,2
60,192,57498,1,0
68,288,57798,6,0,B|84:316|84:316|108:348|144:360|184:360|184:360|232:360,1,180,0|2
256,224,58698,1,0
348,248,58998,1,2
436,288,59298,6,0,B|420:316|420:316|396:348|360:360|320:360|320:360|272:360,1,180,0|2
256,224,60198,1,2
164,248,60498,1,0
80,204,60798,6,0,B|24:164|52:80|124:76|160:112,1,180,0|2
264,168,61698,1,2
340,224,61998,1,0
352,128,62298,5,2
212,88,62748,2,0,B|180:88|180:88|152:88|120:108|120:156|120:156|120:224,1,180,0|2
44,260,63498,1,0
120,320,63798,6,0,B|320:320,2,180,0|2|2
140,224,64998,1,0
224,176,65298,2,0,B|256:128|297:126|315:172|366:164|394:110,2,180,0|2|2
220,272,66498,1,0
304,224,66798,6,0,B|368:200|432:248|400:328,2,180,0|2|2
308,128,67998,1,0
212,124,68298,2,0,B|241:50|177:2|113:26,2,180,0|2|2
204,220,69498,1,0
120,268,69798,5,0
236,352,70248,2,0,B|288:376|344:352|360:280|312:236,1,180,2|0
396,188,70998,1,0
332,116,71298,2,0,B|280:60|184:100|200:180,2,180,2|0|0
204,260,72798,5,0
140,132,73248,2,0,B|180:88|256:84|300:140|304:164,1,180,2|2
304,244,73998,1,0
364,320,74298,5,2
452,204,74748,1,0
364,92,75198,2,0,B|304:52|244:92,1,120,2|0
176,144,75798,6,0,B|80:192|20:116|24:68,2,180,0|2|2
268,176,76998,1,0
328,252,77298,2,0,B|360:320|444:324|488:272,2,180,0|2|0
364,164,78498,1,2
340,72,78798,5,2
61,131,90498,5,0
146,86,90798,2,0,B|210:58|250:89|278:126|277:163|260:210|260:210|242:252|250:318|296:347|350:358|380:344|420:315,1,480,4|0
348,248,92298,2,0,B|316:312|214:265|184:348,1,180,0|2
159,188,93198,1,2
159,188,93498,1,0
159,188,93798,6,0,B|186:93|304:73,2,180,0|2|0
145,283,94998,1,2
232,322,95298,2,0,B|332:346|394:269,2,180,0|2|0
265,231,96498,5,0
170,246,96798,2,0,B|123:297|33:228|26:143|240:54,1,360,0|2
242,153,97998,1,0
342,138,98298,6,0,B|389:87|479:156|486:241|272:330,1,360,0|2
183,336,99498,1,0
100,287,99798,2,0,B|47:238|157:176|93:116,2,180,0|2|0
185,242,100998,1,2
279,223,101298,2,0,B|388:220|438:316,2,180,0|2|2
208,156,102498,5,0
144,83,102798,2,0,B|87:49|37:143|113:215,2,180,4|0|0
238,67,103998,1,2
308,133,104298,5,0
423,219,104748,1,2
308,297,105198,1,2
256,216,105498,1,0
204,133,105798,5,0
89,219,106248,1,2
204,297,106698,1,0
256,216,106998,1,2
200,140,107298,2,0,B|220:84|256:72|256:72|296:84|312:152,2,180,0|2|0
256,216,108498,5,0
320,288,108798,2,0,B|384:268|428:176|388:128,2,180,0|2|0
256,216,109998,1,2
160,232,110298,6,0,B|148:316|48:348|8:288,2,180,0|2|0
228,164,111498,1,0
304,108,111798,2,0,B|371:57|465:105|451:175,2,180,0|2|0
312,204,112998,1,2
300,300,113298,2,0,B|248:336|152:304|176:216,2,180,0|2|0
392,268,114498,5,0
256,192,114798,12,0,117498
200,272,120798,6,0,B|4:324,2,180,0|2|2
256,192,121998,1,0
312,272,122298,6,0,B|508:324,2,180,2|0|2
256,192,123498,1,0
179,133,123798,6,0,B|234:71|312:89|348:155,2,180,0|2|0
256,192,124998,1,2
256,288,125298,5,2
256,192,125448,12,0,126798
196,272,138798,6,0,B|296:272|244:360|348:360,2,180,4|2|2
252,196,139998,1,0
316,112,140298,2,0,B|216:112|268:24|164:24,2,180,2|0|2
252,196,141498,1,0
184,264,141798,5,0
68,180,142248,2,0,B|68:92|160:56|204:112,1,180,2|0
264,156,142998,1,2
352,196,143298,2,0,B|448:184|456:92|408:48,2,180,2|2|0
200,312,144798,6,0,B|120:312|120:312|88:312|60:288|60:256|60:256|60:224,2,180,0|2|2
296,312,145998,1,0
248,228,146298,2,0,B|328:228|328:228|360:228|388:204|388:172|388:172|388:140,2,180,0|2|0
188,152,147498,1,0
104,104,147798,6,0,B|160:48|276:52,2,180,0|2|0
68,192,148998,1,0
104,280,149298,2,0,B|160:336|276:332,1,180,0|2
396,260,150198,5,2
328,192,150498,1,0
400,128,150798,1,2
56,172,162498,5,0
96,84,162798,2,0,B|121:60|153:59|192:72|206:132|178:164|178:164|112:231|112:231|81:269|85:319|123:357|177:359|209:315,1,480,4|0
304,316,164298,2,0,B|335:359|389:358|427:319|431:269|400:231|400:231|334:164|334:164|307:132|320:72|359:59|391:60|417:84,1,480
456,172,165798,6,0,B|272:232,1,180,0|2
204,108,166698,1,2
108,92,166998,1,0
56,172,167298,6,0,B|240:232,1,180,0|2
308,108,168198,1,2
404,92,168498,1,0
472,160,168798,6,0,B|472:240|416:300|344:288,1,180,0|2
228,292,169698,2,0,B|88:292,1,120,2|0
156,208,170298,6,0,B|104:208|104:208|76:208|48:184|44:152|76:120|108:120,2,180,0|2|2
252,208,171498,2,0,B|380:208,1,120
272,104,172248,2,0,B|216:76|144:76|84:116,1,180,2|2
98,203,172998,1,0
172,264,173298,5,0
256,148,173748,1,2
340,264,174198,1,2
256,312,174498,1,0
256,312,174798,6,0,B|240:208|136:160,1,180,4|2
184,28,175698,1,2
276,48,175998,1,0
340,116,176298,6,0,B|328:180|396:236|464:192,2,180,0|2|2
436,108,177498,1,0
436,108,177798,6,0,B|320:248,1,180,0|2
200,328,178698,6,0,B|72:328,1,120,2|0
124,244,179298,2,0,B|320:244,2,180,0|2|2
60,172,180498,5,2
140,120,180798,2,0,B|236:112|296:24,2,180,0|2|2
188,204,181998,1,0
284,192,182298,2,0,B|372:230|466:180,2,180,0|2|0
248,280,183498,1,0
156,308,183798,6,0,B|88:296|88:176|144:152,1,180,0|2
256,88,184698,1,0
256,88,184998,1,2
352,76,185298,6,0,B|420:88|420:208|364:232,2,180,0|2|0
308,160,186498,1,2
256,240,186798,5,4
204,248,197298,5,0
144,116,197748,1,2
288,132,198198,1,2
304,228,198498,5,0
368,301,198798,2,0,B|425:335|475:241|399:169,2,180,4|2|2
274,317,199998,1,0
204,251,200298,5,0
89,165,200748,1,2
204,87,201198,1,2
256,168,201498,1,0
308,251,201798,5,0
423,165,202248,1,2
308,87,202698,1,0
256,168,202998,1,2
312,244,203298,2,0,B|292:300|256:312|256:312|216:300|200:232,2,180,0|2|2
256,168,204498,5,0
172,116,204798,2,0,B|76:108|16:20,2,180,0|2|0
256,168,205998,1,2
340,116,206298,2,0,B|436:108|496:20,2,180,0|2|2
256,168,207498,1,0
204,244,207798,6,0,B|192:312|72:312|48:256,1,180,0|2
124,140,208698,1,0
216,112,208998,1,2
308,140,209298,6,0,B|320:72|440:72|464:128,2,180,0|2|0
388,192,210498,1,2
256,192,210798,12,0,213498
