osu file format v9

[General]
AudioFilename: Kagamine Rin & Len - Jutenija.mp3
AudioLeadIn: 0
PreviewTime: 90510
Countdown: 0
SampleSet: Soft
StackLeniency: 0.7
Mode: 0
LetterboxInBreaks: 0

[Editor]
Bookmarks: 54873,82410,90348,126873,137616,174798
DistanceSpacing: 1
BeatDivisor: 4
GridSize: 4

[Metadata]
Title:Jutenija
Artist:Kagamine Rin & Len
Creator:Arusha Shuna
Version:Gale
Source:Vocaloid2
Tags:dateken darkdunskin vocaloid

[Difficulty]
HPDrainRate:8
CircleSize:4
OverallDifficulty:8
ApproachRate:8
SliderMultiplier:2.2
SliderTickRate:2

[Events]
//Background and Video events
0,0,"8f37bd5445ce1005f49a90ace1ba90cbe4606bd4.jpg"
//Break Periods
2,78998,83448
2,117698,119298
2,126998,137298
2,150998,155298
2,186998,192048
//Storyboard Layer 0 (Background)
//Storyboard Layer 1 (Fail)
//Storyboard Layer 2 (Pass)
//Storyboard Layer 3 (Foreground)
//Storyboard Sound Samples
//Background Colour Transformations
3,100,163,162,255

[TimingPoints]
30798.7087958678,300,5,2,1,60,1,0
42798,-100,5,2,1,75,0,0
102798,-100,5,2,1,85,0,1
117492,-100,5,2,1,75,0,0
174798,-100,5,2,1,85,0,1
186798,-100,5,2,1,75,0,0
198798,-100,5,2,1,85,0,1
210798,-100,5,2,1,5,0,0

[Colours]
Combo1 : 140,242,164
Combo2 : 0,255,128
Combo3 : 40,236,19
Combo4 : 128,255,0
SliderBorder : 3,252,108

[HitObjects]
232,56,30798,1,4
280,280,31098,1,0
368,216,31248,2,0,B|440:184|432:96|384:56|312:72,1,220,2|0
264,160,31698,1,2
160,192,31848,1,0
112,92,31998,2,0,B|65:107|48:186,1,110,2|0
160,192,32298,2,0,B|162:262|68:308,2,110,2|0|0
228,104,32748,1,2
408,184,33048,6,0,B|464:208|456:296|392:328|336:304|328:272,1,220,2|0
330,279,33498,1,2
330,279,33648,1,0
240,216,33798,6,0,B|168:184|120:256,2,110,2|0|2
200,320,34248,2,0,B|152:352|88:352|32:304|32:240,1,220,2|0
40,136,34698,1,2
128,64,34848,1,0
240,64,34998,2,0,B|312:80|336:152,1,110,2|0
392,43,35298,2,0,B|360:131|296:131,1,110,2|0
224,168,35598,1,0
160,260,35748,2,0,B|160:328|236:368|316:336|324:280,1,220,2|0
372,196,36198,5,2
372,196,36498,1,0
156,108,36798,6,0,B|96:88|56:136|56:136|56:200|56:272,1,220,4|0
164,216,37248,2,0,B|224:236|264:188|264:188|264:124|264:52,1,220,2|0
264,78,37698,1,2
56,244,37998,1,0
252,344,38298,6,0,B|320:344|320:344|372:340|376:292|376:248|284:252,1,220,2|0
200,260,38748,2,0,B|268:260|268:260|320:256|324:208|324:164|232:168,1,220,2|0
140,120,39198,2,0,B|84:92|108:28,2,110,2|0|2
244,84,39648,1,0
348,120,39798,5,2
444,316,40098,1,0
400,216,40248,2,0,B|348:268|348:268|316:300|276:308|236:272|248:228,1,220,2|0
184,144,40698,1,2
184,144,40998,1,0
68,332,41298,6,0,B|176:332|176:332|212:332|232:312|248:288|236:220,1,220,2|0
336,184,41748,2,0,B|228:184|228:184|192:184|172:204|156:228|168:296,1,220,2|0
96,184,42198,1,2
304,344,42498,1,0
448,96,42798,5,6
344,60,42948,1,0
252,120,43098,1,0
216,220,43248,2,0,B|180:304|180:304|160:344|108:352|60:328|76:272,1,220,2|0
76,197,43698,5,2
124,96,43848,1,0
232,68,43998,2,0,B|304:76|324:144,1,110,2|0
424,100,44298,2,0,B|456:172|380:236,1,110,2|0
440,312,44598,1,0
332,288,44748,2,0,B|264:360|228:312|188:260|104:360,2,220,2|0|2
332,288,45498,1,0
332,288,45648,1,0
304,180,45798,6,0,B|264:112|328:72,2,110,2|0|2
404,224,46248,2,0,B|312:176|248:196|220:236|204:268,1,220,2|0
112,308,46698,1,2
16,252,46848,1,0
44,144,46998,1,2
152,140,47148,2,0,B|276:140,1,110,0|2
208,44,47448,1,0
316,44,47598,1,0
393,121,47748,2,0,B|393:209|393:209|393:265|361:297|285:277,1,220,2|0
197,281,48198,5,2
197,281,48498,1,0
44,76,48798,5,2
154,76,48948,1,0
264,76,49098,1,0
372,76,49248,2,0,B|420:76|420:76|460:76|488:104|488:140|488:140|488:240,1,220,2|0
428,304,49698,1,2
324,336,49848,1,0
216,296,49998,6,0,B|156:276|104:328,2,110,2|0|2
312,240,50448,1,0
252,148,50598,1,0
156,200,50748,2,0,B|88:124|88:124|64:96|56:68|72:20|132:24,2,220,2|0|0
252,148,51498,1,2
252,40,51648,1,0
344,100,51798,6,0,B|460:140,1,110,2|0
368,212,52098,1,0
272,264,52248,2,0,B|248:304|248:304|232:332|200:348|160:352|160:352|128:352|72:352,1,220,2|0
160,264,52698,1,2
92,180,52848,1,0
168,100,52998,2,0,B|132:36|56:48,2,110,2|0|2
256,168,53448,1,0
344,100,53598,2,0,B|380:36|456:48,1,110,0|2
256,316,54048,5,0
256,316,54198,1,2
256,316,54498,1,0
96,164,54798,6,0,B|120:104|120:104|128:84|144:56|212:48|248:88|212:180|212:172,1,220,2|0
260,236,55248,2,0,B|284:296|284:296|292:316|308:344|376:352|412:312|376:220|376:228,1,220,2|0
336,168,55698,1,2
336,168,55848,1,0
336,168,55998,1,0
44,72,56298,6,0,B|268:72,1,220,2|0
204,168,56748,2,2,B|124:168|124:168|92:168|64:196|56:248|96:272,1,220,2|0
204,276,57198,1,2
312,276,57348,1,0
380,188,57498,1,0
380,188,57798,6,0,B|380:120|380:120|384:72|360:40|336:32|272:32|280:112,1,220,2|0
287,176,58248,2,2,B|287:244|287:244|291:292|267:324|243:332|179:332|187:252,1,220,2|0
136,204,58698,1,2
120,96,58848,1,0
200,20,58998,1,2
416,60,59298,6,0,B|416:304,1,220,2|0
337,358,59748,2,0,B|337:136,1,220,2|0
258,59,60198,5,2
128,344,60498,1,0
32,144,60798,6,0,B|52:176|52:176|68:200|96:224|152:224|152:224|232:224,1,220,2|0
128,164,61248,2,2,B|148:196|148:196|164:220|192:244|248:244|248:244|328:244,1,220,2|0
393,322,61698,1,2
393,322,61848,1,0
393,322,61998,1,2
480,144,62298,6,0,B|460:176|460:176|444:200|416:224|360:224|360:224|280:224,1,220,2|0
384,164,62748,2,2,B|364:196|364:196|348:220|320:244|264:244|264:244|184:244,1,220,2|0
119,322,63198,1,2
119,322,63348,1,0
119,322,63498,1,0
412,28,63798,6,0,B|412:76|412:76|376:168|376:168|376:240,1,220,2|0
340,344,64248,2,2,B|340:296|340:296|304:204|304:204|304:132,1,220,2|0
256,32,64698,1,2
256,32,64848,1,0
256,32,64998,1,2
100,356,65298,6,0,B|100:308|100:308|136:216|136:216|136:144,1,220,2|0
172,40,65748,2,2,B|172:88|172:88|208:180|208:180|208:252,1,220,2|0
256,352,66198,1,2
408,192,66498,1,0
256,32,66798,6,0,B|256:136|256:136|240:168|216:204|156:208|156:208|136:216,1,220,2|0
80,296,67248,2,2,B|80:192|80:192|96:160|120:124|180:120|180:120|200:112,1,220,2|0
80,60,67698,1,2
166,121,67848,1,0
184,232,67998,1,2
184,232,68298,6,0,B|196:268|196:268|208:304|244:336|296:340|296:340|368:340,1,220,2|0
458,340,68748,2,2,B|446:304|446:304|434:268|398:236|346:232|346:232|274:232,1,220,2|0
236,140,69198,1,2
236,140,69348,1,0
236,140,69498,1,0
180,352,69798,6,0,B|116:352|116:352|84:352|52:328|48:288|48:288|48:228,1,220,2|0
158,233,70248,2,2,B|389:233,1,220,2|0
444,324,70698,1,2
378,233,70848,1,0
448,148,70998,1,2
380,60,71148,1,0
284,100,71298,6,0,B|264:126|232:130|200:114|184:98|184:98|168:82|136:66|112:74|89:97,1,220,2|0
228,292,71748,2,2,B|247:265|279:261|311:277|327:293|327:293|343:309|375:325|399:317|422:294,1,220,2|0
412,184,72198,1,2
304,156,72348,1,2
208,212,72498,1,0
104,180,72648,1,0
180,100,72798,6,0,B|228:52|228:52|244:36|268:24|296:24|296:24|400:24,1,220,2|0
272,132,73248,2,2,B|320:84|320:84|336:68|360:56|388:56|388:56|492:56,1,220,2|0
368,164,73698,1,2
428,256,73848,1,0
488,164,73998,1,2
332,284,74298,6,0,B|284:332|284:332|268:348|244:360|216:360|216:360|112:360,1,220,2|0
240,252,74748,2,2,B|192:300|192:300|176:316|152:328|124:328|124:328|20:328,1,220,2|0
144,220,75198,1,2
84,128,75348,1,0
24,220,75498,2,0,B|0:160,2,55,2|0|0
144,220,75798,6,0,B|168:220|168:220|188:220|208:216|220:200|228:184|228:184|232:164|232:164|240:148|256:132|280:132|280:132|328:132,1,220,2|0
399,210,76248,2,2,B|375:210|375:210|355:210|335:214|323:230|315:246|315:246|311:266|311:266|303:282|287:298|263:298|263:298|215:298,1,220,2|0
112,320,76698,1,2
112,320,76848,1,0
112,320,76998,1,0
56,176,77298,6,0,B|61:115|107:62|157:33|225:24,1,220,2|0
311,28,77748,2,2,B|354:33|404:61|449:121|455:175,1,220,2|0
360,244,78198,6,0,B|296:348,1,110,0|2
152,244,78498,2,0,B|216:348,1,110,2|0
256,128,78798,1,2
256,48,84198,5,0
256,156,84348,1,0
256,264,84498,1,0
124,88,84798,6,0,B|88:100|88:100|64:112|36:140|32:176|32:176|72:256,1,220,4|0
76,360,85248,2,0,B|112:348|112:348|136:336|164:308|168:272|168:272|128:192,1,220,2|0
220,132,85698,2,0,B|268:108|280:80|264:28,2,110,2|2|0
388,296,86298,6,0,B|424:284|424:284|448:272|476:244|480:208|480:208|440:128,1,220,2|0
436,24,86748,2,0,B|400:36|400:36|376:48|348:76|344:112|344:112|384:192,1,220,2|0
292,252,87198,2,0,B|244:276|232:304|248:356,2,110,2|2|0
192,96,87798,6,0,B|159:38|159:38|68:38|68:38|24:116,1,220,4|0
36,204,88248,2,0,B|69:262|69:262|160:262|160:262|204:184,1,220,2|0
116,152,88698,1,0
116,152,88848,1,2
116,152,88998,1,2
348,96,89298,6,0,B|411:96|411:96|447:100|471:128|475:160|475:160|475:220,1,220,2|0
358,338,89748,2,0,B|298:338|298:338|266:334|238:310|234:274|234:274|234:210,1,220,2|2
352,216,90198,1,2
352,216,90348,1,0
352,216,90498,5,0
149,53,90798,2,0,B|80:60|51:129|75:209|197:203,1,220,4|0
150,127,91248,2,0,B|81:133|52:202|75:282|197:276,1,220,2|2
250,318,91698,1,2
298,219,91848,1,0
376,296,91998,1,2
424,197,92148,1,0
344,120,92298,6,0,B|337:51|268:22|188:45|194:167,1,220,2|0
270,120,92748,2,0,B|263:51|194:22|114:45|120:167,1,220,2|0
144,228,93198,2,0,B|106:180|33:215,1,110,2|0
204,276,93498,2,0,B|228:320|280:332|324:296,1,110,2|0
384,244,93798,6,0,B|406:201|406:201|423:169|417:139|397:115|353:105|329:133|329:133|312:165,1,220,2|0
256,60,94248,1,2
72,184,94548,1,0
140,100,94698,2,0,B|112:40|40:60,1,110,0|2
192,152,94998,2,0,B|220:212|292:192,1,110,2|0
384,152,95298,6,0,B|450:136|498:184|493:261|430:289,1,220,2|0
409,220,95748,2,0,B|472:195|472:108|426:47|313:95,1,220,2|0
268,135,96198,2,0,B|234:180|165:159,2,110,2|0|2
196,52,96648,1,0
168,160,96798,6,0,B|120:204|148:256|148:256|180:312|112:360,1,220,2|0
56,272,97248,2,0,B|99:223|151:251|151:251|207:283|255:215,1,220,2|0
300,128,97698,1,0
354,32,97848,1,2
464,32,97998,1,0
464,34,98298,6,0,B|464:122|464:122|464:154|436:190|388:190|388:190|332:190,1,220,2|0
368,300,98748,2,0,B|368:212|368:212|368:180|340:144|292:144|292:144|236:144,1,220,2|0
161,144,99198,1,2
51,144,99348,1,0
161,144,99498,1,0
51,144,99648,1,0
161,144,99798,6,0,B|392:144,1,220,2|0
328,240,100248,2,0,B|400:240|400:240|432:240|460:256|472:296|460:340|408:348|408:348|392:348,1,220,2|0
317,342,100698,1,2
207,342,100848,1,0
129,264,100998,1,2
60,56,101298,5,0
452,56,101748,1,2
256,320,102198,6,0,B|256:208,1,110,0|2
256,100,102498,1,0
256,100,102573,1,0
256,100,102648,1,0
256,100,102723,1,0
256,100,102798,6,0,B|168:100|168:100|128:100|96:132|96:164|96:164|96:200,1,220,4|0
172,196,103248,2,0,B|84:196|84:196|44:196|12:228|12:260|12:260|12:296,1,220,2|0
122,286,103698,2,0,B|242:286,1,110,2|0
342,286,103998,1,2
294,198,104148,1,0
256,100,104298,6,0,B|344:100|344:100|384:100|416:132|416:164|416:164|416:200,1,220,2|0
306,190,104748,2,0,B|394:190|394:190|434:190|466:222|466:254|466:254|466:290,1,220,2|0
366,278,105198,2,0,B|246:278,1,110,0|2
204,192,105498,1,2
204,192,105798,6,0,B|160:192|160:192|124:192|100:168|100:140|100:140|100:44,1,220,2|0
204,192,106248,2,0,B|160:192|160:192|124:192|100:216|100:244|100:244|100:340,1,220,2|0
204,302,106698,1,0
204,82,106998,1,2
396,144,107298,6,0,B|396:116|396:116|396:92|416:68|440:68|440:68|456:68,2,110,2|0|0
285,144,107748,2,0,B|380:144|380:144|408:144|432:164|432:192|432:192|432:248,1,220,2|0
372,332,108198,1,0
320,236,108348,1,2
268,332,108498,1,2
216,236,108648,1,0
161,331,108798,6,0,B|105:359|29:323|13:223|105:183,1,220,2|0
180,206,109248,2,0,B|152:150|184:74|288:58|328:150,1,220,2|0
276,220,109698,2,0,B|332:192|408:224|424:328|332:368,1,220,2|2
476,316,110148,1,0
448,208,110298,5,2
364,136,110448,1,0
256,132,110598,1,2
156,180,110748,2,0,B|136:276|136:276|128:312|96:328|64:332|64:332|20:328,1,220,2|0
52,220,111198,2,0,B|72:123|72:123|80:87|112:71|144:67|144:67|168:70,1,220,2|0
244,248,111798,6,0,B|464:248,1,220,2|0
416,348,112248,2,0,B|296:148,1,220,2|0
244,64,112698,1,2
244,64,112998,1,0
128,252,113298,6,0,B|88:252|88:252|72:252|48:228|48:196|48:196|48:168|48:168|48:144|68:120|96:120|96:120|120:120,1,220,2|0
188,188,113748,2,0,B|228:188|228:188|244:188|268:212|268:244|268:244|268:272|268:272|268:296|248:320|220:320|220:320|196:320,1,220,2|0
112,360,114198,1,2
112,360,114348,1,0
112,360,114498,1,0
256,192,114798,12,0,117498
256,272,120048,6,0,B|256:336,2,55,0|2|0
256,161,120348,1,0
256,161,120498,1,2
100,316,120798,6,0,B|100:84,1,220,4|0
192,256,121248,2,0,B|192:24,1,220,2|0
284,92,121698,1,2
384,136,121848,1,0
404,244,121998,1,2
320,316,122148,5,0
320,316,122223,1,0
320,316,122298,2,0,B|72:316,1,220,2|0
256,228,122748,2,0,B|28:228,1,220,2|0
92,132,123198,1,2
192,88,123348,1,0
292,136,123498,2,0,B|356:136,2,55
236,232,123798,6,0,B|236:204|236:204|236:164|204:140|160:140|160:140|64:140,1,220,2|0
140,230,124248,2,0,B|140:258|140:258|140:298|168:330|216:330|216:330|312:330,1,220,2|0
400,304,124698,1,0
456,208,124848,1,2
436,100,124998,1,2
352,28,125148,1,0
244,32,125298,1,2
256,192,125448,12,4,126798
132,104,138048,6,0,B|124:76|72:48,2,55,0|0|2
144,212,138348,1,0
236,272,138498,1,2
344,244,138648,1,0
344,244,138723,1,0
344,244,138798,6,0,B|344:220|344:220|344:188|368:164|396:164|396:164|420:164|448:140|448:108|448:108|448:44,1,220,4|0
448,79,139248,2,0,B|448:336,1,220,2|0
352,352,139698,1,2
256,300,139848,1,0
232,192,139998,1,2
148,264,140148,1,0
56,204,140298,6,0,B|56:152|56:152|56:108|92:72|140:72|140:72|192:72,1,220,2|0
291,72,140748,1,2
152,240,141048,1,0
240,308,141198,1,2
292,212,141348,1,0
344,308,141498,1,0
432,240,141648,1,0
448,132,141798,6,0,B|428:108|396:100|368:112|348:136|348:136|332:156|296:172|260:156|248:124,1,220,2|0
64,134,142248,2,2,B|84:110|116:102|140:118|164:138|164:138|184:158|216:174|252:158|264:126,1,220,2|0
256,28,142698,1,2
257,138,142848,1,0
256,248,142998,1,2
256,248,143298,6,0,B|232:312|232:312|220:336|192:352|160:344|160:344|136:336|120:312|128:272,1,220,2|0
256,248,143748,2,2,B|280:312|280:312|292:336|320:352|352:344|352:344|376:336|392:312|384:272,1,220,2|0
356,184,144198,1,2
320,80,144348,1,2
192,80,144498,1,2
156,184,144648,1,0
256,156,144798,6,0,B|252:256|168:300|168:300|104:300,1,220,2|0
256,156,145248,2,2,B|260:256|344:300|344:300|408:300,1,220,2|0
460,216,145698,1,2
392,128,145848,1,0
464,44,145998,1,2
88,108,146298,6,0,B|132:44|208:56|252:104|228:184,1,220,2|0
285,259,146748,2,2,B|365:262|397:192|390:125|305:101,1,220,2|0
233,157,147198,1,2
164,244,147348,1,0
212,344,147498,1,0
412,344,147798,6,0,B|368:287|368:287|332:244|380:171|452:215,1,220,2|0
332,176,148248,2,2,B|390:212|438:140|402:96|402:96|358:40,1,220,2|0
256,80,148698,1,2
256,188,148848,1,0
256,296,148998,1,0
100,344,149298,6,0,B|143:287|143:287|179:244|131:171|59:215,1,220,2|0
181,175,149748,2,2,B|122:211|74:139|110:95|110:95|154:39,1,220,2|0
343,67,150198,6,0,B|280:68|261:127,1,110,0|2
261,256,150498,2,0,B|280:316|343:316,1,110,2|0
484,192,150798,1,2
376,104,156048,6,0,B|388:84|428:72,2,55,0|0|2
328,204,156348,1,0
224,260,156498,1,2
116,252,156648,1,0
116,252,156723,1,0
116,252,156798,6,0,B|116:156|116:156|116:128|148:96|180:96|180:96|240:96,1,220,2|0
208,208,157248,2,0,B|208:112|208:112|208:84|240:52|272:52|272:52|332:52,1,220,2|0
412,52,157698,1,2
472,144,157848,1,0
416,240,157998,1,2
306,240,158148,1,0
306,240,158223,1,0
307,241,158298,6,0,B|306:286|306:286|306:310|278:338|250:338|218:314|218:282|218:282|218:234,1,220,2|0
218,130,158748,2,0,B|218:88|218:88|218:56|186:32|158:32|130:60|130:84|130:84|129:129,1,220,2|0
56,212,159198,1,2
56,322,159348,1,0
152,376,159498,1,0
152,264,159648,5,0
152,264,159723,1,0
152,264,159798,2,0,B|224:264|224:264|288:228|288:228|376:228,1,220,2|0
476,228,160248,1,0
476,228,160548,2,0,B|476:352,2,110,0|2|2
476,117,160998,1,0
380,172,161148,5,0
380,172,161223,1,0
380,171,161298,2,0,B|308:171|308:171|244:207|244:207|156:207,1,220,2|0
56,207,161748,1,2
256,192,161898,12,4,162798
128,244,163098,5,0
96,144,163248,2,0,B|112:72|188:72,2,110,2|0|0
200,176,163698,1,2
200,176,163998,1,2
492,164,164298,5,0
452,60,164448,1,0
375,138,164598,1,0
412,240,164748,2,0,B|396:312|320:312,2,110,2|0|0
312,208,165198,1,2
312,208,165498,1,2
256,32,165798,6,0,B|172:56|172:56|144:128|232:196,1,220,2|0
256,32,166248,2,0,B|340:56|340:56|368:128|280:196,1,220,2|0
256,272,166698,1,2
352,324,166848,1,0
256,376,166998,1,2
160,324,167148,1,0
256,272,167298,6,0,B|235:241|214:228|183:228|159:238|159:238|133:249|99:246|80:231|71:201,1,220,2|0
256,272,167748,2,0,B|276:241|297:228|328:228|352:238|352:238|378:249|412:246|431:231|440:201,1,220,2|0
340,140,168198,1,2
256,68,168348,1,2
172,140,168498,1,2
256,68,168648,1,0
340,140,168798,6,0,B|405:172|458:112,1,110,0|2
340,140,169098,2,0,B|262:246,2,110,0|2|0
384,36,169548,1,0
340,140,169698,1,2
340,140,169998,1,2
172,140,170298,6,0,B|106:172|53:112,1,110,0|2
172,140,170598,2,0,B|249:246,2,110,0|2|0
128,36,171048,1,0
172,140,171198,1,2
172,140,171498,1,2
356,220,171798,6,0,B|428:320,2,110,2|0|0
256,268,172248,2,0,B|256:400,2,110,2|0|0
156,220,172698,2,0,B|84:320,2,110,2|0|2
116,64,173298,5,0
396,64,173748,1,2
256,308,174198,2,0,B|256:172,1,110,0|2
256,88,174498,1,0
256,88,174573,1,0
256,88,174648,1,0
256,88,174723,1,0
256,88,174798,6,0,B|184:64|184:64|136:104|136:104|56:88,1,220,4|0
55,198,175248,2,0,B|135:181|135:181|183:221|183:221|255:197,1,220,2|0
352,144,175698,1,0
464,144,175848,1,2
408,52,175998,1,2
352,144,176148,1,0
408,240,176298,6,0,B|408:272|408:272|408:308|384:332|344:332|344:332|240:332,1,220,2|0
312,237,176748,2,0,B|280:237|280:237|244:237|220:213|220:173|220:173|220:69,1,220,2|0
124,32,177198,1,2
124,142,177348,1,0
140,252,177498,1,2
224,324,177648,1,0
334,324,177798,6,0,B|418:324|418:324|450:320|472:288|464:256|434:232|390:240,1,220,2|0
296,238,178248,2,0,B|212:238|212:238|180:234|160:204|164:168|196:146|240:154,1,220,2|0
301,74,178698,1,2
378,151,178848,1,0
455,73,178998,1,2
378,151,179148,1,0
304,232,179298,6,0,B|356:272|332:364|244:388|176:300,1,220,2|0
176,228,179748,2,0,B|136:280|40:256|16:168|112:100,1,220,2|0
164,72,180198,1,0
272,52,180348,1,2
368,104,180498,1,2
408,208,180648,1,0
376,312,180798,6,0,B|348:368|264:384|200:364|164:276,1,220,2|0
184,208,181248,1,2
284,264,181398,2,0,B|312:208|396:192|460:212|496:300,2,220,0|2|0
92,160,182298,6,0,B|280:16,1,220,2|0
212,176,182748,2,0,B|400:32,1,220,2|0
480,104,183198,1,0
388,168,183348,1,2
480,228,183498,1,2
388,292,183648,1,0
287,248,183798,6,0,B|268:283|229:292|199:276|180:260|180:260|163:248|139:232|99:244|87:280,1,220,2|0
231,212,184248,2,0,B|247:180|289:168|312:180|332:194|332:194|357:214|379:228|419:216|431:180,1,220,2|0
381,93,184698,2,0,B|460:10,2,110,2|0|2
274,66,185148,1,0
170,102,185298,6,0,B|101:144|120:220|176:268|264:216,1,220,2|0
328,180,185748,2,0,B|252:172|218:246|235:317|337:327,1,220,2|0
412,308,186198,1,2
492,232,186348,1,0
500,124,186498,1,2
440,32,186648,1,0
332,16,186798,5,4
256,192,192798,12,0,196998
396,320,197298,5,0
116,320,197748,1,2
256,76,198198,2,0,B|256:212,1,110,0|2
256,296,198498,1,0
256,296,198573,1,0
256,296,198648,1,0
256,296,198723,1,0
256,296,198798,6,0,B|261:275|302:267|325:285|341:298|341:298|358:316|387:334|426:329|448:295,1,220,4|0
447,187,199248,2,0,B|426:155|386:150|358:168|340:186|340:186|324:199|302:217|261:209|255:189,1,220,2|0
160,244,199698,1,2
104,340,199848,1,2
160,244,199998,1,0
49,244,200148,1,2
104,144,200298,6,0,B|104:112|104:112|104:76|128:52|168:52|168:52|272:52,1,220,2|2
200,147,200748,2,0,B|232:147|232:147|268:147|292:171|292:211|292:211|292:315,1,220,2|0
388,352,201198,1,2
388,242,201348,1,0
372,132,201498,1,2
288,60,201648,1,0
178,60,201798,6,0,B|94:60|94:60|62:64|40:96|48:128|78:152|122:144,1,220,2|0
177,59,202248,2,0,B|261:59|261:59|293:63|313:93|309:129|277:151|233:143,1,220,2|0
180,232,202698,1,2
96,304,202848,1,0
180,376,202998,1,2
264,304,203148,1,0
360,252,203298,6,0,B|427:259|468:182|456:107|333:96,1,220,2|0
369,178,203748,2,0,B|434:194|454:259|414:325|345:320,1,220,2|0
236,324,204198,1,0
152,252,204348,1,2
152,132,204498,1,2
236,60,204648,1,0
351,53,204798,6,0,B|407:25|483:61|499:161|407:201,1,220,2|0
332,178,205248,2,0,B|360:234|328:310|224:326|184:234,1,220,2|2
236,164,205698,2,0,B|180:192|104:160|88:56|180:16,1,220,2|0
36,68,206148,1,0
64,176,206298,5,2
148,248,206448,1,0
256,252,206598,1,0
356,204,206748,2,0,B|376:108|376:108|384:72|416:56|448:52|448:52|492:56,1,220,2|0
460,164,207198,2,0,B|440:261|440:261|432:297|400:313|368:317|368:317|344:314,1,220,2|0
176,172,207798,6,0,B|252:196|304:136|300:60|200:26,1,220,2|0
176,172,208248,2,0,B|99:147|54:211|54:285|151:317,1,220,2|0
224,332,208698,1,2
224,332,208998,1,0
384,132,209298,6,0,B|424:132|424:132|440:132|464:156|464:188|464:188|464:216|464:216|464:240|444:264|416:264|416:264|392:264,1,220,2|0
324,196,209748,2,0,B|284:196|284:196|268:196|244:172|244:140|244:140|244:112|244:112|244:88|264:64|292:64|292:64|316:64,1,220,2|0
400,24,210198,1,0
400,24,210348,1,2
400,24,210498,1,2
256,192,210798,12,0,213498
