osu file format v9

[General]
AudioFilename: Kagamine Rin & Len - Jutenija.mp3
AudioLeadIn: 0
PreviewTime: 90510
Countdown: 0
SampleSet: Soft
StackLeniency: 0.7
Mode: 0
LetterboxInBreaks: 0

[Editor]
Bookmarks: 54873,82410,90348,126873,137616,174798
DistanceSpacing: 0.8
BeatDivisor: 2
GridSize: 4

[Metadata]
Title:Jutenija
Artist:Kagamine Rin & Len
Creator:Arusha Shuna
Version:Calm
Source:Vocaloid2
Tags:dateken darkdunskin vocaloid

[Difficulty]
HPDrainRate:1
CircleSize:3
OverallDifficulty:1
ApproachRate:2
SliderMultiplier:0.6
SliderTickRate:2

[Events]
//Background and Video events
0,0,"8f37bd5445ce1005f49a90ace1ba90cbe4606bd4.jpg"
//Break Periods
2,78998,87738
2,117698,119238
2,126998,137238
2,150998,155238
2,186998,195738
//Storyboard Layer 0 (Background)
//Storyboard Layer 1 (Fail)
//Storyboard Layer 2 (Pass)
//Storyboard Layer 3 (Foreground)
//Storyboard Sound Samples
//Background Colour Transformations
3,100,163,162,255

[TimingPoints]
30798.7087958678,300,5,2,0,60,1,0
42798,-100,5,2,0,75,0,0
102798,-100,5,2,0,85,0,1
117492,-100,5,2,0,75,0,0
174798,-100,5,2,0,85,0,1
186798,-100,5,2,0,75,0,0
198798,-100,5,2,0,85,0,1
210798,-100,5,2,0,5,0,0

[Colours]
Combo1 : 140,242,164
Combo2 : 0,255,128
Combo3 : 40,236,19
Combo4 : 128,255,0
SliderBorder : 3,252,108

[HitObjects]
136,192,30798,1,4
256,280,32298,1,2
372,188,33798,1,0
256,96,35298,1,2
132,232,36798,6,0,B|80:284|96:364|192:396|240:336,1,240,4|2
280,344,38298,2,0,B|332:396|412:380|444:283|384:236,1,240,2|2
360,208,39798,5,2
256,44,40998,1,2
256,44,41298,1,2
152,204,42498,1,2
152,204,42798,6,0,B|151:277|100:308,2,120,4|0|0
152,155,44298,2,0,B|160:83|216:51,2,120,2|0|2
188,188,45798,6,0,B|244:276,1,90,2|0
292,308,46698,1,2
336,288,46998,1,2
368,252,47298,2,0,B|404:208|384:152,1,90,2|0
348,108,48198,2,0,B|280:108,1,60,0|2
240,108,48798,6,0,B|140:88,1,90,2|0
140,160,49698,1,2
124,204,49998,1,0
144,248,50298,2,0,B|144:324|108:344,2,90,2|2|0
192,256,51498,1,2
236,236,51798,6,0,B|272:172|348:184,2,120,2|0|0
268,272,53298,2,0,B|343:371,2,120,2|0|2
300,236,54798,5,2
300,92,55698,1,0
256,76,55998,1,0
212,92,56298,1,2
152,224,57198,6,0,B|84:276,2,60,0|2|2
256,320,58698,1,2
304,320,58998,1,2
352,320,59298,2,0,B|380:320|380:320|408:320|432:296|432:260|432:260|432:176,1,180,2|2
436,100,60798,6,0,B|416:100|416:100|372:100|336:136|336:180|336:180|336:224,1,180,2|2
268,283,62298,2,0,B|268:263|268:263|268:219|232:183|188:183|188:183|144:183,1,180,2|0
176,88,63798,2,0,B|72:56,2,90,2|0|2
272,88,65298,2,0,B|376:56,2,90,2|0|2
224,108,66498,1,2
224,156,66798,6,0,B|224:268,1,90,2|2
284,296,67698,1,0
324,268,67998,1,0
344,224,68298,1,2
344,80,69198,2,0,B|344:8,1,60,0|2
344,80,69798,6,0,B|240:80,1,90,2|2
184,76,70698,1,0
184,76,70998,1,0
184,76,71298,2,0,B|184:180,1,90,2|2
184,238,72198,1,2
256,300,72798,6,0,B|308:348|416:328|428:284,1,180,2|2
492,232,74298,2,0,B|444:200|372:196|316:244,1,180,2|0
232,208,75798,6,0,B|144:136,1,90,2|0
208,96,76698,1,2
236,56,76998,1,0
284,56,77298,2,0,B|388:56,1,90,2|2
420,108,78198,5,2
420,155,78498,1,2
420,203,78798,1,0
256,192,89298,12,4,90798
84,212,92298,6,0,B|64:148|84:68|200:64|236:112,1,240,2|0
256,64,93798,2,0,B|256:312,1,240,2|0
287,283,95298,2,0,B|312:320|428:316|448:236|428:172,1,240,2|0
444,128,96798,6,0,B|344:128,1,90,2|0
304,76,97698,1,2
270,109,97998,1,2
236,142,98298,6,0,B|236:250,1,90
185,282,99198,1,2
151,248,99498,1,2
117,214,99798,2,0,B|117:112,1,90,0|2
117,52,100698,6,0,B|45:52,2,60,0|2|0
189,52,101748,2,0,B|245:18|327:66|327:150|293:173,1,210,2|4
344,244,103248,6,0,B|360:308|332:364|260:384|196:336,1,210,2|0
220,280,104748,2,0,B|194:335|132:359|74:337|46:267,1,210,2|0
50,210,106248,2,0,B|106:110|226:106,1,210,2|0
293,106,107748,2,0,B|408:109|464:209,1,210,2|0
428,272,109248,6,0,B|372:332|268:292,1,150,2|2
248,272,110298,1,0
164,328,110748,6,0,B|164:168,1,150,2|2
164,132,111798,2,0,B|156:72|232:44|288:72|288:128|288:128|288:188,1,240,0|2
253,205,113298,2,0,B|253:248|253:248|253:304|309:332|385:304|377:244,1,240,2|0
256,192,114798,12,0,117498
72,144,120798,6,0,B|60:80|136:36|196:88,1,180,2|0
164,180,122298,2,0,B|140:248|224:300|292:232,1,180,2|0
292,148,123798,2,0,B|376:140|432:268|332:340,1,240,2|2
256,192,125298,12,4,126798
92,76,138798,5,4
160,56,139248,2,0,B|260:36|308:104,1,150,2|0
344,96,140298,2,0,B|304:120|280:176|300:224|352:256,1,180,2|2
404,176,141798,6,0,B|216:176,1,180,2|2
164,100,143298,2,0,B|124:112|100:180|120:228|172:260,1,180,2|0
192,340,144798,6,0,B|376:340,1,180,2|2
412,252,146298,1,2
412,252,146748,2,0,B|372:252|372:252|336:252|312:228|312:200|312:200|312:168,1,150,2|0
308,132,147798,6,0,B|196:132,2,90,2|2|0
404,132,149298,2,0,B|514:133,2,90,0|2|2
404,180,150498,1,2
404,228,150798,1,2
132,168,156798,6,0,B|160:127|212:108,2,90,2|2|2
132,216,157998,1,0
165,249,158298,2,0,B|143:284|80:320,2,90,2|2|2
213,249,159498,1,0
256,232,159798,6,0,B|288:252|336:244|340:172|384:152|428:176,1,180,2|2
456,188,160998,1,0
256,192,161298,12,4,162798
360,192,164298,6,0,B|306:183|266:138|292:95|269:50|193:42,1,240,2|0
164,80,165798,2,0,B|156:156|132:192|132:192|156:236|172:312,1,240,2|0
192,341,167298,2,0,B|269:333|292:288|266:245|306:200|360:192,1,240,2|0
396,160,168798,2,0,B|436:100|348:24|280:112,1,180
252,108,169998,1,0
208,128,170298,6,0,B|96:128,2,90,0|2|2
248,152,171498,1,0
268,196,171798,6,0,B|276:252|228:288,2,90,0|2|2
300,160,172998,1,0
348,148,173298,2,0,B|416:144|448:192|444:248|396:280,1,180,2|2
452,292,174498,5,0
452,292,174798,2,0,B|336:212|212:296,1,240,4|0
184,316,176298,2,0,B|212:260|224:188|164:132|88:112,1,240,2|0
72,144,177798,6,0,B|96:68|144:28|228:40|276:80,1,240,2|0
308,52,179298,2,0,B|276:84|288:144|332:172|340:228|280:276,1,240,2|0
244,304,180798,6,0,B|176:352|80:304|84:248,1,180,2|2
88,224,181998,1,0
88,176,182298,6,0,B|128:72|256:80,1,180,2|2
256,116,183498,1,0
285,79,183798,6,0,B|388:80|432:192,1,180,0|2
424,224,184998,5,2
424,270,185298,2,0,B|424:312|336:352|268:304,1,180,2|0
256,264,186498,1,2
256,216,186798,1,4
294,244,197298,6,0,B|314:300|278:332,2,90,0|2|2
266,204,198498,1,0
218,192,198798,1,4
168,140,199248,6,0,B|152:76|180:20|252:0|316:48,1,210,2|0
292,104,200748,2,0,B|318:49|380:25|438:47|466:117,1,210,2|0
462,174,202248,2,0,B|406:274|286:278,1,210,2|0
232,236,203748,6,0,B|188:204|188:132|232:100,1,150,2|2
268,80,204798,6,0,B|336:32|432:80|428:136,1,180,2|2
424,160,205998,1,0
424,208,206298,6,0,B|384:312|256:304,1,180,2|2
256,268,207498,1,0
226,304,207798,6,0,B|124:304|80:192,1,180,0|2
88,160,208998,5,2
87,113,209298,2,0,B|88:72|176:32|244:80,1,180,2|0
256,120,210498,1,2
256,192,210798,12,0,213498
