osu file format v9

[General]
AudioFilename: Kagamine Rin & Len - Jutenija.mp3
AudioLeadIn: 0
PreviewTime: 90510
Countdown: 0
SampleSet: Soft
StackLeniency: 0.7
Mode: 0
LetterboxInBreaks: 0

[Editor]
Bookmarks: 30798,73323,82410,137616
DistanceSpacing: 1
BeatDivisor: 4
GridSize: 4

[Metadata]
Title:Jutenija
Artist:Kagamine Rin & Len
Creator:Arusha Shuna
Version:Breeze
Source:Vocaloid2
Tags:dateken darkdunskin vocaloid

[Difficulty]
HPDrainRate:5
CircleSize:4
OverallDifficulty:7
ApproachRate:7
SliderMultiplier:1.6
SliderTickRate:2

[Events]
//Background and Video events
0,0,"8f37bd5445ce1005f49a90ace1ba90cbe4606bd4.jpg"
//Break Periods
2,78998,83298
2,117698,119298
2,126998,137898
2,150998,155898
2,186998,196398
//Storyboard Layer 0 (Background)
//Storyboard Layer 1 (Fail)
//Storyboard Layer 2 (Pass)
//Storyboard Layer 3 (Foreground)
//Storyboard Sound Samples
//Background Colour Transformations
3,100,163,162,255

[TimingPoints]
30798.7087958678,300,5,2,0,60,1,0
102798,-100,5,2,0,75,0,1
117492,-100,5,2,0,60,0,0
174798,-100,5,2,0,75,0,1
186798,-100,5,2,0,60,0,0
198798,-100,5,2,0,75,0,1
210798,-100,5,2,0,5,0,0

[Colours]
Combo1 : 140,242,164
Combo2 : 0,255,128
Combo3 : 40,236,19
Combo4 : 128,255,0
SliderBorder : 3,252,108

[HitObjects]
220,104,30799,2,0,B|196:56|232:8|292:8|328:60,1,160,4|0
328,120,31248,2,0,B|372:96|424:132|424:192|372:228,1,160,2|0
332,268,31698,1,2
332,268,31848,1,0
332,268,31998,6,0,B|172:360,2,160,2|2|2
296,196,32748,2,0,B|120:196,1,160,0|2
84,132,33198,1,2
84,132,33498,1,0
232,72,33798,6,0,B|304:72|304:72|336:72|360:96|360:128|360:128|360:152,1,160,2|0
440,128,34248,2,0,B|440:200|440:200|440:232|416:256|384:256|384:256|360:256,1,160,2|0
316,216,34698,1,2
192,316,34998,1,0
168,160,35298,6,0,B|136:96|188:32|256:48,1,160,2|0
244,124,35748,2,0,B|276:180|240:248|156:248,1,160,2|0
108,220,36198,1,2
240,312,36498,1,0
368,216,36798,5,2
296,72,37098,1,0
216,72,37248,2,0,B|128:28|60:112,1,160,2|0
136,148,37698,2,0,B|64:220|140:308,1,160,0|2
280,240,38298,6,0,B|448:240,1,160,2|0
416,164,38748,1,2
368,316,39048,1,0
288,316,39198,2,0,B|184:316,3,80,0|2|0|2
151,259,39798,5,2
148,100,40098,1,2
204,44,40248,2,0,B|268:-32|372:16,1,160,2|0
372,80,40698,2,0,B|316:156|192:104,1,160,2|0
148,100,41148,1,0
72,128,41298,6,0,B|28:316,1,160,2|0
96,336,41748,2,0,B|136:168,1,160,2|0
208,156,42198,1,2
208,156,42498,1,0
344,72,42798,6,0,B|376:36|408:16|448:20|472:36|508:64,1,160,4|0
432,108,43248,2,0,B|456:140|492:176|484:212|468:236|440:272,1,160,2|0
396,196,43698,1,2
308,332,43998,1,0
468,336,44298,6,0,B|304:232,1,160,2|0
264,208,44748,1,2
140,108,45048,2,0,B|108:72|52:92,2,80,0|2|0
84,164,45498,1,2
144,312,45798,6,0,B|168:212|268:168,1,160,2|0
240,296,46248,2,0,B|336:260|404:360,1,160,2|0
448,284,46698,1,2
476,208,46848,1,0
444,136,46998,1,2
244,84,47298,6,0,B|196:32|112:88|168:160,1,160,2|0
216,200,47748,2,0,B|168:148|84:204|140:276,1,160,2|0
208,284,48198,1,2
208,284,48498,1,0
344,232,48798,6,0,B|394:193|449:245,2,80,2|0|2
292,292,49248,2,0,B|292:352|208:399|160:344,1,160,2|0
112,296,49698,1,2
112,152,49998,1,2
64,224,50148,1,0
160,224,50298,6,0,B|264:216|312:288,1,160,2|0
280,164,50748,2,0,B|348:120|332:20,1,160,2|0
252,32,51198,1,2
184,72,51348,1,0
152,144,51498,1,0
208,296,51798,6,0,B|280:356|384:304,1,160,2|0
272,240,52248,2,0,B|196:184|96:232,1,160,2|0
96,296,52698,1,2
147,144,52998,1,0
274,240,53298,6,0,B|437:328,1,160,2|0
395,218,53748,2,0,B|255:139,1,160,2|0
318,89,54198,1,2
194,191,54498,1,0
82,305,54798,5,2
236,347,55098,1,0
303,303,55248,1,2
241,155,55548,1,0
162,139,55698,1,2
310,198,55998,1,0
435,98,56298,6,0,B|418:48|348:44,2,80,2|0|2
360,126,56748,1,2
212,63,57048,2,0,B|119:28,1,80,0|2
49,168,57498,1,0
140,299,57798,6,0,B|188:360|188:360|231:381|295:346,1,160,2|0
229,288,58248,2,0,B|277:227|277:227|320:206|384:241,1,160,2|0
399,295,58698,1,2
332,149,58998,1,0
193,68,59298,5,2
122,105,59448,1,0
97,181,59598,1,0
111,260,59748,2,0,B|119:326|176:363|219:358,1,160,2|0
297,341,60198,1,2
297,341,60348,1,0
297,341,60498,1,0
359,193,60798,6,0,B|400:152|392:72|324:56,1,160,2|0
296,132,61248,2,0,B|260:80|176:92|157:163,1,160,2|0
236,180,61698,1,2
216,28,61998,1,0
236,180,62298,6,0,B|280:368,1,160,2|0
324,272,62748,2,0,B|284:222|202:241|187:313,1,160,2|0
116,276,63198,1,2
72,208,63348,1,0
32,276,63498,1,0
81,126,63798,6,0,B|93:91|149:86|205:90|217:126,1,160,2|0
188,200,64248,2,0,B|200:165|256:160|312:164|324:200,1,160,2|0
382,256,64698,1,2
325,312,64848,1,0
268,255,64998,1,0
431,126,65298,6,0,B|419:91|363:86|307:90|295:126,1,160,2|0
324,200,65748,2,0,B|312:165|256:160|200:164|188:200,1,160,2|0
132,256,66198,1,2
189,312,66348,1,0
246,255,66498,1,2
116,156,66798,6,0,B|84:144|84:144|64:136|48:112|48:84|48:84|48:12,1,160,2|0
132,72,67248,2,0,B|164:84|164:84|184:92|200:116|200:144|200:144|200:300,1,240,2|2
256,332,67848,1,0
312,275,67998,1,2
396,156,68298,6,0,B|428:144|428:144|448:136|464:112|464:84|464:84|464:12,1,160,2|0
380,72,68748,2,0,B|348:84|348:84|328:92|312:116|312:144|312:144|312:300,1,240,2|2
256,332,69348,1,0
200,275,69498,1,0
196,116,69798,5,2
56,36,70098,1,0
116,96,70248,2,0,B|76:151|76:151|54:180|54:214|80:236|80:236|109:254|136:244|155:218,1,240,2|0
224,192,70848,1,0
296,224,70998,1,2
328,68,71298,5,2
444,180,71598,1,0
424,256,71748,2,0,B|428:320|360:356|296:308,1,160,2|0
272,248,72198,2,0,B|306:302|264:366|185:355,2,160,2|0|2
424,188,73098,1,0
348,216,73248,2,0,B|348:48,1,160,2|0
348,56,73698,1,2
348,56,73848,1,0
348,56,73998,1,0
192,104,74298,6,0,B|64:240,1,160,2|0
200,204,74748,2,0,B|80:336,1,160,2|0
164,364,75198,1,2
244,364,75348,1,0
324,364,75498,1,0
400,228,75798,6,0,B|468:164|388:36|276:104,2,240,2|0|2
324,256,76848,1,0
256,216,76998,1,2
112,228,77298,6,0,B|44:164|124:36|236:104,2,240,2|0|2
188,256,78348,1,0
256,216,78498,1,2
256,56,78798,1,2
256,156,84198,6,0,B|256:64,2,80
188,300,84798,6,0,B|132:280|128:236|144:200|144:200|160:156|140:120|96:112,2,240,0|2|2
256,344,85848,1,0
256,260,85998,1,0
324,84,86298,6,0,B|380:104|384:148|368:184|368:184|352:228|372:264|416:272,2,240,0|2|2
256,40,87348,1,0
256,124,87498,1,0
100,92,87798,6,0,B|44:124|24:188|44:260|108:292,1,240,0|2
236,192,88548,1,0
316,192,88698,2,0,B|408:192,2,80,2|0|2
380,44,89298,5,2
192,192,89748,1,0
380,340,90198,1,2
444,192,90498,5,0
284,196,90798,2,0,B|272:104|172:84,1,160,4|0
102,86,91248,2,0,B|12:107|0:195,1,160,2|0
76,220,91698,1,2
144,176,91848,1,0
208,224,91998,1,2
356,284,92298,6,0,B|412:272|412:272|452:216|412:160|412:160|340:140,2,240,0|2|0
212,212,93498,1,2
164,276,93648,1,0
116,212,93798,6,0,B|116:152|116:152|112:116|136:88|176:88|176:88|260:88,1,240,2|2
400,156,94548,2,0,B|460:96,2,80,0|2|0
324,128,94998,1,2
312,208,95148,1,0
384,240,95298,2,0,B|416:304|348:364|272:316,1,160,2|0
220,328,95748,2,0,B|152:359|96:292|144:216,1,160,2|0
148,168,96198,2,0,B|168:84,2,80,2|2|0
324,208,96798,6,0,B|360:128|452:128|500:200|476:264,2,240,0|2|0
288,280,97848,1,2
220,328,97998,1,0
120,192,98298,5,2
80,348,98598,1,0
136,288,98748,2,0,B|272:152,1,160,2|0
204,108,99198,1,2
316,220,99498,1,0
384,76,99798,6,0,B|440:88|484:148|468:232|404:264,2,240,2|0|2
308,56,100848,1,0
328,132,100998,1,0
256,276,101298,5,0
256,276,101748,1,2
256,116,102048,1,0
256,116,102198,2,2,B|256:8,2,80,2|0|0
116,192,102798,6,0,B|160:264|72:336|24:272,1,160,4|0
40,212,103248,2,0,B|-4:140|84:68|132:132,1,160,2|0
184,140,103698,2,0,B|280:148,1,80,0|2
248,228,103998,2,0,B|344:236,1,80,2|0
396,192,104298,6,0,B|352:264|440:336|488:272,1,160,2|0
472,212,104748,2,0,B|516:140|428:68|380:132,1,160,2|0
328,140,105198,2,0,B|232:148,1,80,2|0
264,228,105498,2,0,B|168:236,1,80,0|2
132,172,105798,5,0
132,12,106098,1,0
64,56,106248,2,0,B|216:136,1,160,2|0
256,68,106698,1,2
256,228,106998,1,0
380,332,107298,6,0,B|452:340|488:260|428:200,1,160,2|0
366,224,107748,2,0,B|438:232|474:152|414:92,1,160,2|0
376,60,108198,1,2
376,60,108348,1,0
376,60,108498,1,0
220,88,108798,6,0,B|180:56|180:56|156:36|128:36|96:60|96:100|124:120|124:120|176:160,2,240,2|0|2
268,152,109848,1,0
348,152,109998,1,0
292,296,110298,6,0,B|332:328|332:328|356:348|384:348|416:324|416:284|388:264|388:264|336:224,2,240,0|2|0
244,232,111348,1,0
164,232,111498,1,2
140,72,111798,6,0,B|256:24|386:78,2,240,2|2|0
36,192,112998,1,2
140,312,113298,2,0,B|256:360|386:306,2,240,0|2|2
256,192,114498,1,0
256,192,114798,12,0,117498
204,112,120198,5,0
256,52,120348,1,0
308,112,120498,1,0
176,200,120798,6,0,B|216:272|160:336|80:344|28:272,2,240,0|2|2
256,340,121998,1,0
336,200,122298,2,0,B|296:272|352:336|432:344|484:272,2,240,2|0|2
256,60,123498,1,0
96,84,123798,6,0,B|160:248,1,160
140,312,124248,2,0,B|264:88,1,240,2|0
328,68,124848,1,2
400,100,124998,1,2
400,260,125298,1,2
256,192,125448,12,4,126798
72,252,138798,6,0,B|112:168|208:188|208:256,1,160,4|0
156,292,139248,2,0,B|196:348|276:332|320:260|308:196,1,240,2|2
288,124,139848,1,0
228,72,139998,1,2
364,156,140298,6,0,B|420:172|428:248|416:276|308:276|352:380,2,240,2|0|2
368,76,141348,1,0
436,116,141498,1,0
324,228,141798,6,0,B|280:268|208:240|200:184,1,160,2|0
252,124,142248,2,0,B|260:68|180:16|84:40|76:116,1,240,2|0
80,184,142848,1,0
120,252,142998,1,2
272,304,143298,6,0,B|332:344|404:332|440:248|400:168,2,240,2|0|2
320,240,144348,1,2
320,240,144498,1,2
320,240,144648,1,0
320,240,144798,6,0,B|276:71|156:48,2,240,0|2|2
240,236,145848,1,0
276,308,145998,1,2
139,224,146298,6,0,B|120:166|176:106|237:135,1,160,2|0
247,53,146748,2,0,B|331:78|329:182|266:228|204:203,1,240,2|2
140,224,147348,1,0
112,300,147498,1,0
268,340,147798,6,0,B|436:340,1,160,2|0
392,264,148248,2,0,B|324:264|324:264|284:264|256:236|256:196|256:196|256:132,1,240,2|2
296,64,148848,1,0
336,132,148998,1,0
176,132,149298,6,0,B|136:72|48:80|-8:144|32:228,2,240,0|2|0
112,180,150348,1,2
184,212,150498,1,2
256,68,150798,1,2
172,264,156798,6,0,B|172:236|172:236|172:192|204:160|248:160|248:160|340:160,2,240,0|2|2
96,244,157848,1,0
112,164,157998,1,0
252,84,158298,6,0,B|300:35|300:35|325:10|350:-3|390:13|401:52|379:81|379:81|353:106,2,240,2|0|2
252,244,159498,1,0
252,244,159798,6,0,B|132:376,1,160
116,288,160248,2,0,B|196:200|196:200|112:108,1,240,2|0
184,72,160848,1,2
256,32,160998,1,2
396,112,161298,1,2
256,192,161448,12,4,162798
176,132,163098,5,0
236,80,163248,2,0,B|284:32|360:60|352:136,1,160,2|0
360,200,163698,2,2,B|372:256|416:272,2,80
256,324,164298,6,0,B|240:288|188:288|188:344|128:344|112:300,1,160,2|0
116,228,164748,2,0,B|132:192|184:192|184:248|244:248|260:204,1,160,2|0
316,268,165198,1,2
316,268,165498,1,0
436,164,165798,6,0,B|436:116|436:116|436:80|404:48|368:48|368:48|340:48,1,160,2|0
281,48,166248,2,0,B|274:48|274:48|238:48|206:80|206:116|206:116|206:164,1,160,2|0
125,163,166698,1,2
73,223,166848,1,0
73,303,166998,1,0
256,324,167298,6,0,B|188:348|160:248|208:224,1,160,2|0
284,244,167748,2,0,B|352:268|380:168|304:156,1,160,2|0
232,132,168198,2,0,B|140:108,2,80,0|2|2
372,52,168798,5,0
368,212,169098,1,0
448,200,169248,2,0,B|448:272|386:307|332:284,1,160,2|0
276,248,169698,1,2
196,236,169848,1,0
140,296,169998,1,2
156,128,170298,6,0,B|147:80|103:66|42:96|26:158|86:195|137:241,2,240,0|2|0
217,181,171348,1,0
261,114,171498,1,2
354,242,171798,6,0,B|362:289|406:303|467:273|483:211|423:174|372:128,2,240,0|2|0
293,188,172848,1,0
249,255,172998,1,2
256,56,173298,5,0
256,328,173748,1,2
316,136,174198,5,0
196,244,174498,1,2
152,92,174798,6,0,B|116:148|76:128|40:84|84:48,1,160,4|0
152,92,175248,2,0,B|188:36|228:56|264:100|220:136,1,160,2|0
172,196,175698,1,2
220,260,175848,1,0
272,196,175998,1,2
424,248,176298,6,0,B|368:212|388:172|432:136|468:180,1,160,2|0
424,248,176748,2,0,B|480:284|460:324|416:360|380:316,1,160,2|0
320,268,177198,1,2
256,316,177348,1,0
320,368,177498,1,2
168,316,177798,6,0,B|136:316|136:316|104:316|76:288|76:256|76:256|76:192,1,160,2|0
156,221,178248,2,0,B|188:221|188:221|220:221|248:193|248:161|248:161|248:97,1,160,2|0
167,126,178698,1,0
328,128,178998,1,2
460,220,179298,6,0,B|460:288|424:328|360:344,1,160,2|0
360,260,179748,2,0,B|276:304|196:232,1,160,2|0
272,192,180198,2,0,B|188:132|236:40,1,160,2|0
376,116,180798,6,0,B|448:192|376:292,1,160,0|0
472,248,181248,2,0,B|220:292,1,240,2|0
156,288,181848,1,0
92,240,181998,1,2
188,112,182298,6,0,B|268:64|356:120,1,160,0|0
340,32,182748,2,0,B|340:292,1,240,2|2
388,336,183348,1,0
440,276,183498,1,2
264,284,183798,6,0,B|224:328|160:340|96:284,1,160
160,224,184248,2,0,B|116:184|104:120|160:56,1,160,2|0
216,120,184698,2,0,B|256:76|320:64|384:120,1,160,2|0
420,264,185298,6,0,B|408:320|344:352|268:312,1,160
308,244,185748,2,0,B|244:256|196:184|232:132,1,160,2|0
304,152,186198,2,0,B|292:88|364:40|416:76,1,160,2|2
256,16,186798,5,4
44,312,197298,5,0
44,72,197748,1,2
236,196,198198,5,0
236,196,198498,1,2
396,192,198798,6,0,B|352:120|440:48|488:112,1,160,4|0
472,172,199248,2,0,B|516:244|428:316|380:252,1,160,2|0
328,244,199698,1,2
248,228,199848,2,0,B|272:140,1,80,2|0
192,128,200148,1,0
116,192,200298,6,0,B|160:120|72:48|24:112,1,160
40,172,200748,2,0,B|-4:244|84:316|132:252,1,160,2|0
188,280,201198,1,2
248,228,201348,2,0,B|232:140,1,80,0|2
312,152,201648,1,0
376,210,201798,5,0
376,370,202098,1,0
448,328,202248,2,0,B|296:248,1,160,2|0
256,316,202698,1,2
256,156,202998,1,0
132,52,203298,6,0,B|60:44|24:124|84:184,1,160,2|0
146,160,203748,2,0,B|74:152|38:232|98:292,1,160,2|0
136,324,204198,1,0
160,248,204348,2,0,B|240:248,1,80,2|0
264,324,204648,1,0
324,268,204798,6,0,B|396:192|324:92,1,160,2|0
384,52,205248,2,0,B|348:124|224:128|176:48,1,240,2|2
100,64,205848,1,0
96,144,205998,1,0
188,272,206298,6,0,B|268:320|356:264,1,160,2|0
396,332,206748,2,0,B|332:264|332:160|396:100,1,240,2|0
452,72,207348,1,0
384,32,207498,1,2
256,112,207798,6,0,B|216:68|152:56|88:112,1,160,2|0
54,37,208248,2,0,B|110:89|105:166|43:205,1,160,2|0
52,260,208698,2,0,B|80:196|145:175|218:202,1,160,2|0
256,272,209298,6,0,B|296:316|360:328|424:272,1,160
458,347,209748,2,0,B|402:295|407:218|469:179,1,160,2|0
460,124,210198,2,2,B|432:188|367:209|294:182,1,160,2|0
256,192,210798,12,0,213498
