osu file format v10

[General]
AudioFilename: .mp3
AudioLeadIn: 1654
PreviewTime: -1
Countdown: 1
SampleSet: None
StackLeniency: 0.7
Mode: 0
LetterboxInBreaks: 1

[Editor]
DistanceSpacing: 0.8
BeatDivisor: 16
GridSize: 32

[Metadata]
Title:The Wolf that Fell in Love with Little Red Riding Hood
TitleUnicode:The Wolf that Fell in Love with Little Red Riding Hood
Artist:Kagamine Len, Kagamine Rin
ArtistUnicode:Kagamine Len, Kagamine Rin
Creator:momo Hima
Version:Normal
Source:
Tags:Vocaloid,kagamine,rin,len
BeatmapID:191804
BeatmapSetID:65490

[Difficulty]
HPDrainRate:7
CircleSize:4
OverallDifficulty:6
ApproachRate:7
SliderMultiplier:1.4
SliderTickRate:1

[Events]
//Background and Video events
Video,0,"The Wolf that Fell in Love with Little Red Riding Hood.FLV"
0,0,"The.Wolf.Fell.in.Love.with.Red.Riding.Hood.600.1217495.jpg"
//Break Periods
2,3921,12455
2,63776,72859
//Storyboard Layer 0 (Background)
//Storyboard Layer 1 (Fail)
//Storyboard Layer 2 (Pass)
//Storyboard Layer 3 (Foreground)
//Storyboard Sound Samples
//Background Colour Transformations
3,100,163,162,255

[TimingPoints]
0,461.538461538462,4,1,0,100,1,0
2,-100,4,1,0,100,0,0

[Colours]
Combo1 : 128,128,128
Combo2 : 0,0,0
Combo3 : 192,192,192
Combo4 : 255,255,128

[HitObjects]
128,128,1413,1,0,0:0:0
224,96,1846,1,2,0:0:0
192,160,2163,1,0,0:0:0
128,224,2451,2,12,P|224:224,3,96.25,0|0|0|14,0:0|0:0|0:0|0:0,0:0:0
288,224,3721,1,4,0:0:0
71,90,13355,6,0,P|159:90|159:80,2,131.25
163,89,14653,1,0,0:0:0
164,90,14942,1,0,0:0:0
238,108,15288,2,0,P|238:187|238:186|238:184,1,70,2|0,0:0|0:0,0:0:0
306,124,15865,6,6,P|383:126,2,70
298,198,16673,2,8,P|227:199,1,70
373,197,17221,5,8,0:0:0
372,282,17538,2,0,P|192:282,1,175,0|6,0:0|0:0,0:0:0
193,227,18605,6,0,P|192:134|193:134,2,140
254,179,19903,1,4,0:0:0
339,180,20423,5,2,0:0:0
167,153,21086,2,0,P|246:82|372:132,1,253.75
371,130,22211,1,8,0:0:0
361,204,22557,2,0,P|288:205,2,70,0|6|4,0:0|0:0|0:0,0:0:0
135,235,23480,6,0,P|95:207|145:157,1,140
212,163,24259,1,6,0:0:0
271,180,24605,5,4,0:0:0
242,247,24865,2,0,P|306:247,3,61.25,0|2|8|0,0:0|0:0|0:0|0:0,0:0:0
307,181,25932,2,6,P|308:65,1,113.75
226,107,26625,1,2,0:0:0
162,112,26942,5,0,0:0:0
176,191,27201,2,8,P|252:192,3,70,0|4|2|0,0:0|0:0|0:0|0:0,0:0:0
304,85,28326,2,0,P|342:134|301:211,1,157.5,0|14,0:0|0:0,0:0:0
262,151,29192,6,0,P|175:148,4,87.5,0|0|12|2|4,0:0|0:0|0:0|0:0|0:0,0:0:0
109,84,30634,1,0,0:0:0
112,209,30980,1,4,0:0:0
217,264,31384,5,8,0:0:0
319,240,31759,1,2,0:0:0
381,144,32192,1,8,0:0:0
299,117,32480,2,0,P|212:117,2,87.5,0|4|0,0:0|0:0|0:0,0:0:0
225,95,33461,6,4,P|127:6|119:122|89:138|165:184|218:307,1,350
286,102,34875,2,4,P|350:9|507:186|335:257|217:306,1,402.5
71,304,36490,6,2,P|162:220|162:219,1,140
206,171,37240,2,12,P|333:154|332:150,1,210
296,111,38221,2,0,P|242:112,2,52.5
282,229,38913,6,0,P|112:62,1,236.25
79,34,39980,1,0,0:0:0
74,93,40355,2,0,P|156:20,2,105
171,117,41365,1,4,0:0:0
121,199,41653,6,0,P|204:276|270:248,3,192.5,0|12|6|0,0:0|0:0|0:0|0:0,0:0:0
260,133,43846,6,2,P|348:166|346:170,1,157.5
284,204,44567,1,14,0:0:0
165,144,44913,2,2,P|107:209|137:238,1,148.75
206,205,45634,1,14,0:0:0
222,99,45923,6,0,P|293:98,3,70,0|10|12|4,0:0|0:0|0:0|0:0,0:0:0
119,133,47019,1,2,0:0:0
45,261,47394,1,2,0:0:0
314,158,47769,1,4,0:0:0
251,294,48144,1,2,0:0:0
181,207,48519,1,12,0:0:0
376,236,48923,6,0,P|456:236,3,78.75,0|12|6|0,0:0|0:0|0:0|0:0,0:0:0
366,165,50019,2,0,P|366:70,3,87.5,0|4|6|0,0:0|0:0|0:0|0:0,0:0:0
260,97,51317,2,0,P|338:96,4,78.75,0|2|4|12|0,0:0|0:0|0:0|0:0|0:0,0:0:0
186,96,52730,5,8,0:0:0
188,176,53048,1,4,0:0:0
261,135,53336,1,2,0:0:0
346,137,53653,1,14,0:0:0
125,212,53971,6,0,P|283:211|287:228,1,218.75
343,222,54894,2,14,P|401:220,4,52.5
369,145,55875,1,4,0:0:0
114,202,56221,6,0,P|213:120|219:132,1,227.5
161,155,57230,1,0,0:0:0
231,155,57634,2,0,P|262:74,3,87.5
89,84,58875,6,10,P|176:83,2,87.5
23,79,59711,1,12,0:0:0
23,79,60086,1,6,0:0:0
101,80,60403,2,6,P|197:80,2,96.25
239,126,61269,6,8,P|294:55|295:54,1,87.5,0|0,0:0|0:0,0:0:0
252,182,61817,2,4,P|344:182,1,87.5
173,184,62394,2,14,P|175:263,2,78.75
187,92,63230,1,2,0:0:0
262,107,63576,1,4,0:0:0
72,105,73759,6,0,P|165:103,1,87.5
226,109,74278,1,0,0:0:0
301,112,74625,1,0,0:0:0
137,177,74942,2,0,P|237:177,2,96.25
362,92,75923,6,0,P|363:187|359:187,2,148.75
293,127,77192,6,0,P|212:127,3,78.75
134,72,78346,2,0,P|133:162,1,96.25
163,236,78894,1,0,0:0:0
257,229,79326,1,0,0:0:0
186,149,79615,6,0,P|309:92,1,131.25
355,67,80336,1,0,0:0:0
354,167,80653,1,0,0:0:0
281,119,80884,2,0,P|237:94,3,43.75
274,35,81605,1,0,0:0:0
201,141,81980,1,0,0:0:0
176,51,82326,2,0,P|128:116,1,78.75
256,192,82817,12,0,83423,0:0:0
151,134,83653,6,0,P|230:108,2,78.75
159,50,84461,1,0,0:0:0
203,207,84750,1,0,0:0:0
124,235,85067,2,0,P|159:302,2,70
151,74,86105,6,0,P|214:74,3,61.25
284,67,87057,1,0,0:0:0
352,66,87432,1,0,0:0:0
316,136,87807,1,0,0:0:0
70,150,88528,6,0,P|169:144|170:157,1,148.75
231,157,89250,6,0,P|284:158,2,52.5
257,217,89826,1,0,0:0:0
164,217,90028,1,0,0:0:0
161,95,90576,2,0,P|261:44,1,105
313,90,91125,2,0,P|360:122,5,52.5,0|0|6|0|12|0,0:0|0:0|0:0|0:0|0:0|0:0,0:0:0
358,183,92480,1,14,0:0:0
74,222,93692,2,0,P|250:82|263:101,2,367.5
