osu file format v6

[General]
AudioFilename: Kagamine Len and Rin - Trick and Treat.mp3
AudioLeadIn: 0
PreviewTime: -1
Countdown: 1
SampleSet: None
StackLeniency: 0.7
Mode: 0
LetterboxInBreaks: 1

[Editor]
DistanceSpacing: 0.800000011920929
BeatDivisor: 2
GridSize: 16

[Metadata]
Title:Trick and Treat
Artist:Kagamine Len and Rin
Creator:kairyushin
Version:Vince-Sane
Source:
Tags:

[Difficulty]
HPDrainRate:4
CircleSize:5
OverallDifficulty:5
SliderMultiplier:1.4
SliderTickRate:1

[Events]
//Background and Video events
0,0,"anime-14.jpg"
//Break Periods
2,99813,112893
2,156283,162353
//Storyboard Layer 0 (Background)
//Storyboard Layer 1 (Fail)
//Storyboard Layer 2 (Pass)
//Storyboard Layer 3 (Foreground)
//Storyboard Sound Samples
//Background Colour Transformations
3,100,255,255,255

[TimingPoints]
0,1000,4,0,0,100,1,0

[Colours]
Combo1 : 0,0,0
Combo2 : 255,128,0

[HitObjects]
113,140,9051,1,8
113,140,9451,1,8
113,140,9831,1,8
162,140,10271,1,8
110,140,10731,1,8
149,169,11171,1,8
154,219,11621,1,8
143,118,12521,5,8
154,164,12951,1,8
187,204,13421,1,8
231,196,13821,1,8
224,142,14301,1,8
241,185,14721,1,8
168,154,15421,1,8
190,163,15641,1,8
208,228,16251,5,8
202,206,16451,1,8
202,206,16701,1,8
202,155,17151,1,8
202,183,17401,1,8
202,205,17601,1,8
202,155,18041,1,8
202,179,18261,1,8
202,207,18511,1,8
202,158,18941,1,8
202,160,18961,1,8
202,183,19171,1,8
202,205,19371,1,8
202,160,19771,1,8
202,184,19991,1,8
202,212,20241,1,8
202,212,20491,1,8
202,212,20711,1,8
202,212,20941,1,8
202,212,21161,1,8
202,212,21371,1,8
406,124,23361,5,8
382,134,23591,1,8
356,145,23841,1,8
402,127,24281,1,8
355,145,24731,1,8
397,130,25131,1,8
374,138,25341,1,8
374,138,25591,1,8
327,156,26041,1,8
351,146,26271,1,8
351,146,26491,1,8
407,132,27011,5,8
360,143,27441,1,8
360,143,27811,1,8
360,143,28041,1,8
360,143,28261,1,8
360,143,28641,1,8
143,123,30581,5,8
119,121,30791,1,8
97,119,30981,1,8
99,165,31401,1,8
99,165,31601,1,8
112,186,31831,1,8
148,222,32291,1,8
142,198,32511,1,8
142,198,32741,1,8
154,143,33241,5,8
148,163,33431,1,8
148,163,33601,1,8
148,163,33831,1,8
170,175,34061,1,8
170,175,34301,1,8
154,192,34511,1,8
154,192,34751,1,8
131,200,34961,1,8
131,200,35161,1,8
104,202,35401,1,8
104,202,35631,1,8
277,65,37601,5,8
256,80,37831,1,8
234,97,38081,1,8
216,140,38501,1,8
216,140,38731,1,8
244,140,38981,1,8
286,130,39371,1,8
286,130,39601,1,8
286,130,39851,1,8
326,103,40281,1,8
301,114,40521,1,8
301,114,40751,1,8
253,114,41171,5,8
278,114,41401,1,8
278,114,41641,1,8
275,137,41851,1,8
275,137,42091,1,8
253,154,42341,1,8
253,154,42551,1,8
228,150,42771,1,8
113,145,43791,5,8
129,167,44041,1,8
129,167,44271,1,8
151,184,44521,1,8
166,164,44741,1,8
166,164,44961,1,8
166,140,45171,1,8
166,140,45391,1,8
140,133,45621,1,8
140,133,45841,1,8
124,156,46091,1,8
124,156,46291,1,8
137,174,46491,1,8
137,174,46721,1,8
160,165,46941,1,8
160,165,47141,1,8
158,137,47391,1,8
158,137,47611,1,8
132,148,47861,1,8
132,148,48091,1,8
142,168,48291,1,8
142,168,48491,1,8
162,154,48711,1,8
162,154,48931,1,8
162,154,49141,1,8
135,147,49381,1,8
135,147,49631,1,8
150,170,49881,1,8
150,170,50081,1,8
150,170,50261,1,8
150,170,50491,1,8
150,170,50741,1,8
150,170,50961,1,8
150,170,51201,1,8
180,132,51631,5,8
180,132,51851,1,8
199,145,52061,1,8
199,169,52281,1,8
172,185,52561,1,8
172,185,52751,1,8
172,185,52931,1,8
156,201,53131,1,8
167,226,53381,1,8
190,218,53601,1,8
210,202,53831,1,8
210,202,54061,1,8
226,160,54461,1,8
219,176,54621,1,8
219,176,54731,1,8
199,224,55201,5,8
217,180,55621,1,8
181,215,56071,1,8
215,181,56501,1,8
215,229,56931,1,8
213,178,57381,1,8
222,227,57831,1,8
212,176,58291,1,8
225,224,58741,5,8
218,199,58971,1,8
214,184,59101,1,8
214,184,59221,1,8
214,184,59441,1,8
214,184,59641,1,8
214,184,59821,1,8
214,184,60041,1,8
214,184,60271,1,8
214,184,60421,1,8
214,184,60541,1,8
214,184,60741,1,8
214,184,60941,1,8
214,184,61151,1,8
214,184,61291,1,8
214,184,61401,1,8
214,184,61641,1,8
214,184,61841,1,8
235,140,62271,5,8
227,155,62421,1,8
219,170,62571,1,8
219,170,62691,1,8
219,170,62921,1,8
219,170,63171,1,8
219,170,63391,1,8
219,170,63621,1,8
219,170,63841,1,8
219,170,64071,1,8
219,170,64291,1,8
219,170,64441,1,8
219,170,64561,1,8
219,170,64891,1,8
219,170,65111,1,8
219,170,65361,1,8
219,170,65541,1,8
219,170,65871,1,8
219,170,66071,1,8
219,170,66191,1,8
219,170,66291,1,8
219,170,66511,1,8
219,170,66741,1,8
219,170,66981,1,8
219,170,67181,1,8
219,170,67411,1,8
219,170,67541,1,8
219,170,67641,1,8
219,170,67861,1,8
219,170,68081,1,8
219,170,68341,1,8
219,170,68541,1,8
219,170,68761,1,8
219,170,68941,1,8
219,220,69391,5,8
217,197,69591,1,8
217,181,69731,1,8
217,181,69861,1,8
217,181,70091,1,8
217,181,70291,1,8
217,181,70531,1,8
217,181,70741,1,8
217,181,70941,1,8
217,181,71181,1,8
217,181,71361,1,8
217,181,71511,1,8
217,181,71631,1,8
217,181,71861,1,8
221,136,72261,1,8
218,162,72501,1,8
213,212,72951,5,8
218,160,73411,1,8
211,208,73851,1,8
218,158,74301,1,8
231,204,74731,1,8
279,206,75161,1,8
258,155,75651,1,8
216,179,76081,1,8
171,197,76511,1,8
203,235,76961,1,8
236,206,77351,1,8
290,191,77851,1,8
239,193,78301,1,8
284,181,78721,1,8
332,162,79181,1,8
335,212,79631,1,8
285,234,80121,5,8
285,234,80451,1,8
245,242,80811,1,8
245,242,80941,1,8
245,242,81181,1,8
222,240,81381,1,8
183,232,81731,1,8
183,232,81861,1,8
183,232,82091,1,8
183,232,82311,1,8
213,217,82611,1,8
213,217,82731,1,8
213,217,83011,1,8
213,217,83211,1,8
255,185,83681,5,8
290,158,84081,1,8
288,210,84551,1,8
244,221,84951,1,8
202,197,85381,1,8
213,150,85811,1,8
262,148,86251,1,8
253,198,86711,1,8
210,225,87161,1,8
163,209,87601,1,8
122,178,88051,1,8
171,182,88491,1,8
220,167,88951,1,8
227,118,89392,1,0
266,152,89862,1,0
226,126,90282,1,0
202,170,90732,1,0
151,173,91182,1,0
164,124,91632,1,0
210,139,92072,1,0
224,90,92522,1,0
235,138,92972,1,0
253,181,93392,1,0
209,163,93812,5,0
259,181,94292,1,0
254,128,94762,1,0
220,94,95182,1,0
174,116,95632,1,0
113,162,96312,5,0
123,154,96432,1,0
123,154,96562,1,0
123,154,96762,1,0
123,154,96992,1,0
189,165,97592,5,0
221,169,97882,1,0
244,172,98092,1,0
257,174,98212,1,0
312,181,98712,1,0
258,190,99202,1,0
269,145,99613,5,0
127,138,114093,5,0
127,138,114323,1,0
127,138,114973,1,0
127,138,115443,1,0
127,138,115943,1,0
127,138,116123,1,0
127,138,116723,1,0
127,138,117193,1,0
127,138,117393,1,0
127,138,117573,1,0
127,138,117803,1,0
127,138,118023,1,0
127,138,118273,1,0
127,138,118513,1,0
127,138,118723,1,0
127,138,118923,1,0
127,138,119213,1,0
251,321,121193,5,0
221,280,121643,1,0
189,240,122093,1,0
146,213,122543,1,0
99,220,122963,1,0
119,263,123393,1,0
115,213,123833,1,0
155,239,124263,1,0
202,223,124713,1,0
152,234,125163,1,0
152,234,125363,1,0
152,234,125583,1,0
152,234,125803,1,0
152,234,126033,1,0
152,234,126253,1,0
263,29,128333,5,0
252,48,128533,1,0
240,70,128763,1,0
218,111,129183,1,0
218,111,129403,1,0
215,135,129623,1,0
209,196,130173,1,0
214,112,130923,1,0
212,137,131153,1,0
212,137,131353,1,0
212,193,131853,1,0
212,170,132053,1,0
210,143,132293,1,0
210,143,132503,1,0
210,143,132723,1,0
210,143,132943,1,0
210,143,133153,1,0
210,143,133373,1,0
423,50,135453,5,0
386,66,135813,1,0
339,86,136263,1,0
290,118,136783,1,0
275,160,137183,1,0
231,189,137653,1,0
182,187,138083,1,0
129,187,138553,1,0
175,174,138983,1,0
150,176,139203,1,0
150,176,139403,1,0
169,165,139603,1,0
194,153,139853,1,0
194,153,140073,1,0
215,147,140273,1,0
215,147,140523,1,0
295,236,141593,5,0
270,223,141843,1,0
246,211,142073,1,0
222,201,142303,1,0
200,193,142503,1,0
178,181,142723,1,0
195,161,142953,1,0
219,149,143193,1,0
244,154,143423,1,0
244,154,143623,1,0
255,175,143843,1,0
221,204,144243,1,0
221,204,144473,1,0
196,190,144723,1,0
196,190,144973,1,0
196,190,145203,1,0
196,166,145413,1,0
196,166,145613,1,0
220,151,145863,1,0
220,151,146073,1,0
220,151,146293,1,0
220,151,146543,1,0
238,164,146743,1,0
238,164,146963,1,0
238,164,147173,1,0
238,164,147373,1,0
238,164,147623,1,0
238,164,147863,1,0
238,164,148073,1,0
238,164,148283,1,0
238,164,148493,1,0
238,164,148713,1,0
238,164,148933,1,0
238,164,149083,1,0
207,158,149363,1,0
182,163,149583,1,0
182,163,149813,1,0
138,192,150283,1,0
138,192,150533,1,0
138,192,150713,1,0
138,192,150943,1,0
138,192,151183,1,0
138,192,151393,1,0
138,192,151643,1,0
138,192,151833,1,0
182,199,152233,1,0
165,196,152383,1,0
165,196,152483,1,0
92,173,153163,5,0
117,181,153403,1,0
143,189,153653,1,0
143,189,153863,1,0
143,189,154103,1,0
143,189,154303,1,0
143,189,154503,1,0
143,189,154733,1,0
143,189,154953,1,0
143,189,155163,1,0
143,189,155373,1,0
143,189,155583,1,0
197,203,156083,1,0
241,107,163553,5,0
241,167,164093,1,0
240,116,164543,1,0
195,116,164943,1,0
243,119,165373,1,0
228,169,165843,1,0
222,118,166293,1,0
219,168,166743,1,0
171,150,167193,1,0
148,193,167633,1,0
160,243,168093,1,0
208,237,168533,1,0
253,222,168963,1,0
254,173,169393,1,0
204,166,169843,1,0
181,167,170043,1,0
156,181,170293,1,0
163,230,170743,5,0
215,228,171213,1,0
257,206,171643,1,0
231,163,172083,1,0
191,139,172493,1,0
147,148,172893,1,0
142,202,173383,1,0
185,227,173833,1,0
238,231,174313,1,0
278,205,174743,1,0
258,156,175213,5,0
216,142,175603,1,0
171,167,176063,1,0
189,212,176503,1,0
239,214,176953,1,0
286,187,177433,1,0
233,166,177933,5,0
193,166,178283,1,0
162,206,178733,1,0
201,236,179183,1,0
249,227,179623,1,0
283,193,180053,1,0
281,140,180523,1,0
239,119,180933,1,0
229,174,181433,5,0
255,208,181823,1,0
304,221,182283,1,0
353,219,182723,1,0
389,187,183153,1,0
369,138,183623,1,0
326,116,184053,1,0
277,106,184493,1,0
221,118,184997,6,0,B|121:219,7,140
256,192,192228,12,0,193897
107,144,196577,5,0
107,144,196947,1,0
153,156,197377,1,0
197,178,197817,1,0
232,107,198517,1,0
200,173,199177,1,0
200,273,200077,5,0
255,188,200977,5,0
155,179,201867,5,0
254,191,202767,5,0
158,178,203627,5,0
306,199,204967,5,0
233,188,205617,1,0
207,184,205847,1,0
256,192,206405,12,0,216295
