osu file format v5

[General]
AudioFilename: 風之少年.mp3
AudioLeadIn: 0
PreviewTime: -1
Countdown: 1
SampleSet: Soft
StackLeniency: 0.7
Mode: 0
LetterboxInBreaks: 1

[Metadata]
Title:Sign of Hero
Artist:Kagamine Len
Creator:xy1904312
Version:Normal
Source:
Tags:

[Difficulty]
HPDrainRate:4
CircleSize:4
OverallDifficulty:5
SliderMultiplier:1.4
SliderTickRate:1

[Events]
//Background and Video events
0,0,"2722231220_81d8f96a5b_m.jpg"
//Break Periods
2,57014,69844
2,140865,153777
2,202385,215515
//Storyboard Layer 0 (Background)
//Storyboard Layer 1 (Failing)
//Storyboard Layer 2 (Passing)
//Storyboard Layer 3 (Foreground)
//Storyboard Sound Samples
//Background Colour Transformations
3,100,163,162,255

[TimingPoints]
15000,437.860322557104,4,2,0,100
41270,437.860322557104,4,1,0,100
71040,437.860322557104,4,2,0,50
85040,437.860322557104,4,2,0,100
111320,437.860322557104,4,1,0,100
155110,437.860322557104,4,2,0,100
184880,437.860322557104,4,1,0,100

[HitObjects]
256,192,14999,1,0
256,32,15656,1,0
96,32,16313,1,0
96,128,16751,1,0
96,224,17189,1,0
96,288,17408,1,0
256,288,18065,6,0,B|320:256,1,70
384,224,18502,1,0
480,160,18940,1,0
384,96,19378,1,0
288,32,19816,1,0
192,96,20254,1,0
128,256,20911,2,0,B|192:224,1,70
416,160,22005,5,0
416,320,22662,1,0
256,320,23319,1,0
128,320,23757,2,0,B|128:224|192:192,2,140
64,224,25070,5,0
128,128,25508,1,0
192,32,25946,1,0
256,128,26384,1,0
320,224,26822,1,0
384,128,27260,1,0
448,32,27697,1,0
512,128,28135,1,0
478,160,28573,6,0,B|416:192,1,70
352,224,29011,1,0
256,288,29449,1,0
192,320,29668,1,0
96,352,30106,2,0,B|11:267|43:235,1,140
96,192,30762,2,0,B|32:224,2,70
128,160,31419,2,0,B|160:128,1,35
352,160,32295,6,0,B|384:96,4,70
448,96,33609,2,0,B|542:159|542:287|478:351|350:383|254:255,1,490
192,160,35579,5,0
224,192,35798,1,0
256,224,36017,2,0,B|224:288,1,70
288,256,36455,1,0
320,288,36674,1,0
352,192,37111,1,0
320,160,37330,1,0
288,128,37549,1,0
256,96,37768,1,0
224,64,37987,1,0
160,32,38206,2,0,B|160:96|96:160,1,140
256,192,39301,6,0,B|288:160,1,35
288,160,39520,2,0,B|352:192,2,70
256,128,40176,6,0,B|224:96,1,35
256,128,40395,2,0,B|320:96,2,70
352,192,41270,5,0
256,128,41707,1,0
160,192,42145,1,0
256,256,42583,1,0
352,192,43021,5,0
352,128,43240,1,0
352,64,43459,2,0,B|384:32|416:64,2,70
448,192,44553,2,0,B|112:253|320:96|433:170|204:8|224:0|128:64|128:128,1,490
224,192,46524,6,0,B|288:256|352:160,1,140
384,128,47181,2,0,B|416:96,1,35
416,96,47400,2,0,B|355:35|301:115,1,140
256,160,48056,2,0,B|224:192,1,35
224,192,48275,6,0,B|288:256|352:160,1,140
384,128,48932,2,0,B|416:96,1,35
416,96,49151,2,0,B|497:96|497:192,1,140
384,192,50027,6,0,B|352:160|320:192,3,70
224,192,51121,2,0,B|192:128,1,70
160,64,51559,1,0
224,64,51778,1,0
320,64,52216,1,0
384,64,52435,2,0,B|384:128|320:64|288:160,1,140
224,256,53311,5,0
160,256,53530,1,0
96,160,53967,1,0
64,128,54186,1,0
0,32,54624,1,0
64,128,55062,6,0,B|96:64,4,70
0,224,56376,1,0
64,320,56814,1,0
256,192,71044,5,0
384,192,72572,2,0,B|416:160,1,35
416,160,72791,1,0
224,32,73667,1,0
224,128,74105,1,0
224,224,74542,1,0
32,96,75418,2,0,B|128:32,2,105
64,128,76294,6,0,B|96:160,14,35
96,160,78045,5,0
160,128,78264,6,0,B|192:160,4,35
192,160,78921,5,0
256,128,79140,6,0,B|288:160,4,35
288,160,79797,5,0
352,128,80016,6,0,B|384:160,4,35
384,160,80563,2,0,B|416:192,9,35
416,64,81986,5,0
352,160,82424,1,0
288,64,82862,1,0
224,160,83300,1,0
160,64,83737,1,0
96,160,84175,1,0
32,64,84613,1,0
