osu file format v9

[General]
AudioFilename: ponponpon.mp3
AudioLeadIn: 0
PreviewTime: 2313
Countdown: 0
SampleSet: Normal
StackLeniency: 0.7
Mode: 0
LetterboxInBreaks: 1

[Editor]
Bookmarks: 32295
DistanceSpacing: 1
BeatDivisor: 4
GridSize: 4

[Metadata]
Title:PONPONPON (Short Ver.)
Artist:Kagamine Len
Creator:qilliam
Version:Normal
Source:
Tags:kyary pamyu capsule vocaloid

[Difficulty]
HPDrainRate:3
CircleSize:3
OverallDifficulty:3
ApproachRate:4
SliderMultiplier:0.999999999999999
SliderTickRate:2

[Events]
//Background and Video events
0,0,"bg2.jpg"
//Break Periods
//Storyboard Layer 0 (Background)
//Storyboard Layer 1 (Fail)
//Storyboard Layer 2 (Pass)
//Storyboard Layer 3 (Foreground)
//Storyboard Sound Samples
//Background Colour Transformations
3,100,0,0,0

[TimingPoints]
2295,468.75,4,1,1,80,1,0
2295,-100,4,1,1,80,0,1
17236,-100,4,1,1,80,0,0
17295,-100,4,1,1,80,0,1
31826,-100,4,1,1,80,0,0
45654,-200,4,1,1,80,0,0
47236,-200,4,2,1,70,0,0
47705,-100,4,2,1,70,0,0

[Colours]
Combo1 : 103,233,109
Combo2 : 221,11,100
Combo3 : 154,147,244
Combo4 : 248,123,31

[HitObjects]
256,192,2295,1,6
305,104,2763,2,0,B|256:84|208:104,2,99.9999999999999,8|2|8
392,154,4170,5,2
365,196,4404,1,0
374,244,4638,2,0,B|396:268|396:268|384:324|344:328,1,99.9999999999999,8|2
266,355,5576,1,8
184,296,6045,6,0,B|120:293|112:228,1,99.9999999999999,2|8
20,204,6982,2,0,B|8:141|70:118,1,99.9999999999999,2|8
154,157,7920,5,2
188,192,8154,2,0,B|240:192,1,50,0|8
328,148,8857,1,2
294,113,9091,2,0,B|242:113,1,50,0|8
296,28,9795,6,0,B|196:28,2,99.9999999999999,6|8|2
396,28,11201,1,8
365,122,11670,6,0,B|320:168,2,50,2|0|8
394,217,12607,2,0,B|428:181,2,50,2|0|8
361,311,13545,5,2
264,286,14013,2,0,B|240:310|240:310|192:306|176:266,1,99.9999999999999,8|2
122,201,14951,1,8
122,100,15420,6,0,B|180:100|214:157,1,99.9999999999999,2|8
265,226,16357,2,0,B|217:226,2,50,2|0|8
365,226,17295,5,6
384,128,17763,2,0,B|439:141|459:195,2,99.9999999999999,8|2|8
334,41,19170,5,2
288,59,19404,1,0
242,38,19638,2,0,B|224:28|224:28|168:48|164:92,1,99.9999999999999,8|2
191,175,20576,1,8
268,240,21045,6,0,B|328:216|328:216|380:240,1,99.9999999999999,2|8
428,304,21982,2,0,B|368:328|368:328|316:304,1,99.9999999999999,2|8
239,339,22920,5,2
197,367,23154,2,0,B|132:344,1,50,0|8
76,284,23857,1,2
118,256,24091,2,0,B|183:279,1,50,0|8
205,180,24795,6,0,B|241:214|241:214|304:204,2,99.9999999999999,6|8|2
201,80,26201,1,8
293,39,26670,6,0,B|357:39,2,50,2|0|8
356,116,27607,2,0,B|420:116,2,50,2|0|8
356,216,28545,5,2
432,280,29013,2,0,B|440:304|440:304|416:360|364:348,1,99.9999999999999,8|2
285,349,29951,1,8
188,332,30420,6,0,B|139:313|139:313|132:268,1,99.9999999999999,2|8
113,167,31357,2,0,B|103:106,2,50,2|0|8
208,197,32295,5,6
298,238,32763,2,0,B|318:186|288:136,2,99.9999999999999,8|2|8
226,308,34170,6,0,B|262:354|339:333,1,99.9999999999999,2|8
408,296,35107,2,0,B|456:192|456:192|440:144,1,150,2|0
424,112,36045,5,6
334,66,36513,1,8
245,112,36982,1,2
155,66,37451,1,8
66,112,37920,6,0,B|65:164|65:164|120:188,1,99.9999999999999,2|8
203,214,38857,2,0,B|256:232|256:232|248:272|248:272|312:300,1,150,2|0
343,311,39795,5,6
427,257,40263,2,0,B|463:306|428:372,2,99.9999999999999,8|2|8
436,157,41670,6,0,B|401:110|343:111,1,99.9999999999999,2|8
313,205,42607,2,0,B|316:296|220:308,1,150,2|0
175,307,43545,5,6
80,273,44013,1,8
84,173,44482,1,2
180,146,44951,1,8
237,228,45420,5,2
265,269,45654,2,0,B|356:328|416:232,1,175,0|8
441,139,47763,5,0
352,92,48232,2,0,B|352:40,2,50,8|0|0
259,129,49170,5,8
190,201,49638,2,0,B|78:201,2,99.9999999999999,0|8|0
259,273,51045,6,0,B|375:273,1,99.9999999999999,8|0
408,359,51982,2,0,B|456:359,2,50,8|0|0
307,359,52920,5,8
213,325,53388,1,0
142,254,53857,1,8
103,161,54326,1,0
