osu file format v9

[General]
AudioFilename: ponponpon.mp3
AudioLeadIn: 0
PreviewTime: 2313
Countdown: 0
SampleSet: Normal
StackLeniency: 0.7
Mode: 0
LetterboxInBreaks: 1

[Editor]
Bookmarks: 32295
DistanceSpacing: 1
BeatDivisor: 4
GridSize: 4

[Metadata]
Title:PONPONPON (Short Ver.)
Artist:Kagamine Len
Creator:qilliam
Version:Hard
Source:
Tags:kyary pamyu capsule vocaloid

[Difficulty]
HPDrainRate:5
CircleSize:4
OverallDifficulty:6
ApproachRate:7
SliderMultiplier:1.8
SliderTickRate:2

[Events]
//Background and Video events
0,0,"bg1.jpg"
//Break Periods
//Storyboard Layer 0 (Background)
//Storyboard Layer 1 (Fail)
//Storyboard Layer 2 (Pass)
//Storyboard Layer 3 (Foreground)
//Storyboard Sound Samples
//Background Colour Transformations
3,100,0,0,0

[TimingPoints]
2295,468.75,4,1,1,80,1,0
2295,-100,4,1,1,80,0,1
17236,-100,4,1,1,80,0,0
17295,-100,4,1,1,80,0,1
31826,-100,4,1,1,80,0,0
45654,-200,4,1,1,80,0,0
47236,-200,4,2,1,70,0,0
47705,-100,4,2,1,70,0,0

[Colours]
Combo1 : 103,233,109
Combo2 : 221,11,100
Combo3 : 154,147,244
Combo4 : 248,123,31

[HitObjects]
176,156,2295,2,0,B|256:84|336:156,1,180,6|8
211,285,3232,1,2
301,285,3466,1,0
256,364,3701,1,8
394,242,4170,6,0,B|448:210|428:168,1,90,2|0
368,64,4638,1,8
256,108,4873,1,0
144,64,5107,1,2
82,169,5341,2,0,B|64:210|117:242,1,90,0|8
296,236,6045,6,0,B|320:256|320:256|326:291|292:324,1,90,2|0
216,148,6513,2,0,B|192:128|192:128|185:92|220:60,1,90,8|0
295,51,6982,1,2
217,333,7216,1,0
256,192,7451,1,8
88,125,7920,5,2
424,259,8154,1,2
108,212,8388,1,8
404,172,8623,1,8
176,153,8857,1,2
336,231,9091,1,2
256,192,9326,1,8
420,272,9795,6,0,B|492:191|420:111,1,180,6|8
164,192,10732,2,0,B|74:192,2,90,2|0|8
337,141,11670,5,2
343,51,11904,2,0,B|400:48|433:125,1,90,0|8
175,243,12373,1,0
169,333,12607,2,0,B|112:336|79:259,2,90,2|0|8
148,152,13545,6,0,B|152:128|152:128|136:92|92:88,1,90,2|0
364,152,14013,2,0,B|360:128|360:128|376:92|420:88,1,90,8|0
211,227,14482,1,0
301,227,14716,1,0
256,304,14951,1,8
84,248,15420,6,0,B|60:232|60:232|56:184|67:172,1,90,2|0
181,119,15888,1,8
256,17,16123,1,0
331,119,16357,1,2
444,172,16591,2,0,B|456:184|452:232|452:232|427:248,1,90,0|8
256,300,17295,5,6
256,300,17763,1,8
216,124,18232,2,0,B|256:88|296:124,2,90,2|0|8
60,216,19170,5,2
147,59,19404,1,0
256,202,19638,2,0,B|256:292,2,90,8|0|2
365,59,20341,1,0
452,216,20576,1,8
296,312,21045,6,0,B|256:348|216:312,1,90,2|0
215,72,21513,2,0,B|256:36|296:72,1,90,8|0
408,192,21982,1,2
256,192,22216,1,0
104,192,22451,1,8
176,342,22920,5,2
256,99,23154,1,0
336,342,23388,1,8
126,191,23623,1,0
384,191,23857,1,2
256,292,24091,2,0,B|256:200,1,90,0|8
184,36,24795,6,0,B|256:136|328:36,1,180,6|8
368,212,25732,1,2
256,340,25966,1,0
144,212,26201,1,8
188,36,26670,6,0,B|176:80|176:80|132:89,1,90,2|0
324,348,27138,2,0,B|336:304|336:304|379:294,1,90,8|0
100,174,27607,1,2
412,210,27841,1,0
256,192,28076,1,8
256,192,28545,6,0,B|248:167|248:167|271:124|332:112,1,90,2|0
256,192,29013,2,0,B|263:216|263:216|240:259|180:272,1,90,8|0
132,292,29482,1,2
380,292,29716,1,0
256,76,29951,1,8
444,140,30420,6,0,B|360:84,1,90,2|0
68,244,30888,2,0,B|152:300,1,90,8|0
300,192,31357,1,2
300,192,31591,2,0,B|212:192,1,90,0|8
312,44,32295,5,6
354,58,32412,1,0
393,79,32529,1,0
424,110,32646,1,0
448,147,32763,2,0,B|456:176|456:176|449:209|424:236,1,90,8|0
200,340,33232,1,2
158,326,33349,1,0
119,305,33466,1,0
88,274,33584,1,0
64,237,33701,2,0,B|56:208|56:208|62:174|88:148,1,90,8|0
234,90,34170,6,0,B|194:46,1,45,2|0
278,90,34404,2,0,B|318:46,1,45
256,121,34638,1,8
301,295,35107,1,2
211,295,35341,1,0
172,213,35576,1,8
212,192,35693,1,0
256,200,35810,1,0
300,192,35927,1,0
340,213,36045,1,6
256,52,36513,5,8
88,116,36982,1,2
81,160,37099,1,0
112,192,37216,1,0
106,237,37334,1,0
137,268,37451,2,0,B|145:314|145:314|184:336,1,90,8|0
292,192,37920,6,0,B|247:192,2,45,2|0|0
430,108,38388,1,8
420,152,38505,2,0,B|456:192|420:232,1,90
430,276,38857,1,2
116,192,39326,1,8
197,352,39795,5,6
216,312,39912,2,0,B|256:291|256:291|296:312,1,90
315,352,40263,1,8
442,224,40732,1,2
398,212,40849,1,0
366,180,40966,1,0
345,139,41084,1,0
358,96,41201,2,0,B|350:67|350:67|322:37|279:43,1,90,8|0
70,224,41670,5,2
114,212,41787,1,0
146,180,41904,1,0
167,139,42021,1,0
154,96,42138,2,0,B|161:67|161:67|189:37|232:43,1,90,8|0
256,121,42607,1,2
344,240,42841,1,0
256,360,43076,1,8
168,240,43310,1,0
256,259,43545,6,0,B|256:247|256:247|264:235|264:235|248:235|248:235|256:223|256:223|256:159|256:159|248:147|248:147|264:147|264:147|256:135|256:135|256:121,1,180,6|8
435,106,44482,1,2
453,147,44599,1,0
458,192,44716,1,0
453,237,44834,1,0
435,278,44951,1,8
332,192,45185,1,0
180,192,45420,5,2
256,128,45654,2,0,B|260:136|260:136|252:136|252:136|260:144|260:144|252:144|252:144|260:152|260:152|252:152|252:152|260:160|260:160|252:160|252:160|260:168|260:168|252:168|252:168|260:176|260:176|252:176|252:176|260:184|260:184|252:184|252:184|260:192|260:192|252:192|252:192|260:200|260:200|252:200|252:200|260:208|260:208|252:208|252:208|260:216|260:216|252:216|252:216|260:224|260:224|252:224|252:224|260:232|260:232|252:232|252:232|260:240|260:240|252:240|252:240|260:248|260:248|252:248|252:248|260:256|260:256|252:256|252:256|257:264,1,315,0|8
256,352,47763,5,8
132,120,48232,1,8
256,56,48466,1,0
380,120,48701,1,8
352,296,49170,5,8
301,371,49404,1,0
210,221,49638,1,8
301,221,49873,1,0
210,371,50107,1,8
161,296,50341,1,0
256,296,50576,1,8
336,64,51045,6,0,B|256:-8|176:64,1,180,8|8
256,224,51982,2,0,B|256:336,2,90,8|0|8
411,324,52920,6,0,B|432:328|432:328|476:304|462:273,1,90,8|0
384,111,53388,1,8
256,238,53623,1,0
128,111,53857,1,8
49,273,54091,2,0,B|36:304|80:328|80:328|104:324,1,90,0|8
