osu file format v7

[General]
AudioFilename: migi kata no chou.mp3
AudioLeadIn: 0
PreviewTime: 29198
Countdown: 0
SampleSet: Soft
StackLeniency: 0.2
Mode: 0
LetterboxInBreaks: 1

[Editor]
DistanceSpacing: 1
BeatDivisor: 4
GridSize: 8

[Metadata]
Title:Migi kata no chou
Artist:Kagamine Len
Creator:Ex Boy
Version:Normal+
Source:
Tags:VOCALOID NoriP Butterfly on your right shoulder

[Difficulty]
HPDrainRate:0
CircleSize:4
OverallDifficulty:5
SliderMultiplier:1.2
SliderTickRate:2

[Events]
//Background and Video events
0,0,"a968e4df561e25c376c638ff.jpg"
//Break Periods
2,25982,28010
2,43125,49010
2,91125,94868
2,104839,110296
2,118553,130868
//Storyboard Layer 0 (Background)
//Storyboard Layer 1 (Fail)
//Storyboard Layer 2 (Pass)
//Storyboard Layer 3 (Foreground)
//Storyboard Sound Samples
//Background Colour Transformations
3,100,163,162,255

[TimingPoints]
68,428.571428571429,4,1,1,70,1,0
17639,-100,4,2,1,2,0,0
17746,-100,4,1,1,90,0,0
25782,-100,4,2,1,3,0,0
25889,-100,4,1,1,90,0,0
29103,-100,4,2,1,90,0,0
56532,-100,4,1,1,90,0,0
56746,-100,4,2,1,90,0,0
62585,-100,4,2,1,90,0,0
63443,-100,4,1,1,90,0,0
63603,-100,4,2,1,90,0,0
75389,-100,4,1,1,90,0,0
76889,-100,4,2,1,90,0,0
90818,-100,4,1,1,90,0,0
91032,-100,4,2,1,90,0,0
103675,-50,4,2,1,90,0,0
104746,-100,4,2,1,90,0,0
118246,-100,4,1,1,90,0,0
118460,-100,4,2,1,90,0,0
131960,-100,4,1,1,90,0,0
132175,-100,4,2,1,90,0,0
138175,-100,4,2,1,90,0,0
138818,-100,4,1,1,90,0,0
139032,-100,4,2,1,90,0,0
150818,-100,4,1,1,90,0,0
152318,-100,4,2,1,90,0,0
166246,-100,4,1,1,90,0,0

[Colours]
Combo1 : 129,250,107
Combo2 : 253,242,115
Combo3 : 255,255,255
Combo4 : 253,163,28
Combo5 : 252,135,247

[HitObjects]
256,192,15496,12,0,17639
256,192,18068,12,0,25782
66,67,29210,6,0,B|188:67,1,120,8|0
246,67,29853,1,0
283,113,30068,2,8,B|323:85|291:43,2,60
323,157,30710,6,0,B|508:157,1,180,0|8
506,217,31568,1,0
456,251,31782,2,8,B|471:289|505:273,2,60
367,332,32639,6,0,B|234:332,1,120,8|0
202,372,33282,1,0
156,332,33496,2,8,B|71:332,2,60
201,293,34139,5,0
156,252,34353,1,8
200,211,34568,1,0
157,169,34782,1,8
199,125,34996,1,0
157,81,35210,2,0,B|72:81,1,60,8|0
55,123,35639,2,0,B|55:195,1,60,8|0
56,243,36068,6,4,B|100:243|114:286|171:286,1,120,8|8
226,287,36710,1,0
285,287,36925,2,4,B|329:287|343:330|400:330,1,120,8|8
454,321,37568,6,4,B|494:268|491:191|444:144,1,180,0|8
403,118,38425,1,0
351,86,38639,1,8
351,86,38853,1,8
351,86,39068,1,8
255,159,39496,6,4,B|388:159,1,120,8|0
402,212,40139,1,0
378,267,40353,2,4,B|252:267,1,120,8|0
256,192,41210,12,4,42925
464,52,50210,6,8,B|328:52,1,120
253,52,50960,1,0
304,125,51282,1,0
253,157,51496,2,8,B|125:157,1,120
84,192,52139,1,0
134,224,52353,2,8,B|223:224,2,60
82,255,52996,6,2,B|100:306|138:361|212:373|303:373,1,240
332,371,54067,2,8,B|390:379|434:356|450:307,1,120
438,331,54710,1,0
488,297,54925,2,8,B|488:170,1,120
488,177,55567,1,0
488,177,55782,2,4,B|426:180|399:136|371:112|300:112,1,180,8|0
262,110,56639,1,4
141,109,57067,5,8
176,152,57282,1,0
216,192,57496,2,0,B|281:262,2,90,8|0|8
152,192,58353,2,0,B|56:192,2,90,8|0|8
184,240,59210,2,8,B|152:272|192:312,2,60,8|0|0
184,240,59853,6,2,B|240:208|264:160|272:96|256:72,1,180,2|10
264,89,60710,1,0
264,89,60925,2,0,B|333:89,1,60,8|0
384,89,61353,1,8
443,90,61567,1,0
414,142,61782,1,8
358,213,62103,1,0
302,142,62425,1,0
242,142,62639,2,2,C|210:142,6,30
244,202,63496,1,4
174,288,63925,5,8
124,322,64139,1,0
73,355,64353,1,8
17,284,64675,1,0
80,216,64996,1,0
80,216,65210,1,8
144,152,65532,1,0
200,88,65853,1,0
200,88,66067,2,8,B|187:45|125:74,2,60
200,88,66710,6,2,B|462:88,1,240,10|2
448,145,67782,2,2,B|242:145,1,180,10|2
271,205,68639,2,8,B|401:205,1,120,10|2
391,265,69282,1,0
330,266,69496,2,2,B|130:266,1,180,8|0
150,266,70353,1,4
120,318,70567,6,2,B|36:241|25:112|135:40,1,300,10|2
149,104,71853,2,2,B|170:145|295:176|401:156|436:90,1,300,8|0
482,94,73139,1,0
490,153,73353,2,8,B|500:207|473:255|420:269,1,120
404,215,73996,5,0
354,248,74210,1,8
303,216,74425,1,0
253,249,74639,1,8
203,215,74853,2,2,B|73:215,1,120
81,154,75496,5,4
58,98,75710,1,4
108,65,75925,1,4
155,101,76139,1,4
133,157,76353,2,4,B|213:157,2,60
253,157,77210,6,8,B|331:177|362:82,1,120,8|0
378,55,77853,1,0
425,91,78067,2,8,B|469:100|489:41,2,60
425,151,78710,6,2,B|425:336,1,180,8|0
425,331,79567,1,0
425,331,79782,2,8,B|501:331,2,60,8|8|8
305,325,80639,6,8,B|293:275|245:251|194:261,1,120,8|8
157,270,81282,1,0
101,246,81496,2,8,B|48:222|30:181|45:125,1,120,8|8
76,104,82139,5,0
131,128,82353,1,8
186,105,82567,1,0
240,129,82782,1,8
295,106,82996,1,0
350,127,83210,2,2,B|424:127|386:237|477:237,1,180,8|0
467,296,84067,6,8,B|399:376|343:338,1,120,8|0
313,319,84710,1,0
315,259,84925,2,8,B|315:193,2,60
254,261,85567,6,2,B|254:115,1,120
254,80,86210,1,8
206,115,86425,1,0
158,79,86639,2,8,B|158:14,2,60
57,146,87496,6,8,B|193:199,1,120,8|8
225,209,88139,1,0
171,236,88353,2,8,B|103:269,2,60
256,192,89210,12,4,90925
256,48,96068,5,8
256,104,96282,1,0
256,160,96496,1,8
256,216,96710,1,0
256,280,96925,5,8
256,280,97139,1,0
256,280,97353,1,8
256,280,97568,1,0
208,312,97782,6,8,B|80:312,1,120,8|8
48,264,98425,1,0
88,216,98639,2,8,B|224:216,1,120,8|8
248,168,99282,1,0
208,120,99496,2,0,B|72:120,1,120,8|8
48,80,100139,1,0
88,32,100353,2,0,B|176:32,1,60,8|0
208,32,100782,6,0,B|256:32|288:96|336:96,6,120,8|8|8|8|8|8|8
208,96,103568,1,0
208,152,103782,2,0,L|200:168|216:168|200:176|216:176|200:184|216:184|200:192|216:192|200:200|216:200|200:208|216:208|200:216|216:216|208:224,2,240,8|0|4
464,336,111496,6,0,L|320:336,3,120,8|0|8|0
223,336,113210,1,8
223,275,113425,1,0
223,215,113639,1,0
223,155,113853,1,0
266,113,114068,1,8
224,71,114282,1,0
181,113,114496,1,0
64,112,114925,6,0,L|64:248,5,120,8|0|8|0|8|0
112,272,117282,1,0
160,232,117496,2,0,L|160:104,1,120,8|0
208,80,118139,2,0,L|272:112,1,60,0|4
256,192,132068,5,4
314,296,132496,6,0,B|354:232|306:168,1,120,8|0
256,192,133139,1,0
196,183,133353,2,0,B|161:235|200:309,2,120,8|0|8
256,192,134425,1,0
312,168,134639,2,0,B|352:104|304:40,1,120,0|8
256,56,135282,5,0
208,96,135496,2,0,B|80:96,1,120,0|8
48,136,136139,1,0
88,184,136353,2,0,B|216:184,1,120,0|8
248,232,136996,1,0
288,272,137210,2,0,B|432:272,1,120,0|8
448,232,137853,2,0,B|392:168,1,60
376,136,138282,6,2,B|376:88,4,30
336,184,138925,1,4
216,184,139353,6,0,B|168:184|152:112|104:112,4,120,8|0|8|0|8
264,224,141282,1,0
216,256,141496,2,0,B|168:256|160:328|104:328,1,120,8|0
240,344,142353,6,0,B|384:344,1,120,8|0
264,280,143210,2,0,B|400:280,1,120,8|0
288,216,144068,2,0,B|432:216,1,120,8|0
440,168,144710,1,0
384,152,144925,2,0,B|248:152,1,120,8|0
168,80,145782,5,8
168,136,145996,2,2,B|88:224|240:280|152:368,3,240
104,360,148782,2,0,B|40:328|48:240,1,120,8|0
88,216,149425,5,0
136,184,149639,1,8
184,152,149853,1,0
232,120,150068,1,0
280,88,150282,1,0
328,56,150496,2,0,B|416:56,1,60,8|0
432,96,150925,5,4
448,153,151139,1,4
397,185,151353,1,4
347,151,151568,1,4
370,96,151782,2,4,B|319:96|321:45,2,60,0|0|0
256,56,152639,6,0,B|224:88|288:128|248:176,3,120,8|0|8|0
200,192,154139,1,0
256,224,154353,2,0,B|296:272|224:304|264:360,3,120,8|0|8|0
376,344,156068,6,0,B|376:216,1,120,8|0
312,328,156925,2,0,B|312:184,1,120,8|0
304,88,157782,5,8
261,130,157996,1,2
219,87,158210,1,8
176,130,158425,1,2
134,88,158639,1,8
91,130,158853,1,2
49,88,159068,1,8
40,208,159496,6,0,B|176:208,1,120,12|0
56,272,160353,2,0,B|192:272,1,120,8|0
72,336,161210,2,0,B|208:336,1,120,8|0
312,336,162068,2,0,B|392:336,2,60,8|0|8
416,280,162925,6,0,B|272:280,1,120,8|0
400,216,163782,2,0,B|256:216,1,120,8|0
256,160,164425,1,0
256,192,164639,12,4,166353
