osu file format v9

[General]
AudioFilename: IKELENKA.mp3
AudioLeadIn: 1004
PreviewTime: 59874
Countdown: 0
SampleSet: Normal
StackLeniency: 0.5
Mode: 0
LetterboxInBreaks: 0

[Editor]
Bookmarks: 12541,25875,47208,60541,81875
DistanceSpacing: 1
BeatDivisor: 2
GridSize: 8

[Metadata]
Title:IkeLenka
Artist:Kagamine Len
Creator:Lanttu
Version:Bishounen
Source:
Tags:vocaloid ikerenka leleleP

[Difficulty]
HPDrainRate:5
CircleSize:4
OverallDifficulty:4
ApproachRate:5
SliderMultiplier:1.4
SliderTickRate:2

[Events]
//Background and Video events
0,0,"bg.png"
//Break Periods
//Storyboard Layer 0 (Background)
//Storyboard Layer 1 (Fail)
//Storyboard Layer 2 (Pass)
//Storyboard Layer 3 (Foreground)
//Storyboard Sound Samples
//Background Colour Transformations
3,100,0,0,0

[TimingPoints]
570,333.333333333333,4,1,0,40,1,0
12569,-100,4,1,0,61,0,0
47236,-100,4,1,0,61,0,1
47319,-100,4,1,0,61,0,0
60570,-100,4,1,0,61,0,1
81904,-100,4,1,0,61,0,0
84569,-100,4,1,0,61,0,1
84654,-100,4,1,0,0,0,0

[Colours]
Combo1 : 255,236,128
Combo2 : 252,3,184
Combo3 : 128,255,128
Combo4 : 0,255,255

[HitObjects]
256,352,1236,2,0,B|256:208,1,140
328,200,1736,2,0,B|320:144|256:104|192:144|184:200,2,210,4|8|8
200,264,3070,6,0,B|160:104,1,140,0|2
64,224,3736,2,0,B|24:64,1,140,0|2
168,128,4403,6,0,B|192:80|256:64|320:80|344:128,2,210,4|8|8
136,264,5736,2,0,B|136:360|240:360,1,140,0|2
376,264,6403,2,0,B|376:360|272:360,1,140,0|2
184,200,7069,6,0,B|192:144|256:104|320:144|328:200,2,210,4|8|8
312,264,8403,2,0,B|352:104,1,140,0|2
448,224,9070,2,0,B|488:64,1,140,0|2
344,88,9736,6,0,B|320:136|256:152|192:136|168:88,2,210,4|8|8
188,192,11070,2,0,B|212:207|260:214|308:205|331:189,2,140,0|2|0
256,64,12070,2,0,B|256:-8,2,70,2|0|0
256,136,12570,6,0,B|256:224|344:224,1,140,4|8
480,224,13236,2,0,B|480:80,2,140,0|8|0
408,344,14236,1,8
408,344,14403,2,0,B|320:344|320:256,2,140,0|8|8
392,272,15236,5,4
320,152,15570,2,0,B|256:104|192:152,1,140,8|0
120,272,16236,1,8
216,376,16569,2,0,B|216:232,1,140,0|8
296,236,17069,2,0,B|296:376,2,140,0|8|8
320,168,17903,6,0,B|256:120|192:168,1,140,4|8
112,280,18569,2,0,B|112:224|40:224|40:168,1,140,0|8
40,24,19236,2,0,B|40:96,2,70,0|0|8
112,24,19736,2,0,B|112:81|184:81|184:137,1,140,0|8
256,256,20403,1,8
256,184,20569,5,4
160,280,20903,1,8
256,376,21236,1,0
352,280,21569,1,8
256,184,21903,6,0,B|256:112,2,70,0|0|8
200,224,22403,2,8,B|216:264|256:264|296:264|312:224,2,140,0|8|8
144,264,23236,2,0,B|160:328|256:360|352:328|368:264,1,280,0|8
104,176,24569,5,0
104,176,24736,1,0
256,32,25236,1,0
256,32,25403,1,0
408,176,25903,1,4
304,88,26236,6,0,B|304:128|256:144|208:128|208:88,2,140,8|0|8
440,112,27236,2,0,B|488:176|440:240,1,140,0|8
376,272,27736,2,0,B|320:272|320:200|264:200,2,140,0|8|8
448,272,28569,5,0
328,352,28903,1,8
184,352,29236,1,0
64,272,29569,1,8
32,136,29903,6,0,B|48:208,3,70,0|0|8|8
112,176,30569,2,0,B|128:248,3,70,0|0|8|8
192,216,31236,5,4
192,80,31569,2,0,B|256:32|320:80,1,140,8|0
320,216,32236,1,8
376,344,32569,2,0,B|288:344|256:288,1,140,0|8
256,287,33069,2,0,B|224:344|136:344,2,140,0|8|8
256,216,33903,5,0
176,104,34236,1,8
176,104,34403,2,0,B|240:104|256:48|256:48|272:104|336:104,1,210,0|8
368,272,35236,6,0,B|440:272,3,70,0|0|8|8
424,200,35903,2,0,B|496:200,3,70,0|0|8|8
480,128,36570,5,4
360,48,36903,2,0,B|312:48|312:136|256:128,1,140,8|0
152,48,37570,2,0,B|200:48|200:136|256:128,1,140,8|0
256,264,38236,1,8
312,312,38403,2,0,B|304:344|256:360|208:344|200:312,2,140,0|8|8
384,312,39236,5,0
328,184,39570,1,8
184,184,39903,1,0
128,312,40236,1,8
48,200,40570,6,0,B|48:128,3,70,0|0|8|8
120,136,41236,2,0,B|120:56,3,70,0|0|8|8
192,72,41903,6,0,B|216:104|256:72|296:40|320:72,2,140,4|8|0
256,200,42903,1,8
392,192,43236,2,0,B|480:192|480:280,1,140,0|8
408,264,43736,2,0,B|408:352|320:352,2,140,0|8|8
336,280,44570,1,0
336,136,44903,1,8
336,136,45070,2,0,B|320:88|256:48|192:88|176:136,1,210,0|8
128,264,45903,5,0
256,336,46236,2,0,B|256:264,2,70,8|0|0
384,264,46903,1,8
256,192,47236,1,4
256,192,47403,12,4,49736
256,112,50570,5,0
256,256,50903,1,8
256,256,51070,1,4
328,136,51403,2,0,B|368:192,2,70,0|8|4
184,136,52070,2,0,B|144:192,2,70,0|8|4
256,256,52736,6,0,B|256:328,2,70,0|8|0
304,200,53236,2,0,B|304:112|392:112,1,140,0|8
352,248,53903,2,0,B|440:248|440:336,1,140,0|8
360,328,54403,2,0,B|256:368|152:328,1,210,0|8
208,200,55236,6,0,B|208:112|120:112,1,140,0|8
136,184,55736,2,0,B|48:184|48:96,2,140,0|8|8
208,200,56570,1,0
256,192,56903,12,4,59736
256,184,60070,6,0,B|256:104,2,70
312,224,60570,6,0,B|304:256|256:272|208:256|200:224,2,140,4|8|0
384,224,61403,2,0,B|456:224,2,70,0|8|0
416,296,61903,2,0,B|360:360|280:360,1,140,0|8
216,360,62403,2,8,B|151:360|95:296,1,140,0|8
128,224,62903,2,0,B|56:224,2,70,0|8|0
56,104,63570,5,8
128,96,63736,1,0
200,88,63903,2,0,B|216:56|256:32|296:56|312:88,1,140,0|8
384,96,64403,1,0
456,104,64570,1,0
292,156,64903,2,0,B|220:156,1,70,8|0
256,296,65403,6,0,B|256:224,2,70,0|8|0
312,336,65903,2,0,B|304:368|256:384|208:368|200:336,1,140,4|8
64,368,66569,2,0,B|64:304|120:304|120:240,1,140,0|8
46,234,67069,2,8,B|45:169|106:144|171:151|188:213,1,210,0|8
256,240,67736,2,0,B|256:96,1,140,0|8
223,32,68236,2,0,B|255:7|287:31,1,70,0|8
328,88,68569,6,0,B|367:156,2,70,0|0|8
184,88,69236,2,0,B|144:156,2,70,0|0|8
256,104,69736,2,0,B|256:256,1,140,0|0
224,304,70236,2,0,B|256:328|288:304,1,70,8|0
152,352,70736,6,0,B|176:376|216:384,1,70,0|8
298,383,71069,2,0,B|336:376|360:352,1,70,0|4
256,192,71403,12,4,73903
368,104,74236,5,8
256,24,74569,1,0
144,112,74903,1,8
256,192,75236,2,0,B|256:112,2,70,0|0|8
200,240,75736,2,0,B|216:272|256:296|296:272|312:240,2,140,0|8|8
168,176,76569,5,4
128,312,76903,1,8
256,368,77236,1,0
384,312,77569,1,8
344,176,77903,1,0
256,64,78236,1,8
200,104,78403,2,0,B|208:136|256:152|304:136|312:104,2,140,0|8|8
136,120,79236,5,0
184,248,79569,1,8
328,248,79903,1,0
376,120,80236,1,8
256,184,80569,2,0,B|256:256,2,70,0|0|8
200,144,81069,2,0,B|208:112|256:96|304:112|312:144,2,140,0|8|8
160,200,81903,6,0,B|160:352,1,140,0|8
352,200,82569,2,0,B|352:344,1,140,0|8
256,240,83236,5,0
256,240,83403,1,0
360,56,83903,1,0
360,56,84069,1,0
152,56,84569,1,4
256,192,84736,12,0,87069
