osu file format v5

[General]
AudioFilename: 09 - Real Life Real Heart.mp3
AudioLeadIn: 0
PreviewTime: -1
Countdown: 1
SampleSet: Normal
StackLeniency: 0.7
Mode: 0
LetterboxInBreaks: 1
EditorBookmarks: 174748

[Metadata]
Title:Rirura Riruha
Artist:Kaela Kimura
Creator:mattyu007
Version:Normal
Source:Ouendan 2
Tags:Real Life Real Heart

[Difficulty]
HPDrainRate:4
CircleSize:4
OverallDifficulty:4
SliderMultiplier:1.2
SliderTickRate:1

[Events]
//Background and Video events
0,0,"Normal.png"
//Break Periods
2,27772,41277
2,55806,69310
2,108368,121873
//Storyboard Layer 0 (Background)
//Storyboard Layer 1 (Failing)
//Storyboard Layer 2 (Passing)
//Storyboard Layer 3 (Foreground)
//Storyboard Sound Samples
//Background Colour Transformations
3,100,163,162,255

[TimingPoints]
14008,437.956204379562,4,1,0,100

[HitObjects]
368,48,14007,5,0
256,48,14445,1,0
144,48,14883,1,0
144,288,15759,5,0
256,288,16197,1,0
368,288,16635,1,0
368,48,17511,5,0
256,48,17949,1,0
144,48,18387,1,0
144,288,19263,5,0
256,288,19701,1,0
368,288,20139,1,0
368,48,21015,5,2
256,48,21453,1,2
144,48,21891,1,2
144,288,22767,5,2
256,288,23205,1,2
368,288,23643,1,2
432,80,24518,5,2
304,80,24956,1,2
192,80,25394,1,2
64,80,25832,1,2
64,192,26270,6,6,B|432:192,1,360
144,48,42037,5,0
256,48,42475,1,0
368,48,42913,1,0
368,288,43789,5,0
256,288,44226,1,0
144,288,44664,1,0
144,48,45540,5,0
256,48,45978,1,0
368,48,46416,1,0
368,288,47292,5,0
256,288,47730,1,0
144,288,48168,1,0
144,48,49044,5,2
256,48,49482,1,2
368,48,49920,1,2
368,288,50796,5,2
256,288,51234,1,2
144,288,51672,1,2
96,64,52548,5,2
208,64,52986,1,2
320,64,53424,1,2
432,64,53862,1,2
448,176,54299,6,6,B|80:176,1,360
432,64,70066,5,2
320,64,70504,1,2
208,64,70942,2,2,B|0:64,1,200
16,240,72256,1,2
128,240,72694,2,2,B|352:240,1,200
368,64,74007,5,4
128,64,74883,1,4
128,304,75759,1,4
368,304,76635,1,4
224,96,77511,5,2
112,96,77949,1,2
0,96,78387,1,2
64,16,78825,2,6,B|432:16,1,360
416,272,81015,5,4
208,112,81891,1,4
272,336,82767,1,4
80,176,83643,1,4
80,64,84080,5,2
192,64,84518,1,2
304,64,84956,2,2,B|512:64,1,200
496,240,86270,1,2
384,240,86708,2,2,B|160:240,1,200
128,64,88022,5,4
368,64,88898,1,4
368,304,89774,1,4
128,304,90650,1,4
0,128,91526,5,2
-24,0,91964,2,2,B|576:0,1,560
488,131,94445,6,4,B|407:76|258:75|258:75|116:76|10:137,1,480
466,250,98095,6,4,B|406:301|258:309|258:309|142:311|42:251,1,440
464,112,101599,6,4,B|404:61|256:53|256:53|140:51|40:111,1,440
464,256,105102,2,4,B|404:307|256:315|256:315|140:317|40:257,1,440
432,64,122621,5,6
208,64,123497,1,4
398,192,124372,5,0
275,192,124810,1,4
156,192,125248,1,0
32,192,125686,1,4
48,64,126124,5,6
272,64,127000,1,4
100,224,127876,5,0
223,224,128314,1,4
342,224,128752,1,0
464,224,129190,1,4
448,336,129628,5,6
224,336,130504,1,4
398,192,131380,5,0
275,192,131818,1,4
156,192,132256,1,0
34,192,132694,1,4
32,304,133132,5,6
256,304,134007,1,4
72,176,134883,5,0
195,176,135321,1,0
314,176,135759,1,0
436,176,136197,1,4
432,64,136635,5,2
320,64,137073,1,2
208,64,137511,2,2,B|0:64,1,200
16,240,138825,1,2
128,240,139263,2,2,B|352:240,1,200
368,64,140577,5,4
128,64,141453,1,4
128,304,142329,1,4
368,304,143205,1,4
224,96,144080,5,2
112,96,144518,1,2
0,96,144956,1,6
64,16,145394,2,2,B|432:16,1,360
416,272,147584,5,4
208,112,148460,1,4
272,336,149336,1,4
80,176,150212,1,4
80,64,150650,5,2
192,64,151088,1,2
304,64,151526,2,2,B|512:64,1,200
496,240,152840,1,2
384,240,153278,2,2,B|160:240,1,200
128,64,154591,5,4
368,64,155467,1,4
368,304,156343,1,4
128,304,157219,1,4
0,128,158095,5,2
-24,0,158533,2,2,B|576:0,1,560
488,131,161015,6,4,B|407:76|258:75|258:75|116:76|10:137,1,480
466,250,164664,6,4,B|406:301|258:309|258:309|142:311|42:251,1,440
464,112,168168,6,4,B|404:61|256:53|256:53|140:51|40:111,1,440
256,192,170796,12,4,174737
