osu file format v5

[General]
AudioFilename: bQXr2DC6tu-xmd2RMOAV1zRTPEdRzaVNzFnXmLTFRqO9RT4RMxb5SXNJrWUC.mp3
AudioLeadIn: 0
PreviewTime: 20117
Countdown: 0
SampleSet: Normal
StackLeniency: 0.7
Mode: 0
LetterboxInBreaks: 0
EditorBookmarks: 1945,9123,20223,26671,33542,39990,47390,53098,63246,76776

[Metadata]
Title:Sailor Star Song
Artist:Kae Hanazawa
Creator:kingcobra52
Version:Normal
Source:Sailor Moon
Tags:

[Difficulty]
HPDrainRate:4
CircleSize:4
OverallDifficulty:5
SliderMultiplier:1.6
SliderTickRate:1

[Events]
//Background and Video events
0,0,"stars.jpg"
1,-500,"2016561372.avi"
//Break Periods
//Storyboard Layer 0 (Background)
4,0,0,"200707062921-2657.jpg",0,0 F,0,-1,0,1,1 F,0,59440,63034,1,0
//Storyboard Layer 1 (Failing)
//Storyboard Layer 2 (Passing)
//Storyboard Layer 3 (Foreground)
//Storyboard Sound Samples
//Background Colour Transformations
3,100,163,162,255

[TimingPoints]
662,422.832980972516,4,1,0,80,1
20434,-100,4,2,0,100,0
57220,-100,4,1,0,81,0

[Colours]
Combo1 : 255,149,43
Combo2 : 255,255,51
Combo3 : 36,36,251
Combo4 : 251,47,47
Combo5 : 0,225,0

[HitObjects]
312,80,2564,1,4
376,104,2776,1,4
400,168,2987,1,4
224,296,3621,5,0
200,224,3833,1,0
128,232,4044,1,0
104,160,4256,1,0
192,48,4678,2,2,B|360:48,1,160
352,48,5313,1,2
424,240,5947,5,4
376,296,6158,1,4
304,304,6370,1,4
320,160,6793,5,0
272,112,7004,1,0
200,120,7215,1,0
152,176,7427,1,0
176,240,7638,1,0
304,304,8061,2,2,B|128:304,1,160
144,304,8695,1,2
144,88,9330,5,0
200,40,9541,1,0
256,88,9752,2,0,B|328:152|416:80,1,160
401,90,10387,1,0
464,216,10809,1,0
416,272,11021,1,0
368,216,11232,1,0
256,192,11444,12,4,12289
72,104,12712,5,2
144,104,12924,1,2
216,104,13135,1,2
256,192,13346,12,4,16518
96,184,18209,5,6
208,88,18632,1,6
240,224,19055,1,6
184,176,19266,1,6
440,280,20535,5,0
376,152,20957,2,0,B|328:56,1,80
264,80,21380,1,0
184,80,21592,2,0,B|128:48|64:80|48:128,2,160
56,248,23072,6,0,B|104:336|200:296,1,160,0|0
336,288,23917,1,0
392,240,24129,1,0
328,112,24552,1,0
264,72,24763,1,0
192,72,24974,2,2,B|40:128|120:280,1,240
168,304,25820,2,2,B|304:368|408:264,1,240
432,136,26877,6,0,B|368:24|224:40,1,240
88,72,27934,1,0
48,208,28357,2,0,B|192:176|224:328,1,240
240,176,29414,2,0,B|320:224|400:184,2,160
328,64,30683,1,0
328,64,30894,1,0
448,144,31317,1,0
408,280,31740,1,0
336,280,31951,6,4,B|160:280,1,160,2|4
176,136,32797,2,0,B|344:136,1,160,2|4
256,16,33642,1,2
128,72,34065,6,0,B|56:128|88:216,1,160
200,304,34911,1,0
263,264,35122,2,0,B|352:288|304:184|416:200,1,160
392,56,35968,1,0
248,56,36391,5,0
176,56,36602,1,0
64,144,37025,2,0,B|64:240|160:264,1,160
152,336,37659,1,0
296,336,38082,1,0
360,304,38294,1,0
392,240,38505,2,2,B|352:104|184:120,1,240
208,192,39351,2,2,B|336:240|400:72,1,240
393,88,40196,5,2
256,40,40619,1,0
184,40,40831,2,0,B|88:40,4,80
184,112,41888,2,0,B|200:224|80:224,1,160
184,334,42733,2,0,B|200:222|80:222,1,160
240,192,43579,6,0,B|408:192,1,160
472,192,44213,1,2
472,192,44425,1,2
472,192,44636,1,2
360,104,45059,1,2
296,64,45270,1,2
256,192,45482,12,4,46962
192,72,47807,5,0
256,112,48019,1,0
192,240,48442,1,2
128,200,48653,1,2
312,312,49287,5,2
384,192,49710,1,2
312,64,50133,6,0,B|240:24|144:72,1,160
56,168,50979,1,0
56,168,51190,1,0
184,224,51613,1,0
232,280,51824,1,0
304,296,52036,2,2,B|352:320|520:184|184:24,1,400
136,40,53304,6,0,B|40:40,1,80
56,112,53727,2,2,B|64:216|192:280|320:208,1,320
306,215,54784,1,2
304,72,55207,1,2
368,104,55418,1,2
448,304,56053,5,2
304,304,56475,1,2
160,304,56898,1,2
88,176,57321,5,0
56,112,57533,1,0
88,48,57744,1,0
160,32,57955,2,0,B|248:0|264:152|400:56,1,240
472,176,59012,1,0
256,192,59435,12,6,63029
256,192,63452,5,4
208,136,63664,1,4
160,192,63875,1,4
256,304,64298,5,0
328,296,64509,1,0
392,256,64721,1,0
440,200,64932,1,0
464,128,65144,1,0
328,72,65566,2,2,B|256:128|176:72,1,160
179,74,66201,1,2
64,256,66835,5,4
120,304,67046,1,4
176,256,67258,1,4
176,112,67681,5,0
224,56,67892,1,0
272,112,68103,1,0
320,168,68315,1,0
368,112,68526,1,0
480,208,68949,2,2,B|448:296|352:288,1,160
356,288,69583,1,2
192,152,70218,5,0
144,96,70429,1,0
72,95,70640,2,0,B|11:169|75:241,1,160
120,296,71275,1,2
264,296,71697,1,0
352,184,72120,1,2
440,296,72543,1,0
352,184,72966,6,2,B|352:16,2,160
272,64,74234,2,4,B|192:8|112:64,1,160
120,128,74869,2,4,B|192:184|272:136,1,160
280,280,75714,2,4,B|320:344|376:336|408:272,1,160
432,208,76349,1,4
456,136,76560,1,4
256,192,76983,5,4
304,136,77194,1,4
352,192,77406,1,4
168,304,78040,5,0
96,288,78251,1,0
64,224,78463,1,0
88,152,78674,1,0
224,192,79097,2,2,B|296:248|376:192,1,160
372,194,79731,1,2
224,32,80366,5,4
296,24,80577,1,4
352,72,80788,1,4
224,136,81211,5,0
160,104,81423,1,0
104,144,81634,1,0
96,216,81845,1,0
144,272,82057,1,0
263,191,82480,2,2,B|340:245|412:189,1,160
411,189,83114,1,2
264,32,83748,5,0
192,32,83960,1,0
120,32,84171,2,0,B|59:106|123:178,1,160
121,176,84805,1,0
224,272,85228,5,0
288,304,85440,1,0
344,256,85651,1,0
408,288,85862,2,4,B|496:240|440:72|280:80,1,320
216,80,86919,2,4,B|120:80,1,80
136,152,87342,2,4,B|224:152,1,80
256,192,87765,12,4,90936
144,304,92628,5,6
376,304,93051,1,6
256,96,93473,1,6
256,192,93685,1,6
