osu file format v5

[General]
AudioFilename: bQXr2DC6tu-xmd2RMOAV1zRTPEdRzaVNzFnXmLTFRqO9RT4RMxb5SXNJrWUC.mp3
AudioLeadIn: 0
PreviewTime: 20117
Countdown: 0
SampleSet: Normal
StackLeniency: 0.7
Mode: 0
LetterboxInBreaks: 0
EditorBookmarks: 1945,9123,20223,26671,33542,39990,47390,53098,63246,76776

[Metadata]
Title:Sailor Star Song
Artist:Kae Hanazawa
Creator:kingcobra52
Version:Hard
Source:Sailor Moon
Tags:

[Difficulty]
HPDrainRate:5
CircleSize:5
OverallDifficulty:6
SliderMultiplier:2
SliderTickRate:1

[Events]
//Background and Video events
0,0,"stars.jpg"
1,-500,"2016561372.avi"
//Break Periods
//Storyboard Layer 0 (Background)
4,0,0,"200707062921-2657.jpg",0,0 F,0,-1,0,1,1 F,0,60709,63034,1,0
//Storyboard Layer 1 (Failing)
//Storyboard Layer 2 (Passing)
//Storyboard Layer 3 (Foreground)
//Storyboard Sound Samples
//Background Colour Transformations
3,100,163,162,255

[TimingPoints]
662,422.832980972516,4,1,0,80,1
20434,-100,4,2,0,100,0
57230,-100,4,1,0,81,0

[Colours]
Combo1 : 255,149,43
Combo2 : 255,255,51
Combo3 : 36,36,251
Combo4 : 251,47,47
Combo5 : 0,225,0

[HitObjects]
128,80,2564,1,4
256,24,2776,1,4
384,80,2987,1,4
192,312,3621,5,0
96,272,3833,1,0
176,216,4044,1,0
264,168,4256,2,0,B|312:208|360:168,1,100
352,72,4678,2,2,B|152:72,1,200
48,72,5313,1,2
96,152,5524,1,0
96,152,5630,1,0
96,152,5735,1,2
176,264,5947,5,4
296,328,6158,1,4
424,264,6370,1,4
288,120,6793,5,0
328,32,7004,1,0
224,32,7215,1,0
184,120,7427,1,0
80,120,7638,2,0,B|40:168|80:216,1,100
80,312,8061,2,2,B|288:312,1,200
376,312,8695,1,2
424,224,8907,1,0
424,224,9012,1,0
424,224,9118,1,2
408,128,9330,5,0
304,128,9541,1,0
303,223,9752,2,0,B|208:288|112:208,1,200
40,144,10387,1,0
120,88,10598,1,0
160,64,10704,1,0
200,88,10809,1,2
200,184,11021,1,0
104,208,11232,1,0
256,192,11444,12,4,12289
184,144,12712,5,2
320,144,12924,1,2
256,264,13135,1,2
256,192,13346,12,4,15461
104,88,15883,5,0
184,144,16095,1,0
264,88,16306,1,0
344,32,16518,2,4,B|408:72|432:144|408:208,1,200
352,288,17152,2,0,B|248:216,1,100
176,263,17575,2,0,B|259:320,1,100
352,288,17998,5,0
392,312,18103,1,0
432,288,18209,5,6
248,72,18632,1,6
56,280,19055,1,6
152,176,19266,1,6
432,288,20535,6,0,B|320:288,1,100
224,288,20957,1,0
144,224,21169,1,0
224,160,21380,1,0
304,96,21592,2,0,B|224:16,1,100
136,24,22015,2,0,B|64:112,1,100
8,176,22437,1,0
72,256,22649,1,0
72,256,22755,1,0
72,256,22860,1,2
152,192,23072,6,0,B|272:192,1,100
248,288,23494,2,0,B|352:288,1,100
448,288,23917,1,0
400,200,24129,1,0
256,64,24552,1,0
168,24,24763,1,0
88,80,24974,2,2,B|-16:136|8:248,1,200
80,312,25609,1,0
152,240,25820,2,2,B|248:296|352:240,1,200
432,200,26454,5,0
432,200,26560,1,0
432,200,26666,1,2
368,120,26877,2,0,B|328:16|192:24,1,200
112,56,27511,2,0,B|32:128,1,100
112,192,27934,2,0,B|192:272,1,100
280,264,28357,2,0,B|368:336|472:264,1,200
464,168,28991,1,0
464,168,29097,1,0
464,168,29203,1,2
376,120,29414,6,0,B|312:16,1,100
224,32,29837,2,0,B|160:128,1,100
104,192,30260,1,0
264,304,30683,1,0
360,304,30894,2,0,B|464:304,1,100
464,200,31317,1,0
472,96,31528,1,0
400,32,31740,1,0
296,32,31951,5,2
216,96,32163,1,0
136,32,32374,1,4
296,296,32797,1,2
368,224,33008,1,0
440,296,33220,1,4
88,192,33642,5,2
168,248,33854,1,0
248,192,34065,2,0,B|302:146|334:195,1,100
424,232,34488,1,0
480,144,34700,1,0
456,48,34911,1,0
360,24,35122,2,0,B|320:16|328:80|272:48,1,100
184,96,35545,2,0,B|144:88|152:152|96:120,1,100
16,176,35968,1,0
16,176,36074,1,0
16,176,36179,1,2
80,248,36391,5,0
176,280,36602,2,0,B|271:249,1,100
368,272,37025,2,0,B|322:240|338:184,1,100
432,144,37448,1,0
416,48,37659,1,0
80,112,38082,1,2
16,192,38294,1,2
80,271,38505,2,2,B|201:247|257:367,1,200
256,248,39139,1,0
320,176,39351,2,2,B|202:200|155:98,1,200
72,40,39985,5,0
72,136,40196,1,2
216,272,40619,1,0
312,272,40831,2,0,B|412:272,1,100
416,168,41253,2,0,B|316:168,1,100
320,64,41676,1,0
216,63,41888,2,2,B|193:174|65:157,1,200
72,256,42522,1,0
168,256,42733,2,2,B|296:273|320:161,1,200
416,160,43368,1,0
408,256,43579,6,0,B|328:336,1,100
240,320,44002,1,0
240,320,44108,1,0
240,320,44213,1,2
152,272,44425,1,2
64,224,44636,2,2,B|136:136,1,100
200,72,45059,1,2
272,144,45270,1,2
256,192,45482,12,4,46327
256,192,46539,5,4
256,192,46750,1,4
256,192,46962,1,4
40,40,47807,5,0
152,120,48019,1,0
432,120,48442,1,2
312,40,48653,1,2
256,312,49076,5,0
160,312,49287,1,2
96,232,49499,1,0
64,192,49604,1,0
96,152,49710,1,2
184,112,49922,1,0
184,8,50133,6,0,B|226:-17|275:32,1,100
368,48,50556,1,0
464,48,50767,1,0
424,136,50979,1,0
512,136,51190,1,0
208,296,51613,1,0
112,256,51824,1,0
72,160,52036,2,2,B|192:192|240:80,1,200
328,48,52670,1,0
400,120,52881,1,0
400,120,52987,1,0
400,120,53093,1,2
400,216,53304,6,0,B|312:272,1,100
256,184,53727,2,2,B|142:249|14:185|0:80,1,300
88,48,54573,1,0
200,136,54784,1,2
464,48,55207,1,2
360,136,55418,1,2
48,336,55841,5,0
120,264,56053,1,2
48,192,56264,1,2
120,120,56475,1,2
200,56,56687,1,0
240,24,56793,1,0
280,56,56898,1,2
376,56,57110,1,0
416,160,57321,5,0
384,256,57533,1,0
296,304,57744,1,0
192,288,57955,2,0,B|98:351|90:222|10:271,1,200
16,168,58590,1,0
80,88,58801,1,0
176,72,59012,1,0
400,240,59435,6,0,B|312:320,1,100
224,304,59858,1,0
136,256,60070,1,0
96,160,60281,2,0,B|80:104|136:72,1,100
256,192,60704,12,6,63029
144,192,63452,5,4
256,272,63664,1,4
368,192,63875,1,4
144,24,64298,5,0
56,72,64509,1,0
32,168,64721,1,0
64,264,64932,1,0
144,320,65144,2,0,B|192:360|240:320,1,100
240,224,65566,2,2,B|440:224,1,200
504,144,66201,1,2
440,64,66412,1,0
440,64,66518,1,0
440,64,66623,1,2
296,64,66835,5,4
160,24,67046,1,4
64,128,67258,1,4
248,336,67681,5,0
344,304,67892,1,0
424,240,68103,1,0
448,144,68315,1,0
408,48,68526,2,0,B|360:8|312:48,1,100
312,144,68949,2,2,B|112:144,1,200
32,208,69583,1,2
112,264,69795,1,0
112,264,69900,1,0
112,264,70006,1,2
208,264,70218,5,0
296,304,70429,1,0
295,200,70640,2,0,B|385:275|480:210,1,200
408,136,71275,1,0
480,72,71486,1,0
456,24,71592,1,0
408,16,71697,1,2
304,16,71909,1,0
200,16,72120,1,2
96,16,72332,1,0
200,16,72543,1,2
96,16,72755,1,0
48,104,72966,6,2,B|128:176,1,100
208,224,73389,2,0,B|288:152,1,100
360,216,73812,2,2,B|448:296,1,100
472,192,74234,2,4,B|520:152|488:96,1,100
416,40,74657,1,0
312,40,74869,5,4
32,168,75292,1,4
272,304,75714,2,4,B|312:368|392:360|432:272,1,200
464,160,76349,1,4
480,40,76560,1,4
128,304,76983,5,4
256,360,77194,1,4
384,304,77406,1,4
192,72,78040,5,0
96,112,78251,1,0
176,168,78463,1,0
264,216,78674,2,0,B|312:176|360:216,1,100
352,312,79097,2,2,B|152:312,1,200
48,312,79731,1,2
96,232,79943,1,0
96,232,80048,1,0
96,232,80154,1,2
176,120,80366,5,4
296,56,80577,1,4
424,120,80788,1,4
288,264,81211,5,0
328,352,81423,1,0
224,352,81634,1,0
184,264,81845,1,0
80,264,82057,2,0,B|40:216|80:168,1,100
80,72,82480,2,2,B|288:72,1,200
376,72,83114,1,2
424,160,83325,1,0
424,160,83431,1,0
424,160,83537,1,2
408,256,83748,5,0
304,256,83960,1,0
303,161,84171,2,0,B|208:96|112:176,1,200
40,240,84805,1,0
120,296,85017,1,0
160,320,85122,1,0
200,296,85228,1,2
280,232,85440,1,0
352,296,85651,1,0
256,192,85862,12,4,86708
256,192,86919,5,2
176,248,87131,1,2
328,248,87342,1,2
256,104,87554,1,2
256,192,87765,12,4,89879
104,296,90302,5,0
184,240,90514,1,0
264,296,90725,1,0
344,352,90936,2,4,B|408:312|432:240|408:176,1,200
352,96,91571,2,0,B|272:32,1,100
176,39,91993,2,0,B|88:104,1,100,0|0
56,192,92416,5,0
72,240,92522,1,0
112,264,92628,5,6
448,312,93051,1,6
328,24,93473,1,6
304,144,93685,1,6
