osu file format v8

[General]
AudioFilename: Sweet Deut.mp3
AudioLeadIn: 0
PreviewTime: 71898
Countdown: 0
SampleSet: Soft
StackLeniency: 0.7
Mode: 0
LetterboxInBreaks: 0

[Editor]
Bookmarks: 32792,45954,110212,139438,174857,195760
DistanceSpacing: 1
BeatDivisor: 4
GridSize: 8

[Metadata]
Title:Sweet Duet
Artist:Kadowaki Mai & Nakai Erika
Creator:S i R i R u
Version:Sanya
Source:STRIKE WITCHES
Tags:Hime Uta Collection 2 Oohashi Ayuru Sanya V Litvyak Eila Ilmatar Juutilainen taka1235 Cyborg MeLLoN miccoliasms azuki

[Difficulty]
HPDrainRate:3
CircleSize:4
OverallDifficulty:4
ApproachRate:7
SliderMultiplier:1.8
SliderTickRate:0.5

[Events]
//Background and Video events
0,0,"BG.jpg"
//Break Periods
2,98018,108918
2,164598,174337
//Storyboard Layer 0 (Background)
//Storyboard Layer 1 (Fail)
//Storyboard Layer 2 (Pass)
//Storyboard Layer 3 (Foreground)
//Storyboard Sound Samples
//Background Colour Transformations
3,100,255,255,255

[TimingPoints]
4915,387.096774193548,4,2,1,70,1,0
8011,-100,4,2,2,70,0,1
8205,-100,4,2,2,70,0,0
20302,-100,4,2,1,70,0,0
20592,-100,4,2,1,50,0,0
31334,-100,4,2,1,30,0,0
31527,-100,4,2,1,50,0,0
32205,-100,4,2,1,30,0,0
32592,-100,4,2,1,70,0,0
37334,-100,4,2,1,40,0,0
37527,-100,4,2,1,70,0,0
37914,-100,4,2,1,40,0,0
38108,-100,4,2,1,70,0,0
58237,-100,4,2,1,50,0,0
59011,-100,4,2,1,70,0,0
60656,-100,4,2,2,70,0,1
60850,-100,4,2,2,70,0,0
70914,-100,4,2,2,41,0,0
71882,-200,4,2,2,70,0,0
72656,-100,4,2,2,70,0,0
73044,-100,4,2,2,70,0,1
73237,-100,4,2,2,70,0,0
96173,-100,4,2,2,51,0,0
97044,-100,4,2,1,50,0,0
109624,-100,4,2,1,50,0,0
110011,-100,4,2,1,70,0,0
114753,-100,4,2,1,50,0,0
114947,-100,4,2,1,70,0,0
115334,-100,4,2,1,50,0,0
115527,-100,4,2,1,70,0,0
120947,-100,4,2,1,50,0,0
121721,-100,4,2,1,70,0,0
122398,-100,4,2,1,70,0,0
134592,-100,4,2,1,31,0,0
136140,-100,4,2,1,70,0,0
138269,-100,4,2,1,30,0,0
139237,-100,4,2,1,70,0,0
139624,-100,4,2,2,70,0,1
139818,-100,4,2,2,70,0,0
152011,-100,4,2,2,70,0,1
152205,-100,4,2,2,70,0,0
175237,-100,4,2,2,30,0,0
176785,-100,4,2,2,70,0,0
177173,-200,4,2,1,70,0,0
195366,-100,4,2,1,70,0,0
204076,-100,4,2,1,50,0,0
204463,-100,4,2,1,71,0,0
204947,-100,4,2,1,20,0,0
205140,-100,4,2,1,30,0,0
205334,-100,4,2,1,40,0,0
205527,-100,4,2,1,50,0,0
205721,-100,4,2,1,60,0,0
205914,-100,4,2,1,70,0,0
206108,-100,4,2,1,80,0,0
206592,-100,4,2,1,20,0,0
207753,-100,4,2,1,70,0,0
212108,-100,4,2,1,30,0,0
212302,-100,4,2,1,40,0,0
212495,-100,4,2,1,50,0,0
212689,-100,4,2,1,60,0,0
212882,-100,4,2,1,70,0,0
213076,-100,4,2,1,40,0,0
213463,-100,4,2,1,50,0,0
213947,-100,4,2,2,70,0,0
218979,-100,4,2,2,30,0,0
220140,-100,4,2,2,70,0,1
220334,-100,4,2,2,70,0,0
243173,-100,4,2,2,30,0,0
244914,-100,4,2,2,70,0,0
246269,-100,4,2,2,30,0,0

[Colours]
Combo1 : 247,254,148
Combo2 : 206,179,203
Combo3 : 175,221,254

[HitObjects]
256,192,7431,1,0
256,192,7624,1,8
256,192,8011,6,0,B|56:192,2,180,4|8|0
312,272,8979,2,0,B|408:272,2,90,0|8|0
256,352,9560,1,0
160,352,9753,1,0
104,272,9947,2,0,B|0:272,2,90,8|0|0
104,176,10527,1,0
160,96,10721,1,8
256,96,10914,1,0
256,192,11108,6,0,B|336:192|336:272|440:264,1,180,0|8
416,168,11689,2,0,B|512:168,2,90
416,72,12269,2,0,B|352:72|336:128,1,90,8|0
264,168,12656,2,0,B|200:184|200:240|200:296|296:304,1,180,0|8
328,232,13237,2,0,B|424:232,1,90
464,312,13624,1,0
384,352,13818,1,8
296,352,14011,1,0
216,304,14205,6,0,B|24:304,2,180,4|8|0
296,264,15173,1,0
216,216,15366,1,8
128,216,15560,1,0
80,136,15753,2,0,B|16:40,2,90,0|0|8
128,216,16334,2,0,B|0:216,2,90
184,296,16914,1,8
256,344,17108,6,0,B|304:328|312:272,1,90
312,192,17495,2,0,B|368:192|392:240,2,90,0|8|0
312,104,18076,2,0,B|112:104,1,180,0|8
40,104,18656,2,0,B|40:152|40:152|56:192,1,90
144,192,19044,2,0,B|160:240|160:240|160:296,2,90,0|8|0
232,192,19624,2,0,B|304:184|368:248|352:320,1,180,0|8
264,296,20205,1,0
264,296,20398,1,4
40,192,20785,5,0
256,40,21173,1,2
472,192,21560,1,0
360,192,21947,5,0
256,128,22334,1,0
152,192,22721,1,2
256,240,23108,5,0
256,240,23302,1,0
256,240,23495,1,0
432,320,23882,6,0,B|432:264|472:224|472:224|472:152|416:136,1,180,0|2
80,320,24656,2,0,B|80:264|40:224|40:224|40:152|96:136,1,180
256,40,25431,6,0,B|248:64|248:64|264:72|264:72|248:88|248:88|264:96|264:96|248:112|248:112|264:120|264:120|258:139|258:139|256:208,1,180,0|2
256,264,26011,2,0,B|256:368,2,90
256,264,26592,1,4
448,64,26979,5,0
328,192,27366,1,2
328,104,27560,1,0
248,152,27753,2,0,B|64:152,2,180
248,240,28721,2,0,B|248:344,2,90,0|2|0
160,240,29302,2,0,B|96:240|40:288|32:352,2,180
248,240,30269,6,0,B|352:240,1,90,0|2
416,192,30656,1,0
416,104,30850,2,0,B|224:104,1,180,0|8
160,152,31431,1,8
112,232,31624,1,8
112,320,31818,1,8
384,320,32398,1,8
72,192,32785,5,4
160,144,32979,1,0
256,144,33173,2,0,B|352:144,2,90,8|0|0
208,232,33753,1,0
208,328,33947,2,0,B|72:328,2,90,8|0|0
296,280,34527,5,0
384,328,34721,1,8
472,280,34914,1,0
384,232,35108,1,0
296,184,35302,1,0
384,136,35495,1,8
472,176,35689,1,0
384,136,35882,1,0
208,56,36269,5,8
112,56,36463,2,0,B|112:112|168:144,1,90
208,56,36850,2,0,B|320:56,2,90,0|8|0
192,152,37431,6,0,B|224:192|224:288|184:336,1,180,4|8
320,152,38011,2,0,B|288:192|288:288|328:336,1,180,4|0
319,323,38592,1,8
319,323,38785,1,0
319,323,38979,1,4
72,192,39366,6,0,B|72:288,1,90,8|0
160,256,39753,2,0,B|160:136,2,90,0|0|8
160,256,40334,1,0
160,344,40527,2,0,B|208:352|280:304|248:248|248:176,1,180,0|8
336,184,41108,1,0
336,96,41302,2,0,B|392:96|416:144,1,90
336,184,41689,2,0,B|336:368,2,180,8|0|8
256,120,42656,5,0
160,80,42850,1,0
64,112,43044,1,0
40,208,43237,1,8
104,288,43431,5,0
200,288,43624,1,4
200,288,44011,1,8
296,288,44205,1,4
296,288,44592,1,0
392,288,44785,5,8
392,272,44882,1,0
392,256,44979,1,0
392,240,45076,1,0
392,224,45173,1,2
392,128,45366,1,2
392,128,45560,1,2
208,56,45947,5,0
128,96,46140,1,0
128,184,46334,1,2
128,184,46527,2,0,B|128:368,2,180,4|0|0
216,184,47495,1,0
304,336,47882,1,2
472,264,48269,1,2
472,264,48463,1,2
472,264,48656,1,2
464,80,49044,5,0
384,120,49237,1,0
320,56,49431,1,2
232,56,49624,1,4
120,192,50011,1,0
120,280,50205,1,2
120,192,50398,1,0
200,240,50592,2,0,B|408:240,2,180,0|2|4
256,72,51753,5,8
256,72,51947,1,0
208,144,52140,2,0,B|96:144,1,90
304,144,52527,2,0,B|400:144,1,90,8|0
416,232,52914,2,0,B|320:232,1,90
96,232,53302,2,0,B|192:232,1,90,8|0
256,288,53689,5,0
256,288,53882,2,0,B|256:352,2,45,0|0|8
256,192,54269,1,0
256,96,54463,1,4
408,192,54850,5,8
408,280,55044,2,0,B|472:352,2,90
328,328,55624,2,0,B|128:328,1,180,8|0
80,272,56205,1,0
80,272,56398,1,8
80,184,56592,1,0
80,184,56785,2,0,B|80:128|128:64|224:80,1,180,0|8
200,168,57366,2,0,B|296:168,1,90
290,168,57753,2,0,B|416:168,2,90,0|8|0
248,248,58334,5,8
192,320,58527,1,8
104,320,58721,1,8
48,248,58914,1,8
48,160,59108,5,8
48,72,59302,1,8
128,112,59495,1,8
48,160,59689,1,0
256,64,60076,1,0
256,64,60269,1,8
256,64,60463,1,0
256,192,60656,6,0,B|288:152|368:136|424:144,1,180,4|8
256,192,61237,2,0,B|224:232|144:248|88:240,1,180
256,104,61818,1,8
256,104,62011,1,0
256,192,62205,2,0,B|256:384,2,180,0|8|0
256,192,63366,1,8
457,108,63753,6,0,B|429:59|378:52|319:66|303:121,1,180,0|8
56,104,64334,2,0,B|84:153|135:160|194:146|210:91,1,180
256,176,64914,1,8
256,264,65108,6,0,B|160:264,1,90
88,312,65495,1,0
88,312,65689,1,8
88,224,65882,1,0
24,160,66076,2,0,B|24:104|64:40|160:48,1,180,0|8
232,48,66656,1,0
184,128,66850,6,0,B|184:320,1,180,4|8
272,328,67431,2,0,B|272:120,1,180
360,128,68011,2,0,B|360:328,2,180,8|0|8
40,192,69173,5,0
256,344,69560,1,8
472,192,69947,1,0
256,144,70334,6,0,B|256:48,2,90,8|0|0
181,194,70914,2,0,B|209:243|260:250|319:236|335:181,1,180,2|2
256,40,72076,6,0,B|256:208,1,135
256,264,72850,1,0
336,216,73044,6,0,B|392:216|400:136|480:96,1,180,4|8
176,216,73624,2,0,B|120:216|112:144|32:96,1,180
256,264,74205,1,8
256,264,74398,2,0,B|256:80,1,180
256,84,74979,1,8
256,84,75173,1,0
312,336,75560,5,0
400,336,75753,1,8
456,264,75947,1,0
456,176,76140,6,0,B|376:176|376:88|288:88,1,180,0|8
56,176,76721,2,0,B|136:176|136:88|224:88,1,180
256,168,77302,2,0,B|256:264,1,90,8|0
432,288,77882,5,0
352,328,78076,1,8
264,344,78269,1,0
264,344,78463,2,0,B|56:344,2,180,0|8|4
352,184,79624,5,8
352,96,79818,2,0,B|448:96,2,90
272,136,80398,2,0,B|224:96|136:96|96:144,1,180,8|0
104,224,80979,2,0,B|104:344,2,90,0|8|0
192,256,81560,2,0,B|240:296|328:296|368:248,2,180,0|8|0
256,88,82721,5,8
256,88,82915,2,0,B|344:32,2,90
176,136,83495,1,8
96,184,83689,1,0
96,272,83882,1,0
256,192,84656,5,0
256,192,85044,1,8
256,280,85237,1,0
336,232,85431,6,0,B|400:176|392:64,1,180,4|8
304,72,86011,2,0,B|256:48|208:72,1,90
136,104,86398,1,0
96,184,86592,1,8
96,272,86785,1,0
176,232,86979,6,0,B|176:352,1,90
256,280,87366,2,0,B|256:184,1,90,8|0
336,232,87753,2,0,B|336:336,1,90
416,280,88140,6,0,B|464:240|456:208|456:208|408:184|416:112,1,180,8|0
96,280,88914,2,0,B|48:240|56:208|56:208|104:184|96:112,1,180,8|0
256,344,89689,6,0,B|288:296|216:248|264:152,2,180,8|0|8
344,320,90656,6,0,B|392:320|424:368,2,90
256,344,91237,2,0,B|64:344,1,180,8|4
48,256,91818,2,0,B|48:152,1,90,0|8
136,110,92205,2,0,B|136:216,1,90
224,144,92592,5,0
224,144,92785,1,8
304,192,92979,1,0
304,192,93173,1,0
328,280,93366,1,0
328,280,93560,1,8
304,368,93753,1,0
304,368,93947,1,0
216,336,94140,5,0
216,336,94334,2,0,B|16:336,2,180,8|0|8
216,248,95302,1,0
288,192,95495,1,0
376,176,95689,1,0
448,120,95882,1,8
448,32,96076,1,0
344,40,96269,6,8,B|344:104|288:120,1,90
168,40,96656,2,0,B|168:104|224:120,1,90,8|8
256,344,97431,1,0
256,344,97818,1,4
256,168,109818,5,8
256,168,110205,2,0,B|256:352,2,180,4|8|0
176,128,111173,1,0
96,168,111366,1,8
96,256,111560,2,0,B|96:312|48:352,2,90
184,256,112140,2,0,B|216:224|334:220|380:280,1,180,8|0
352,344,112721,1,0
352,344,112915,2,0,B|352:160,2,180,8|0|8
264,320,113882,5,0
176,344,114076,1,0
88,320,114269,1,0
48,240,114463,1,8
88,160,114656,1,0
176,160,114850,5,4
176,160,115237,1,8
264,160,115431,1,4
264,160,115818,1,0
352,160,116011,1,8
440,160,116205,1,0
440,160,116398,6,0,B|432:240|384:296|320:312,1,180,4|8
256,304,116979,2,0,B|152:304,2,90
256,216,117560,2,0,B|184:216|184:128|72:136,1,180,8|0
104,224,118140,2,0,B|0:224,2,90,0|8|0
104,312,118721,2,0,B|160:344|248:344|296:296,1,180,0|8
368,312,119302,1,0
368,224,119495,2,0,B|312:192|224:192|176:240,1,180,0|8
104,224,120076,6,0,B|0:224,1,90
120,136,120463,2,0,B|32:80,1,90,0|8
200,104,120850,2,0,B|176:16,2,90,0|8|8
256,176,121431,5,8
344,176,121624,1,8
408,120,121818,1,8
408,32,122011,1,8
408,32,122205,1,8
256,336,122592,5,2
256,336,122785,1,2
256,336,122979,1,2
48,192,123366,5,0
104,120,123560,1,0
192,120,123753,1,0
192,208,123947,2,0,B|136:224|128:312,2,90,4|0|0
280,208,124527,1,0
344,272,124721,1,0
344,272,124818,1,0
344,272,124915,1,0
432,272,125108,1,0
432,184,125302,6,0,B|432:128|368:64|288:88,1,180,2|2
216,80,125882,1,2
128,80,126076,1,2
48,336,126463,5,0
120,272,126656,1,0
296,320,127044,1,4
208,320,127237,6,0,B|208:136,1,180,0|2
288,96,127818,1,0
344,168,128011,1,0
432,200,128205,1,0
432,112,128398,1,2
432,200,128592,1,0
432,288,128785,1,4
136,328,129173,6,0,B|72:264|72:192|80:128,1,180,8|0
168,168,129753,2,0,B|168:64,2,90,0|8|0
256,200,130334,1,0
256,288,130527,1,0
256,200,130721,1,8
344,168,130915,2,0,B|344:64,2,90
432,152,131495,2,0,B|432:232|400:328|352:352,2,180,8|4|8
368,88,132463,5,0
304,24,132656,1,0
256,104,132850,1,0
208,24,133044,1,8
144,88,133237,1,0
200,200,133431,5,0
256,272,133624,1,0
312,200,133818,1,8
256,272,134011,2,0,B|256:376,2,90
256,192,134592,12,8,136140
256,48,136527,5,0
256,48,136721,5,2
48,192,137108,5,0
48,192,137302,5,2
464,192,137689,5,0
464,192,137882,5,2
256,192,138269,12,8,139237
48,288,139624,6,0,B|128:288|128:216|224:216,1,180,4|8
304,216,140205,2,0,B|376:216|376:288|480:288,1,180
464,200,140785,6,0,B|464:96,2,90,8|0|0
384,152,141366,1,0
304,112,141560,1,8
216,112,141753,1,0
216,200,141947,6,0,B|8:200,2,180,0|8|0
288,256,142915,1,0
376,256,143108,2,0,B|376:360,2,90,8|0|0
464,256,143689,1,0
464,168,143882,1,8
376,136,144076,6,0,B|376:32,1,90
296,80,144463,2,0,B|296:192,1,90,0|8
216,136,144850,2,0,B|216:40,1,90
136,80,145237,1,0
136,80,145431,2,0,B|136:272,2,180,8|4|8
224,80,146398,6,0,B|304:80|304:168|408:160,1,180
472,160,146979,2,0,B|472:64,1,90,8|0
424,232,147366,2,0,B|408:288|344:336|264:320,1,180,0|8
192,320,147947,2,0,B|72:320,2,90
192,232,148527,6,0,B|160:192|152:112|200:64,1,180,8|0
256,136,149108,1,0
312,64,149302,2,0,B|344:104|352:184|304:232,1,180,8|0
256,304,149882,1,0
256,304,150076,1,8
256,304,150269,1,4
176,72,151044,6,0,B|208:40|296:32|344:80,1,180,0|0
304,160,151624,1,0
256,240,151818,1,0
208,160,152011,1,4
56,288,152398,5,8
56,200,152592,2,0,B|112:192|160:256|152:304|128:352,1,180
56,288,153173,1,8
56,200,153366,2,0,B|56:16,1,180
136,64,153947,2,0,B|136:168,1,90,8|0
216,104,154334,1,0
296,144,154527,1,0
376,184,154721,1,8
376,184,154915,1,0
456,240,155108,6,0,B|456:312|328:288|328:368,1,180,0|8
56,240,155689,2,0,B|56:312|184:288|184:368,1,180,0|0
256,304,156269,1,8
192,240,156463,6,0,B|192:184|216:144,1,90
320,240,156850,2,0,B|320:184|296:144,1,90,0|8
112,160,157237,2,0,B|112:104|136:64,1,90
400,160,157624,2,0,B|400:104|376:64,1,90,0|8
256,48,158011,5,0
256,48,158205,2,0,B|256:272,1,180,4|8
168,280,158785,5,0
80,280,158979,2,0,B|80:336|136:360,1,90
168,280,159366,2,0,B|168:80,2,180,8|0|8
256,312,160334,1,0
344,280,160527,2,0,B|344:80,2,180,0|8|0
432,280,161495,2,0,B|432:336|384:360,1,90,0|8
344,280,161882,1,0
256,312,162076,5,8
224,224,162269,1,8
256,136,162463,1,8
256,48,162656,1,8
256,48,162850,1,4
256,48,163624,5,0
256,48,164011,1,0
256,136,164205,1,0
256,224,164398,1,4
256,192,175237,12,4,176785
256,192,177366,5,0
256,192,177560,2,0,B|144:192,2,90,2|0|0
376,56,178721,1,0
440,112,178915,1,0
464,200,179108,2,0,B|464:304,1,90,0|0
376,312,179689,2,0,B|376:368,2,45,0|0|0
288,312,180269,6,0,B|256:344|152:352|104:296,1,180
120,224,181237,2,0,B|56:224,2,45,0|0|0
120,136,181818,1,0
208,136,182011,2,0,B|272:136|296:192,1,90
288,264,182592,2,0,B|288:312,2,45,2|0|4
456,192,183366,5,0
352,48,183753,1,2
280,104,183947,1,0
208,48,184140,1,0
136,104,184334,1,0
48,104,184527,2,0,B|48:216,1,90,0|0
136,216,185108,2,0,B|136:312,1,90
224,280,185689,2,0,B|224:224,2,45
400,280,186463,5,0
360,104,186850,1,0
360,192,187044,2,0,B|296:192,2,45
360,104,187624,2,0,B|416:104|448:160,1,90,2|0
488,216,188205,2,0,B|488:320,1,90,2|0
400,272,188785,2,2,B|400:320,1,45,2|0
312,328,189173,1,4
56,192,189560,5,2
112,120,189947,1,0
200,120,190334,1,2
256,48,190721,1,0
312,120,191108,1,2
400,120,191495,1,0
456,192,191882,1,2
256,192,192269,6,0,B|256:296,4,90,0|2|0|2|0
256,32,194205,1,2
256,192,194592,1,0
256,112,194785,1,0
256,192,194979,1,2
256,216,195076,1,0
256,240,195173,1,0
256,264,195269,1,0
256,288,195366,1,4
48,192,195753,5,8
48,104,195947,2,0,B|104:104|128:152,1,90
48,192,196334,2,0,B|48:296,1,90,0|8
120,336,196721,1,0
184,272,196915,2,0,B|184:64,1,180,0|8
264,128,197495,2,0,B|264:32,2,90
264,216,198076,2,0,B|328:216|360:160|344:112|344:72,2,180,8|0|8
176,216,199044,1,0
296,304,199237,6,0,B|392:304,1,90
216,304,199624,2,0,B|112:304,1,90,8|0
304,256,200011,2,0,B|400:240,1,90
208,256,200398,2,0,B|112:240,1,90,8|0
296,208,200785,2,0,B|384:160,1,90
216,208,201173,2,0,B|128:160,1,90,8|0
304,64,201560,6,0,B|344:32|400:32|424:80|424:80|496:80,1,180,4|0
208,64,202140,2,0,B|168:32|112:32|88:80|88:80|16:80,1,180,4|0
256,136,202721,2,0,B|256:320,1,180,4|0
256,316,203302,1,4
256,136,203689,1,0
256,136,203882,1,4
472,192,204269,5,4
40,192,204656,1,4
168,312,205044,5,8
256,344,205237,1,8
344,312,205431,1,8
312,224,205624,1,8
256,152,205818,1,8
200,224,206011,1,8
168,312,206205,1,8
256,192,206592,12,4,207753
256,192,209108,5,4
256,192,209495,1,4
256,192,209689,1,0
392,192,210269,5,0
320,88,210463,1,0
192,88,210656,1,0
120,192,210850,1,4
256,344,211624,5,4
256,344,212205,1,8
168,344,212398,5,8
208,264,212592,1,8
344,344,212785,1,8
304,264,212979,1,8
256,184,213173,5,8
256,144,213269,1,0
256,104,213366,2,8,B|256:56,6,45,8|8|8|8|8|8|4
64,192,214334,5,8
64,280,214527,2,0,B|152:280|152:360|240:360,1,180
312,360,215108,1,8
312,272,215302,1,0
240,224,215495,2,0,B|256:176|376:168|400:248,1,180,0|8
312,272,216076,1,0
312,272,216269,2,0,B|312:88,2,180,0|8|0
256,344,217237,5,0
200,272,217431,1,8
144,344,217624,1,0
88,272,217818,1,0
88,184,218011,1,2
88,184,218205,1,2
88,184,218398,1,2
256,192,218979,12,4,220140
384,280,220527,5,8
304,232,220721,2,0,B|224:168,1,90
168,232,221108,2,0,B|264:312,1,90,0|8
304,232,221495,6,0,B|352:176|344:104|296:64,1,180
208,72,222076,1,8
208,160,222269,2,0,B|88:160,2,90
208,248,222850,1,8
160,320,223044,1,0
72,320,223237,5,0
72,320,223624,1,8
72,232,223818,1,0
72,232,224011,1,0
72,232,224205,1,0
120,160,224398,6,0,B|120:64,1,90,8|0
200,112,224785,2,0,B|200:208,1,90
280,160,225173,2,0,B|280:56,1,90,8|0
360,112,225560,2,0,B|360:296,2,180,0|8|4
200,192,226721,5,8
144,264,226915,1,0
200,336,227108,1,0
144,264,227302,2,0,B|32:264,2,90,0|8|0
200,192,227882,6,0,B|240:152|344:152|384:216,1,180,0|8
456,208,228463,1,0
456,296,228656,2,0,B|424:336|296:336|272:272,1,180,0|8
200,288,229237,1,0
112,288,229431,6,0,B|56:264|48:192,1,90
56,136,229818,2,0,B|112:136|136:216,1,90,8|0
200,136,230205,1,0
256,64,230398,1,0
312,136,230592,1,8
256,208,230785,1,8
256,296,230979,1,8
56,192,231753,5,0
56,280,231947,1,0
56,280,232044,1,0
56,280,232140,1,8
136,240,232334,1,0
136,152,232527,6,0,B|176:112|280:112|320:176,2,180,4|8|0
136,240,233495,1,0
200,304,233689,1,8
288,304,233882,1,0
376,304,234076,2,0,B|464:360,2,90,0|0|8
440,240,234656,1,0
440,152,234850,6,0,B|352:152|352:224|272:224,1,180,0|8
280,136,235431,2,0,B|280:32,2,90
208,192,236011,1,8
208,192,236205,1,0
208,280,236398,2,0,B|176:320|64:328|24:256,2,180,0|8|0
288,232,237366,6,0,B|344:232|368:288,1,90,0|8
288,320,237753,2,0,B|288:384,2,45
288,232,238140,1,0
288,144,238334,2,0,B|360:144|384:192|392:248|360:280,2,180,8|4|8
128,64,239495,5,0
56,120,239689,1,0
56,208,239882,1,8
128,264,240076,2,0,B|64:344,2,90
200,208,240656,6,0,B|392:208,1,180,8|0
392,120,241237,1,0
472,160,241431,1,8
472,248,241624,1,0
392,296,241818,1,4
48,192,242205,5,0
48,104,242398,1,4
160,248,242785,1,0
160,336,242979,1,4
256,192,243173,12,4,244915
256,192,245495,5,4
256,192,246076,1,4
256,192,246269,12,0,248011
