osu file format v8

[General]
AudioFilename: Sweet Deut.mp3
AudioLeadIn: 0
PreviewTime: 71898
Countdown: 0
SampleSet: Soft
StackLeniency: 0.7
Mode: 0
LetterboxInBreaks: 0

[Editor]
Bookmarks: 7244,20405,32398,45180,71882,85438,97825,122599,138470,150850,164398,176398,188979,206599,218979,248018
DistanceSpacing: 1
BeatDivisor: 4
GridSize: 8

[Metadata]
Title:Sweet Duet
Artist:Kadowaki Mai & Nakai Erika
Creator:S i R i R u
Version:Collab
Source:STRIKE WITCHES
Tags:Hime Uta Collection 2 Oohashi Ayuru Sanya V Litvyak Eila Ilmatar Juutilainen taka1235 Cyborg MeLLoN miccoliasms azuki

[Difficulty]
HPDrainRate:5
CircleSize:4
OverallDifficulty:5
ApproachRate:8
SliderMultiplier:1.8
SliderTickRate:0.5

[Events]
//Background and Video events
0,0,"BG.jpg"
//Break Periods
2,85631,97068
2,164598,176035
//Storyboard Layer 0 (Background)
//Storyboard Layer 1 (Fail)
//Storyboard Layer 2 (Pass)
//Storyboard Layer 3 (Foreground)
Sprite,Foreground,Centre,"Name\Taka.png",320,240 M,0,8011,,183,207 S,0,8011,,0.5264 F,0,8011,8398,0,1 F,0,8398,20011,1 F,0,20011,20398,1,0.416 F,0,20398,20785,0.416,0 F,0,20785,71882,0 F,0,71882,73044,0,1 F,0,73044,85044,1 F,0,85044,85818,1,0 F,0,85818,122592,0 F,0,122592,122979,0,1 F,0,122979,138076,1 F,0,138076,138850,1,0
Sprite,Foreground,Centre,"Name\miccoliasms.png",320,240 M,0,20398,,183,202 S,0,20398,,0.5839999 F,0,20398,21173,0,1 F,0,21173,32398,1 F,0,32398,33173,1,0 F,0,33173,189173,0 F,0,189173,189947,0,0.9536 F,0,189947,206205,0.9536,1 F,0,206205,206979,1,0 F,0,206979,232527,0 F,0,232527,232914,0 F,0,232914,233011,0 F,0,233011,247624,0 F,0,247624,248398,0
Sprite,Foreground,Centre,"Name\SiRiRu.png",320,240 M,0,32785,,186,205 S,0,32785,,0.552 F,0,32785,33173,0,0.5311999 F,0,33173,33366,0.5311999,1 F,0,33366,44785,1 F,0,44785,45560,1,0 F,0,45560,60656,0 F,0,60656,61044,0,1 F,0,61044,71495,1 F,0,71495,72269,1,0
Sprite,Foreground,Centre,"Name\Cyborg.png",320,240 M,0,45173,,181,206 S,0,45173,,0.5648001 F,0,45173,45753,0,0.8767999 F,0,45753,60269,0.8767999,1 F,0,60269,61044,1,0 F,0,61044,138463,0 F,0,138463,139237,0,0.6799999 F,0,139237,139624,0.6799999,1 F,0,139624,150463,1 F,0,150463,151237,1,0 F,0,151237,232527,0 F,0,232527,233108,0,0.9952 F,0,233108,247624,0.9952,1 F,0,247624,248398,1,0
Sprite,Foreground,Centre,"Name\MeLLoN.png",320,240 M,0,97818,,184,209 S,0,97818,,0.5904001 F,0,97818,98205,0,1 F,0,98205,109818,1 F,0,109818,110592,1,0 F,0,110592,176785,0 F,0,176785,177560,0,1 F,0,177560,188785,1 F,0,188785,189560,1,0 F,0,189560,206592,0 F,0,206592,207753,0,1 F,0,207753,218592,1 F,0,218592,219366,1,0
Sprite,Foreground,Centre,"Name\azuki.png",320,240 F,0,110205,110302,0,0.08640007 M,0,110302,,188,210 S,0,110302,,0.6928002 F,0,110302,110979,0.08640007,0.9920001 F,0,110979,122205,0.9920001,1 F,0,122205,122979,1,0 F,0,122979,150850,0 F,0,150850,151431,0,0.6704 F,0,151431,152011,0.6704,1 F,0,152011,164011,1 F,0,164011,164785,1,0 F,0,164785,218592,0 F,0,218592,218979,0 F,0,218979,220140,0,1 F,0,220140,232140,1 F,0,232140,232914,1,0
//Storyboard Sound Samples
//Background Colour Transformations
3,100,255,255,255

[TimingPoints]
4915,387.096774193548,4,2,1,70,1,0
20398,-100,4,2,1,40,0,0
32785,-100,4,2,1,70,0,0
44882,-100,4,2,1,30,0,0
45947,-100,4,2,1,70,0,0
48173,-100,4,2,1,30,0,0
49044,-100,4,2,1,70,0,0
60656,-100,4,2,2,70,0,1
60850,-100,4,2,2,70,0,0
70818,-100,4,2,2,50,0,0
73044,-100,4,2,2,70,0,1
73237,-100,4,2,2,70,0,0
97431,-100,4,2,1,50,0,0
110205,-100,4,2,1,70,0,0
139624,-100,4,2,2,70,0,1
139818,-100,4,2,2,70,0,0
152011,-100,4,2,2,70,0,1
152205,-100,4,2,2,70,0,0
164398,-100,4,2,1,50,0,0
176785,-100,4,2,1,40,0,0
189173,-100,4,2,1,50,0,0
195366,-100,4,2,1,70,0,0
207753,-100,4,2,2,70,0,0
220140,-100,4,2,2,70,0,1
220334,-100,4,2,2,70,0,0
232527,-100,4,2,2,70,0,1
232721,-100,4,2,2,70,0,0
246269,-100,4,2,2,30,0,0

[Colours]
Combo1 : 247,254,148
Combo2 : 206,179,203
Combo3 : 175,221,254

[HitObjects]
256,192,7431,1,0
256,192,7624,1,8
152,48,8011,6,0,B|80:56|48:112|56:184,2,180,4|8|0
200,128,8979,1,0
288,120,9173,1,8
320,40,9366,2,0,B|384:8|448:24|488:88,1,180
408,136,9947,2,0,B|416:184|432:232,1,90,8|0
480,296,10334,1,0
408,344,10527,1,0
320,328,10721,1,8
320,328,10914,1,0
272,248,11108,6,0,B|224:224|176:216,1,90,2|0
144,296,11495,1,8
56,272,11689,2,0,B|16:288|8:320,2,45
8,192,12076,1,0
24,104,12269,1,8
96,56,12463,1,0
176,96,12656,2,0,B|240:112|312:96|344:40,1,180,0|8
432,56,13237,2,0,B|464:80|496:64,2,45
384,128,13624,1,0
440,200,13818,1,8
368,296,14205,6,0,B|312:280|248:288|192:328,1,180,4|8
112,344,14785,1,0
40,296,14979,2,0,B|16:312|0:352,2,45
56,208,15366,1,8
136,256,15560,6,0,B|192:208|184:144|136:88,1,180
56,112,16140,1,8
56,112,16334,1,0
112,40,16527,5,2
216,80,16721,1,0
128,160,16914,1,10
64,224,17108,6,0,B|80:296|136:328|224:304,1,180
240,232,17689,2,0,B|240:200|216:176,2,45,8|0|0
312,280,18076,1,0
360,208,18269,5,0
440,288,18463,1,8
472,176,18656,1,0
392,104,18850,6,0,B|352:72|312:48,1,90,4|0
224,72,19237,1,8
168,144,19431,1,0
128,120,19527,1,0
104,80,19624,1,0
24,120,19818,2,0,B|16:168|16:224,2,90,8|8|0
32,32,20398,5,4
104,80,20592,1,0
192,56,20785,1,8
272,96,20979,1,0
360,72,21173,2,0,B|408:48|456:80|456:80,2,90,0|0|8
344,160,21753,2,0,B|304:208|248:184|248:184,1,90,0|2
184,144,22140,5,0
184,144,22334,1,8
184,144,22527,1,0
200,232,22721,2,0,B|208:280|176:320|176:320,2,90,0|0|8
112,208,23302,2,0,B|64:168|96:112|96:112,1,90,2|0
144,56,23689,6,0,B|192:24|248:64|248:64,2,90,0|8|0
72,112,24269,1,0
80,200,24463,1,0
152,256,24656,1,8
240,248,24850,1,0
320,200,25044,2,0,B|400:144|496:184|496:184,1,180,0|8
368,96,25624,2,0,B|288:152|192:112|192:112,1,180,0|8
120,64,26205,1,8
120,64,26398,1,0
112,152,26592,6,0,B|96:200|128:248|128:248,1,90,0|0
192,296,26979,2,0,B|232:328|240:376|240:376,2,90,8|0|0
208,208,27560,2,0,B|272:128|376:152|376:152,1,180,0|2
456,176,28140,1,0
368,152,28334,1,0
384,240,28527,2,0,B|384:288|416:320|416:320,2,90,8|0|0
368,152,29108,2,0,B|320:56|216:56|216:56,1,180,0|10
136,72,29689,1,0
136,72,29882,1,0
144,160,30076,2,0,B|152:256|152:256,1,90,8|0
368,224,30463,6,0,B|360:128|360:128,2,90,0|0|8
344,312,31044,1,0
256,312,31237,2,0,B|176:224|72:256|72:256,1,180,0|8
256,120,31818,2,0,B|312:184|424:168|424:168,1,180,8|0
422,168,32398,1,8
400,64,32785,5,4
400,64,33173,1,8
400,152,33366,1,0
352,232,33560,2,0,B|152:232,2,180,0|8|0
104,88,34721,6,0,B|192:80|176:152|272:152,1,180,8|0
264,64,35302,1,0
344,104,35495,2,0,B|344:312,2,180,8|0|8
104,256,36656,5,0
48,184,36850,1,0
48,184,37044,1,8
48,96,37237,1,0
144,80,37431,5,4
368,80,37818,1,8
368,80,38011,1,4
256,256,38398,1,0
256,256,38592,1,8
256,256,38979,6,0,B|200:256|184:304,1,90,4|0
256,344,39366,2,0,B|448:344,2,180,8|0|8
80,304,40527,1,0
24,160,40914,6,0,B|24:112|72:40|168:48,1,180,8|0
144,136,41495,2,0,B|256:136,2,90,0|8|0
144,224,42076,2,0,B|184:264|280:264|320:216,1,180,0|8
312,136,42656,6,0,B|368:136|392:192,1,90
384,272,43044,2,0,B|440:272|464:224,1,90,0|8
464,144,43431,1,0
464,144,43624,1,8
328,48,44011,1,8
240,48,44205,5,0
176,104,44398,1,8
176,192,44592,1,0
96,152,44785,1,8
400,152,45173,5,2
464,264,45366,1,2
368,344,45560,1,2
128,272,45947,5,8
208,312,46140,2,0,B|248:336|304:320,1,90,8|0
384,352,46527,2,0,B|456:288|424:184,1,180,8|0
376,112,47108,1,8
360,96,47205,1,0
344,80,47302,2,0,B|248:80,1,90
136,168,47689,2,0,B|232:168,1,90,0|8
320,168,48076,1,0
392,216,48269,5,2
280,336,48463,1,2
136,272,48656,1,2
184,192,48850,5,0
184,192,49044,2,0,B|224:160|208:96,1,90,8|8
144,48,49431,1,0
72,104,49624,2,0,B|8:184|56:280,1,180,8|0
120,328,50205,1,8
224,352,50398,1,0
344,328,50592,1,0
448,232,50785,1,0
472,72,50979,1,8
472,72,51173,1,0
384,48,51366,6,0,B|304:104|208:64,1,180,4|8
120,64,51947,1,0
168,136,52140,1,0
152,224,52334,2,0,B|144:280|80:296,1,90,0|8
64,208,52721,1,0
64,208,52914,6,0,B|40:168|56:120,1,90
104,48,53302,1,8
192,72,53495,1,0
216,80,53592,1,0
240,88,53689,2,0,B|352:88,1,90
416,112,54076,1,8
456,192,54269,1,0
384,248,54463,6,0,B|280:264|224:176,1,180,4|8
168,120,55044,2,0,B|144:80|160:32,1,90
96,160,55431,2,0,B|120:200|104:256,1,90,0|8
160,320,55818,1,0
240,272,56011,1,0
240,272,56205,6,0,B|272:232|256:176,2,90,0|8|0
320,312,56785,5,8
384,248,56979,1,0
448,312,57173,5,8
424,168,57366,1,0
360,104,57560,6,0,B|328:72|336:16,2,90,4|8|0
288,152,58140,2,0,B|240:176|232:224,2,90,4|8|0
232,80,58721,2,0,B|128:80,1,90,4|0
56,104,59108,5,0
104,240,59302,1,0
240,272,59495,1,0
296,200,59689,5,0
264,184,59785,1,0
232,168,59882,1,2
152,128,60076,5,0
104,200,60269,1,2
72,216,60366,1,0
56,248,60463,1,0
72,280,60560,1,0
104,296,60656,6,0,B|288:296,1,180,4|8
288,208,61237,2,0,B|344:208|368:264,2,90
200,208,61818,1,8
200,120,62011,2,0,B|144:120|120:176,1,90
40,168,62398,2,0,B|40:216|96:248,1,90,0|8
80,328,62785,1,0
168,328,62979,1,0
256,328,63173,1,0
256,240,63366,6,0,B|336:240|336:320|416:320,2,180,8|0|8
256,152,64334,2,0,B|64:152,1,180
32,72,64914,1,8
120,40,65108,2,0,B|216:40,1,90
304,40,65495,5,0
376,88,65689,1,8
408,264,66076,2,0,B|184:264,1,180,0|8
152,208,66656,1,0
72,256,66850,6,0,B|40:208|40:128|80:72,1,180,4|8
152,120,67431,2,0,B|256:120,1,90
272,208,67818,1,0
272,296,68011,2,0,B|336:296|360:256|376:208|352:168,2,180,8|0|8
40,192,69173,5,0
256,40,69560,1,8
472,192,69947,1,0
304,240,70334,5,8
256,160,70527,1,0
208,240,70721,1,0
256,320,70914,1,2
304,240,71108,1,10
256,160,71302,1,2
104,304,72076,5,8
208,152,72463,1,0
144,96,72656,6,0,B|136:104|136:128,7,22.5,2|0|0|0|0|0|0|0
120,104,73044,6,0,B|56:104|16:168|56:264,1,180,4|8
104,304,73624,1,0
152,232,73818,1,0
240,256,74011,1,0
240,344,74205,1,8
328,336,74398,2,0,B|392:304|400:232|336:160,1,180
264,176,74979,2,0,B|264:128|280:80,1,90,8|0
352,32,75366,1,0
432,80,75560,5,0
472,160,75753,1,8
456,248,75947,1,0
368,232,76140,2,0,B|352:296|272:320|208:272,1,180,0|8
136,256,76721,1,0
56,296,76914,1,0
16,216,77108,1,0
96,176,77302,1,8
144,72,77495,6,0,B|208:96|240:152|240:232,1,180,2|0
208,296,78076,2,0,B|256:320|320:320,1,90,8|0
376,288,78463,5,4
456,128,78850,1,8
408,56,79044,1,0
320,64,79237,2,0,B|248:88|232:144|264:240,1,180,0|8
344,208,79818,5,0
328,296,80011,1,0
248,336,80205,1,0
160,328,80398,1,8
160,328,80592,1,0
208,256,80785,5,2
80,208,80979,1,0
104,336,81173,1,8
208,256,81366,1,0
128,264,81560,6,0,B|64:256|24:200|48:128,1,180,2|8
168,160,82140,1,0
200,48,82334,2,0,B|264:56|304:112|280:184,1,180,2|8
224,288,82914,1,0
304,336,83108,5,8
432,280,83302,1,0
320,200,83495,1,8
304,336,83689,1,0
432,280,83882,1,8
152,56,84656,6,0,B|80:64|40:144|96:232,1,180,2|8
76,191,85237,1,0
76,191,85431,1,4
256,192,97818,5,8
168,40,98205,2,0,B|120:48|80:64,1,90,8|0
48,144,98592,2,0,B|96:144|144:128,2,90,0|0|8
96,216,99173,2,0,B|144:216|192:224,1,90,0|0
312,96,99753,6,0,B|336:56|376:32,2,90,8|0|0
392,128,100334,1,0
440,200,100527,1,8
408,280,100721,1,0
408,280,100914,1,0
232,264,101302,6,0,B|272:288|320:304,1,90,8|0
304,216,101689,2,0,B|272:184|216:176,1,90
144,208,102076,1,8
144,208,102269,1,0
88,144,102463,6,0,B|112:104|128:56,2,90,4|0|8
144,208,103044,2,0,B|128:256|88:288,1,90,4|0
144,352,103431,1,0
216,304,103624,1,8
304,312,103818,1,0
376,264,104011,1,4
320,96,104398,6,0,B|320:144|304:192,1,90,8|0
232,232,104785,2,0,B|224:184|240:136,1,90
200,64,105173,1,8
72,40,105366,1,0
104,168,105560,1,0
176,328,105947,5,8
256,360,106140,1,0
336,328,106334,1,0
336,328,106527,2,0,B|384:248|472:208,2,180
288,256,107495,5,8
320,176,107689,2,0,B|360:152|384:112,2,90
264,112,108269,2,0,B|224:80|176:80,1,90,8|0
96,88,108656,1,4
80,264,109044,1,8
80,264,109237,1,4
336,344,109818,5,8
104,72,110205,5,4
104,72,110592,1,8
160,144,110785,1,0
104,216,110978,1,0
160,288,111173,2,0,B|216:320|272:280,1,90,0|8
304,224,111560,2,0,B|352:264,2,45
240,160,111947,1,0
176,232,112140,6,0,B|136:264|80:248,1,90,8|0
24,160,112527,2,0,B|120:160,1,90
176,88,112914,2,0,B|136:56|80:72,1,90,8|0
24,160,113302,2,0,B|48:272|184:288,1,180,0|8
216,224,113882,5,0
168,144,114076,1,0
216,64,114269,1,0
280,128,114463,2,0,B|328:128|368:88,1,90,8|0
288,48,114850,2,0,B|200:16|80:80,1,180,0|8
152,144,115431,1,0
104,224,115624,1,0
168,288,115818,2,0,B|216:296|272:256,1,90,0|8
312,200,116205,1,0
312,200,116398,1,0
40,336,116785,6,0,B|88:256|80:152,1,180,8|0
56,80,117366,2,0,B|104:72|160:96,1,90,0|8
160,176,117753,2,0,B|216:184|264:160,1,90
296,88,118140,1,0
432,64,118334,6,0,B|384:144|392:248,1,180,8|0
416,320,118915,2,0,B|368:328|312:304,1,90,0|8
312,224,119302,2,0,B|256:216|208:240,1,90
176,312,119689,1,0
176,312,119882,5,8
256,216,120076,1,0
160,136,120269,1,0
80,232,120463,1,2
392,344,120850,5,2
312,248,121044,1,8
408,168,121237,1,0
488,264,121431,1,8
400,256,121624,6,0,B|336:128|136:152,1,270,8|8
112,296,122592,5,8
48,232,122785,1,8
56,144,122979,1,8
312,80,123366,6,0,B|304:96|304:120,10,22.5,2|0|0|0|0|0|0|0|0|0|0
352,56,123947,6,0,B|424:64|456:120|448:208,1,180,4|0
368,216,124527,1,8
416,296,124721,2,0,B|368:320|320:320,1,90,0|0
256,272,125108,5,0
168,240,125302,1,8
96,288,125495,1,0
184,320,125689,5,8
224,200,125882,1,8
96,216,126076,1,8
392,272,126463,6,0,B|392:288|376:304,10,22.5,2|0|0|0|0|0|0|0|0|0|0
432,288,127044,6,0,B|488:256|496:184|432:112,1,180,4|0
360,144,127624,1,8
328,64,127818,1,0
248,32,128011,2,0,B|192:48|136:80,1,90
72,56,128398,1,8
32,136,128592,1,0
120,144,128785,6,0,B|168:184|176:256|144:312,2,180,4|8|0
72,216,129753,1,0
72,216,129947,1,8
64,304,130140,1,0
144,264,130334,6,0,B|208:240|280:264|304:328,1,180,0|8
299,317,130914,1,0
384,344,131108,2,0,B|440:336|488:312,1,90
472,232,131495,1,8
416,160,131689,1,0
448,72,131882,6,0,B|408:24|344:8|264:32,1,180,0|8
283,26,132463,1,0
184,8,132656,6,0,B|176:48|184:120,1,90,2|0
80,176,133044,2,0,B|72:128|72:80,1,90,8|0
160,112,133431,1,2
240,152,133624,1,0
256,240,133818,1,8
192,304,134011,1,0
104,280,134205,5,8
24,208,134398,1,0
128,176,134592,1,8
104,280,134785,1,0
208,232,134979,6,0,B|232:272|240:320,2,90,10|0|0
256,120,135560,2,0,B|224:80|176:64,2,90,10|0|0
368,224,136140,2,0,B|400:192|424:152,1,90,8|0
400,48,136527,5,8
296,56,136721,1,8
104,152,137108,5,8
208,168,137302,1,8
416,256,137689,5,8
312,288,137882,1,8
208,272,138076,6,0,B|160:256,2,45,2|0|0
304,120,138656,6,0,B|336:88|320:32,1,90
232,40,139044,1,4
144,64,139237,1,2
144,88,139334,1,0
144,112,139431,1,0
144,136,139527,1,0
144,160,139624,6,0,B|104:192|40:184,1,90,4|0
24,264,140011,1,8
96,320,140205,2,0,B|136:352|200:344,2,90
160,256,140785,1,8
232,200,140979,1,0
320,176,141173,2,0,B|424:176,1,90
474,88,141560,2,0,B|384:88,1,90,8|0
296,88,141947,1,0
208,64,142140,5,0
208,64,142334,1,8
120,72,142527,1,0
120,72,142721,2,0,B|80:104|80:160,1,90
32,224,143108,1,8
32,224,143302,2,0,B|48:272|96:288,1,90
176,264,143689,2,0,B|216:280|232:272|272:288,1,90,0|8
263,284,144076,5,0
400,224,144269,1,2
328,344,144463,1,0
312,200,144656,1,8
408,312,144850,1,0
312,200,145044,6,0,B|336:160|320:104,1,90
200,40,145431,2,0,B|165:87|197:143,1,90,8|0
336,232,145818,6,0,B|352:280|328:336,1,90,4|0
248,352,146205,1,8
160,352,146398,2,0,B|112:336|104:272,1,90
160,216,146785,1,0
96,152,146979,2,0,B|64:112|16:112,1,90,8|0
88,240,147366,6,4,B|117:279|173:279,1,90,0|0
248,240,147753,2,0,B|288:208|288:152,1,90,8|0
368,120,148140,2,0,B|408:96|456:112,1,90,2|0
464,200,148527,2,0,B|496:240|480:296,1,90,8|0
400,328,148914,5,2
368,344,149011,1,0
336,352,149108,1,0
304,344,149205,1,0
272,328,149302,2,0,B|160:328,2,90,8|0|0
320,256,149882,5,8
416,152,150076,1,8
272,128,150269,1,8
128,224,151044,5,0
128,224,151431,2,0,B|72:304,2,90,0|8|0
96,136,152011,6,0,B|136:48|288:48,1,180,4|8
248,144,152592,1,0
192,208,152785,2,0,B|136:232|128:304,1,90,0|0
200,336,153173,1,8
280,288,153366,2,0,B|328:208|464:248,1,180
400,320,153947,1,8
344,240,154140,2,0,B|328:144|408:56,1,180
456,144,154721,1,8
456,144,154914,5,0
456,232,155108,1,0
56,232,155495,1,8
56,232,155689,2,0,B|24:192|32:120,1,90
88,80,156076,1,0
176,112,156269,1,8
144,192,156463,2,0,B|184:296|328:288,1,180,2|0
344,224,157044,1,8
432,240,157237,1,2
408,328,157431,6,0,B|352:344|288:328,1,90,2|0
304,240,157818,1,8
224,288,158011,1,0
192,200,158205,2,0,B|144:184,2,45
264,152,158592,1,8
216,72,158785,2,0,B|144:-8|16:56,1,180
48,128,159366,5,8
120,208,159560,1,0
224,240,159753,1,0
336,240,159947,1,0
440,216,160140,1,8
256,48,160527,6,0,B|208:32|160:40,1,90
112,112,160914,1,8
176,176,161107,1,0
264,200,161301,2,0,B|288:272,2,45
296,120,161688,1,8
384,104,161881,2,0,B|464:176|400:304,1,180
360,344,162462,1,0
360,344,162656,1,8
272,344,162849,1,8
32,184,163624,6,0,B|32:96|160:56,1,180
145,60,164205,1,0
145,60,164398,1,4
64,192,176785,5,4
264,64,177560,6,0,B|352:96|448:88,1,180,0|8
472,168,178140,1,0
424,240,178334,2,0,B|344:288|248:272,1,180,0|8
216,192,178914,5,0
216,192,179108,2,0,B|312:192,1,90
272,112,179495,2,0,B|176:112,1,90,8|0
120,176,179882,2,0,B|40:136|24:24,2,180,0|8|0
104,328,181044,6,0,B|144:336|192:344,1,90,8|0
272,312,181431,1,2
272,312,181624,1,0
360,320,181818,1,8
440,280,182011,2,0,B|464:240|488:200,1,90,2|0
408,168,182398,2,0,B|368:192|320:208,1,90,2|8
248,168,182785,1,0
248,168,182979,1,8
248,168,183366,1,8
176,120,183753,6,0,B|80:120,1,90
48,200,184140,2,0,B|144:200,1,90,8|0
184,280,184527,2,0,B|136:288|88:288,2,90,0|0|8
232,352,185108,2,0,B|320:320|408:320,1,180
456,248,185689,1,8
408,176,185882,5,0
408,176,186076,1,0
256,272,186463,1,8
160,168,186850,6,0,B|112:176|64:184,2,90,0|0|8
192,88,187431,1,0
272,56,187624,2,0,B|360:72|456:64,1,180,0|8
416,144,188205,2,0,B|400:192|400:240,2,90
328,152,188785,1,8
296,128,188882,1,0
256,112,188979,1,0
216,112,189076,1,0
184,136,189173,6,0,B|144:168|80:152|80:152,1,90
16,32,189560,2,0,B|56:0|120:16|120:16,1,90,8|0
208,40,189947,1,0
208,40,190140,1,0
312,24,190334,1,8
312,24,190527,1,0
400,80,190721,2,0,B|448:120|504:96|504:96,2,90,0|0|8
304,120,191302,2,0,B|280:224|376:288|376:288,1,180
464,312,191882,1,8
464,312,192076,1,0
448,208,192269,6,0,B|432:152|472:112,2,90,0|0|8
464,312,192850,1,0
360,280,193044,2,0,B|256:240|184:304|184:304,1,180,0|8
104,368,193624,1,0
128,264,193818,2,0,B|152:160|80:88|80:88,1,180,0|8
8,24,194398,1,0
112,32,194592,2,0,B|224:40,1,90
312,48,194979,1,8
312,48,195076,1,0
312,48,195173,1,0
408,96,195366,6,0,B|456:120|464:176|464:176,2,90,0|0|8
312,48,195947,1,0
208,64,196140,1,0
104,40,196334,1,0
208,64,196527,1,8
136,144,196721,1,0
120,248,196914,2,0,B|120:304|160:336|160:336,2,90,0|0|8
136,144,197495,1,0
240,168,197689,5,0
320,96,197882,1,0
240,168,198076,1,8
344,208,198269,1,0
208,136,198463,6,0,B|104:104|104:104,1,90
208,240,198850,2,0,B|176:344|176:344,1,90,8|0
304,248,199237,2,0,B|408:280|408:280,1,90
312,144,199624,2,0,B|344:40|344:40,1,90,8|0
121,109,200011,6,0,B|104:104|208:136,1,90,0|0
336,64,200398,2,0,B|341:46|309:150,1,90,8|0
384,272,200785,2,0,B|401:277|297:245,1,90,0|0
184,320,201172,2,0,B|178:337|210:233,1,90,8|0
272,112,201560,6,0,B|296:56|360:48|360:48,2,90,8|0|8
240,272,202140,6,0,B|216:328|152:336|152:336,2,90,8|0|8
360,200,202721,6,0,B|472:184|472:184,2,90,8|0|8
152,184,203302,6,0,B|40:200|40:200,2,90,8|0|8
256,192,203882,5,8
256,192,204269,1,8
320,32,204656,6,0,B|392:8|464:56|448:136|448:136,1,180,8|8
432,200,205237,1,0
368,112,205431,1,8
352,240,205624,1,0
280,120,205818,1,8
264,280,206011,1,0
168,128,206205,1,8
168,128,207753,5,8
336,72,208140,2,0,B|384:72|432:64,2,90,0|0|0
448,208,208914,1,8
448,208,209108,2,0,B|360:232|264:240,1,180,8|0
184,232,209689,1,8
184,232,209882,1,8
272,80,210269,6,0,B|320:88|368:88,2,90,0|0|0
192,48,210850,1,8
32,128,211237,1,0
32,128,211431,1,0
32,128,211624,1,8
120,280,212011,6,0,B|152:312|176:352,1,90
224,280,212398,1,8
304,312,212592,1,0
392,304,212785,1,8
472,272,212979,1,0
440,192,213173,5,8
408,192,213269,1,0
368,192,213366,1,0
336,112,213560,1,8
368,112,213656,1,0
400,112,213753,1,0
280,176,213947,6,0,B|232:184|184:184,1,90,4|0
128,120,214334,1,8
160,40,214527,2,0,B|208:32|256:32,2,90
72,56,215108,1,8
72,56,215205,1,0
72,56,215302,1,0
40,136,215495,6,0,B|32:232,1,90,0|0
104,304,215882,2,0,B|112:208,1,90,8|0
192,160,216269,2,0,B|184:256,1,90
256,328,216656,2,0,B|264:232,1,90,8|0
192,160,217044,1,4
144,88,217237,1,0
280,80,217431,5,8
344,136,217624,1,0
264,240,217818,5,0
264,240,218011,2,0,B|312:256|352:256,2,90,0|8|0
440,224,219173,6,0,B|456:110|363:28,1,180
391,56,219753,1,8
160,48,220140,5,2
112,128,220334,1,0
168,200,220528,2,0,B|168:248|128:288,2,90,8|0|0
232,264,221108,1,0
312,216,221302,1,8
344,128,221495,2,0,B|440:160|437:284,1,180
360,312,222076,1,8
280,272,222269,1,0
200,312,222463,1,0
136,256,222656,6,0,B|104:212,2,45,0|0|8
200,192,223044,1,0
200,192,223237,2,0,B|176:72|48:80,2,180,0|8|0
256,264,224205,1,0
336,304,224398,1,8
416,264,224592,2,0,B|416:168,1,90,2|0
312,72,224979,2,0,B|312:176,1,90,2|8
312,256,225366,1,2
232,304,225560,6,0,B|114:272|22:303,1,180,0|8
24,208,226140,1,0
112,184,226334,2,0,B|230:152|288:80,1,180,0|8
344,56,226914,1,0
408,120,227108,6,0,B|464:120,2,45
320,216,227495,1,8
256,96,227689,1,0
336,144,227882,5,0
336,144,228076,2,0,B|336:264,1,90,0|8
120,320,228656,6,0,B|72:296|72:232,1,90,2|0
120,168,229044,1,8
192,224,229237,1,0
256,160,229431,2,0,B|272:88,2,45
296,240,229818,1,8
376,288,230011,1,0
440,224,230205,2,0,B|432:128|320:80,2,180,2|8|0
200,336,231753,6,0,B|64:344|80:208,1,180
78,238,232334,1,0
78,238,232527,5,4
240,160,232914,2,0,B|264:120|256:64,1,90,2|0
168,104,233302,2,0,B|142:142|150:214,1,90
208,264,233689,1,2
296,288,233882,6,0,B|400:248|480:336,1,180,4|0
384,360,234463,1,2
296,368,234656,1,0
208,336,234850,1,0
152,264,235044,1,0
240,256,235237,5,2
88,320,235431,1,0
112,160,235624,2,0,B|168:80|288:112,1,180,2|2
344,48,236205,2,0,B|256:120|312:240,1,180,2|0
352,280,236785,2,0,B|392:264|408:272|448:256,1,90,2|8
472,176,237173,6,0,B|400:96|280:144,1,180,2|2
240,192,237753,2,0,B|144:232|64:136,1,180,2|0
104,64,238334,2,0,B|136:80|152:72|192:88,1,90,2|0
320,24,238721,6,0,B|400:88|360:200,1,180,4|2
288,232,239302,1,0
208,192,239495,2,0,B|176:144|104:152,1,90
56,200,239882,1,2
48,288,240076,6,0,B|80:320|144:312,1,90,4|0
216,344,240463,2,0,B|272:336|304:368,1,90,0|2
392,352,240850,2,0,B|440:336|448:264,1,90
392,192,241237,5,0
264,264,241431,1,2
128,224,241624,1,0
128,224,241818,5,4
184,56,242205,1,2
224,136,242398,1,4
392,72,242785,1,8
432,152,242979,2,0,B|336:208|240:112,1,180,4|0
224,56,243560,5,0
144,96,243753,1,2
216,144,243947,1,0
224,56,244140,1,0
144,96,244334,1,0
128,184,244527,2,0,L|120:184|120:192|112:192|112:200|104:200|104:208|96:208|96:216|88:216|88:224|80:224,1,90,2|0
184,320,244914,6,0,B|224:352|296:336,1,90,4|0
352,304,245302,1,2
432,344,245495,2,0,B|472:312|456:248,1,90,4|0
416,184,245882,1,0
256,192,246076,5,4
256,192,246269,12,0,248011
