osu file format v13

[General]
AudioFilename: kabanos_-_klocki[www.dloader.pl].mp3
AudioLeadIn: 0
PreviewTime: -1
Countdown: 1
SampleSet: Normal
StackLeniency: 0.7
Mode: 0
LetterboxInBreaks: 1
WidescreenStoryboard: 0

[Editor]
DistanceSpacing: 1.1
BeatDivisor: 4
GridSize: 8
TimelineZoom: 0.9

[Metadata]
Title:Klocki
TitleUnicode:Klocki
Artist:Kabanos
ArtistUnicode:Kabanos
Creator:Tojfel11
Version:Hard
Source:
Tags:kabanos klocki pl polish song
BeatmapID:611581
BeatmapSetID:268609

[Difficulty]
HPDrainRate:5
CircleSize:5
OverallDifficulty:7
ApproachRate:8
SliderMultiplier:1.4
SliderTickRate:1

[Events]
//Background and Video events
0,0,"Kielbie-we-lbie_lightbox_full.jpg",0,0
//Break Periods
2,103271,109714
2,130271,137250
//Storyboard Layer 0 (Background)
//Storyboard Layer 1 (Fail)
//Storyboard Layer 2 (Pass)
//Storyboard Layer 3 (Foreground)
//Storyboard Sound Samples

[TimingPoints]
0,428.571428571429,4,1,0,100,1,0

[Colours]
Combo1 : 255,255,255
Combo2 : 243,102,82

[HitObjects]
96,168,1285,6,0,B|240:48|408:72|488:216|320:368|136:288|112:288,3,630,0|0|0|0,0:0|0:0|0:0|0:0,0:0:0:0:
352,320,7607,2,0,B|168:272|40:136|224:40|416:144,1,525,0|0,0:0|0:0,0:0:0:0:
328,80,10071,6,0,B|88:96|48:256|200:320|352:200,1,490,0|0,0:0|0:0,0:0:0:0:
408,200,12000,2,0,B|288:312|48:208|144:24|360:72|208:48,1,455,0|0,0:0|0:0,0:0:0:0:
80,128,14678,2,0,B|344:48|328:296|328:288,1,350,0|0,0:0|0:0,0:0:0:0:
400,184,17035,2,0,B|128:48|8:168|64:280|120:336|216:352|304:360|392:336|448:304|488:248|488:136|472:72|448:48|416:40|368:32|320:32|288:32,1,1050,0|0,0:0|0:0,0:0:0:0:
80,56,22500,1,0,0:0:0:0:
352,136,22928,1,0,0:0:0:0:
96,304,23464,1,0,0:0:0:0:
176,56,24107,1,0,0:0:0:0:
392,240,24535,1,0,0:0:0:0:
152,168,25071,1,0,0:0:0:0:
392,160,25607,1,0,0:0:0:0:
208,88,26678,1,0,0:0:0:0:
320,184,27214,1,0,0:0:0:0:
104,184,27642,1,0,0:0:0:0:
104,184,27750,1,0,0:0:0:0:
104,184,27857,1,0,0:0:0:0:
416,112,28500,1,0,0:0:0:0:
184,168,28928,1,0,0:0:0:0:
344,312,29464,1,0,0:0:0:0:
112,312,29892,1,0,0:0:0:0:
120,32,30321,1,0,0:0:0:0:
360,64,31392,1,0,0:0:0:0:
416,160,31821,5,0,0:0:0:0:
128,80,34714,1,0,0:0:0:0:
312,144,35035,1,0,0:0:0:0:
120,232,35571,1,0,0:0:0:0:
328,288,36000,1,0,0:0:0:0:
408,104,36321,1,0,0:0:0:0:
96,160,36750,1,0,0:0:0:0:
168,336,37178,1,0,0:0:0:0:
16,40,37607,1,0,0:0:0:0:
368,360,38142,1,0,0:0:0:0:
464,40,38571,1,0,0:0:0:0:
112,320,39000,1,0,0:0:0:0:
40,32,41142,1,0,0:0:0:0:
432,344,41785,1,0,0:0:0:0:
480,24,42642,1,0,0:0:0:0:
16,384,43500,1,0,0:0:0:0:
32,32,44250,1,0,0:0:0:0:
416,336,45107,1,0,0:0:0:0:
400,64,45857,1,0,0:0:0:0:
216,232,46607,1,0,0:0:0:0:
432,224,47142,1,0,0:0:0:0:
64,240,47785,1,0,0:0:0:0:
432,128,48428,1,0,0:0:0:0:
64,24,48964,1,0,0:0:0:0:
376,328,49607,1,0,0:0:0:0:
440,72,50142,1,0,0:0:0:0:
160,320,50571,1,0,0:0:0:0:
48,32,54750,5,0,0:0:0:0:
432,312,55178,1,0,0:0:0:0:
448,0,55392,1,0,0:0:0:0:
160,320,55714,1,0,0:0:0:0:
184,72,56571,1,0,0:0:0:0:
232,272,56785,1,0,0:0:0:0:
376,56,57107,1,0,0:0:0:0:
352,296,57642,1,0,0:0:0:0:
208,96,58071,1,0,0:0:0:0:
416,192,58500,1,0,0:0:0:0:
128,96,59250,1,0,0:0:0:0:
208,240,59357,1,0,0:0:0:0:
424,64,59678,1,0,0:0:0:0:
304,288,60000,1,0,0:0:0:0:
40,64,60428,1,0,0:0:0:0:
384,160,60750,1,0,0:0:0:0:
272,56,61178,1,0,0:0:0:0:
128,296,61500,1,0,0:0:0:0:
464,256,61928,1,0,0:0:0:0:
424,48,62357,1,0,0:0:0:0:
312,304,62785,1,0,0:0:0:0:
80,88,63214,1,0,0:0:0:0:
384,200,63750,1,0,0:0:0:0:
352,56,64178,1,0,0:0:0:0:
128,296,64607,1,0,0:0:0:0:
160,88,65035,1,0,0:0:0:0:
272,336,65464,1,0,0:0:0:0:
432,160,65892,1,0,0:0:0:0:
256,56,66321,1,0,0:0:0:0:
48,128,66750,1,0,0:0:0:0:
80,320,67178,1,0,0:0:0:0:
344,352,67607,1,0,0:0:0:0:
448,152,68035,1,0,0:0:0:0:
272,48,68357,1,0,0:0:0:0:
88,120,68785,1,0,0:0:0:0:
192,248,69214,1,0,0:0:0:0:
384,80,69642,1,0,0:0:0:0:
136,192,70071,1,0,0:0:0:0:
80,16,70500,1,0,0:0:0:0:
304,288,70928,1,0,0:0:0:0:
456,64,71357,1,0,0:0:0:0:
184,256,71785,1,0,0:0:0:0:
96,80,72107,1,0,0:0:0:0:
80,200,72642,2,0,P|264:40|304:40,1,280,0|0,0:0|0:0,0:0:0:0:
376,288,74357,2,0,B|152:328|32:176|88:32|256:24|384:56|464:128|472:208|240:184,1,805,0|0,0:0|0:0,0:0:0:0:
256,192,78857,12,0,79178,0:0:0:0:
80,80,82392,5,0,0:0:0:0:
400,112,82714,1,0,0:0:0:0:
136,256,83250,1,0,0:0:0:0:
160,40,83678,1,0,0:0:0:0:
312,48,84107,1,0,0:0:0:0:
456,192,84535,1,0,0:0:0:0:
336,320,84964,1,0,0:0:0:0:
224,328,85178,1,0,0:0:0:0:
128,288,85285,1,0,0:0:0:0:
128,120,86250,1,0,0:0:0:0:
264,56,86464,1,0,0:0:0:0:
392,72,86678,1,0,0:0:0:0:
464,112,86892,1,0,0:0:0:0:
472,200,87000,1,0,0:0:0:0:
424,272,87214,1,0,0:0:0:0:
320,288,87428,1,0,0:0:0:0:
96,80,88285,1,0,0:0:0:0:
136,248,88714,1,0,0:0:0:0:
320,64,89142,1,0,0:0:0:0:
312,272,89571,1,0,0:0:0:0:
208,104,90000,1,0,0:0:0:0:
224,296,90428,1,0,0:0:0:0:
224,120,90964,1,0,0:0:0:0:
216,336,91392,1,0,0:0:0:0:
224,80,91821,1,0,0:0:0:0:
200,328,92250,1,0,0:0:0:0:
200,88,92785,1,0,0:0:0:0:
80,312,93214,1,0,0:0:0:0:
56,72,93750,1,0,0:0:0:0:
288,264,94071,1,0,0:0:0:0:
416,80,94607,1,0,0:0:0:0:
112,88,94928,1,0,0:0:0:0:
432,184,95357,1,0,0:0:0:0:
120,152,95678,1,0,0:0:0:0:
424,240,96107,1,0,0:0:0:0:
112,176,96535,1,0,0:0:0:0:
416,120,96964,1,0,0:0:0:0:
216,232,97392,1,0,0:0:0:0:
384,328,97821,1,0,0:0:0:0:
304,48,98142,1,0,0:0:0:0:
312,328,98464,1,0,0:0:0:0:
152,112,100285,1,0,0:0:0:0:
248,304,100607,1,0,0:0:0:0:
416,64,101142,1,0,0:0:0:0:
208,272,101464,1,0,0:0:0:0:
48,48,101892,1,0,0:0:0:0:
416,304,102321,1,0,0:0:0:0:
448,56,102642,1,0,0:0:0:0:
208,320,103071,1,0,0:0:0:0:
104,96,110464,5,0,0:0:0:0:
432,96,110892,1,0,0:0:0:0:
384,352,111321,1,0,0:0:0:0:
184,72,111750,1,0,0:0:0:0:
72,288,112178,1,0,0:0:0:0:
400,200,112714,1,0,0:0:0:0:
152,168,113142,1,0,0:0:0:0:
432,184,113464,1,0,0:0:0:0:
128,56,113892,1,0,0:0:0:0:
288,312,114321,1,0,0:0:0:0:
456,16,114642,1,0,0:0:0:0:
464,360,115071,1,0,0:0:0:0:
64,40,115500,1,0,0:0:0:0:
200,96,115607,5,0,0:0:0:0:
64,336,115928,1,0,0:0:0:0:
320,56,116464,1,0,0:0:0:0:
288,320,116892,1,0,0:0:0:0:
120,104,117214,1,0,0:0:0:0:
432,96,117535,1,0,0:0:0:0:
152,304,117964,1,0,0:0:0:0:
32,32,118392,1,0,0:0:0:0:
296,144,118821,1,0,0:0:0:0:
464,56,119142,1,0,0:0:0:0:
192,160,119571,1,0,0:0:0:0:
56,72,120000,1,0,0:0:0:0:
376,256,120428,1,0,0:0:0:0:
136,296,120964,1,0,0:0:0:0:
240,32,121285,1,0,0:0:0:0:
432,152,121714,1,0,0:0:0:0:
72,120,122142,1,0,0:0:0:0:
56,224,122892,2,0,B|128:344|392:328|472:232|464:144|432:40|312:8|368:32,1,595,0|0,0:0|0:0,0:0:0:0:
344,264,127178,1,0,0:0:0:0:
432,136,127607,1,0,0:0:0:0:
336,32,127928,1,0,0:0:0:0:
456,296,128357,1,0,0:0:0:0:
248,120,128785,1,0,0:0:0:0:
392,328,129214,1,0,0:0:0:0:
448,32,129535,1,0,0:0:0:0:
120,288,129857,1,0,0:0:0:0:
32,48,130071,1,0,0:0:0:0:
256,192,138000,12,0,138108,0:0:0:0:
256,192,140678,12,0,143464,0:0:0:0:
256,192,144214,12,0,145928,0:0:0:0:
256,192,146250,12,0,147321,0:0:0:0:
256,192,147750,12,0,148714,0:0:0:0:
256,192,149250,12,0,150428,0:0:0:0:
256,192,150750,12,0,151714,0:0:0:0:
256,192,152142,12,0,152892,0:0:0:0:
40,336,153535,6,0,L|48:16,1,315,0|0,0:0|0:0,0:0:0:0:
120,24,155357,2,0,L|472:24,1,350,0|0,0:0|0:0,0:0:0:0:
464,88,156750,2,0,L|456:360,2,245,0|0|0,0:0|0:0|0:0,0:0:0:0:
392,336,158464,2,0,L|56:80,1,420,0|0,0:0|0:0,0:0:0:0:
416,64,160178,2,0,L|120:328,1,385,0|0,0:0|0:0,0:0:0:0:
48,32,161785,2,0,L|416:336,1,455,0|0,0:0|0:0,0:0:0:0:
416,72,163392,2,0,L|88:104,1,315,0|0,0:0|0:0,0:0:0:0:
64,176,164678,2,0,L|336:336,1,315,0|0,0:0|0:0,0:0:0:0:
424,288,165964,2,0,L|448:32,1,245,0|0,0:0|0:0,0:0:0:0:
328,40,167142,2,0,L|16:80,1,315,0|0,0:0|0:0,0:0:0:0:
64,200,168214,2,0,L|264:328,1,210,0|0,0:0|0:0,0:0:0:0:
384,232,169285,2,0,L|432:32,1,175,0|0,0:0|0:0,0:0:0:0:
256,32,170142,2,0,L|48:216,1,245,0|0,0:0|0:0,0:0:0:0:
104,296,171107,2,0,L|400:280,1,280,0|0,0:0|0:0,0:0:0:0:
448,128,172178,2,0,L|192:16,1,280,0|0,0:0|0:0,0:0:0:0:
104,48,173035,2,0,L|208:320,1,280,0|0,0:0|0:0,0:0:0:0:
368,280,174321,2,0,L|432:56,1,210,0|0,0:0|0:0,0:0:0:0:
240,32,175392,2,0,L|-8:152,1,245,0|0,0:0|0:0,0:0:0:0:
64,248,176464,2,0,L|376:208,1,315,0|0,0:0|0:0,0:0:0:0:
432,80,177642,2,0,B|80:168|144:296|192:296,2,385,0|0|0,0:0|0:0|0:0,0:0:0:0:
336,264,180107,2,0,L|80:32,1,315,0|0,0:0|0:0,0:0:0:0:
48,168,181607,2,0,L|112:312,1,140,0|0,0:0|0:0,0:0:0:0:
200,312,183321,5,0,0:0:0:0:
352,312,183750,1,0,0:0:0:0:
448,184,184178,1,0,0:0:0:0:
304,48,184714,1,0,0:0:0:0:
96,128,185035,1,0,0:0:0:0:
24,24,185464,1,0,0:0:0:0:
376,320,185785,1,0,0:0:0:0:
464,32,186214,1,0,0:0:0:0:
56,336,186750,1,0,0:0:0:0:
24,8,187071,1,0,0:0:0:0:
448,336,187607,1,0,0:0:0:0:
488,24,188035,1,0,0:0:0:0:
8,352,188464,1,0,0:0:0:0:
56,8,188785,1,0,0:0:0:0:
448,352,189214,1,0,0:0:0:0:
480,24,189642,1,0,0:0:0:0:
136,48,190071,1,0,0:0:0:0:
168,344,190500,1,0,0:0:0:0:
328,16,190821,1,0,0:0:0:0:
320,360,191250,1,0,0:0:0:0:
104,80,191678,1,0,0:0:0:0:
464,104,192107,1,0,0:0:0:0:
104,240,192535,1,0,0:0:0:0:
392,176,192857,1,0,0:0:0:0:
256,208,193392,1,0,0:0:0:0:
208,48,193714,1,0,0:0:0:0:
336,304,194142,1,0,0:0:0:0:
112,96,194571,1,0,0:0:0:0:
256,192,195107,12,0,196178,0:0:0:0:
256,192,196928,12,0,201321,0:0:0:0:
