osu file format v9

[General]
AudioFilename: Disco Chocolat (kagome-P).mp3
AudioLeadIn: 0
PreviewTime: -1
Countdown: 1
SampleSet: Normal
StackLeniency: 0.7
Mode: 0
LetterboxInBreaks: 1

[Editor]
DistanceSpacing: 0.8
BeatDivisor: 2
GridSize: 32

[Metadata]
Title:Disco Chocolatheque
Artist:Kaai Yuki
Creator:ronery
Version:Normal
Source:Vocaloid
Tags:vocaloid disco chocolatheque kaai yuki

[Difficulty]
HPDrainRate:5
CircleSize:5
OverallDifficulty:5
ApproachRate:5
SliderMultiplier:0.9
SliderTickRate:1

[Events]
//Background and Video events
0,0,"Disco_Chocolate___Kaai_Yuki_by_yunare.jpg"
Video,0,"Kaai Yuki DiscoвChocolatheque.avi"
//Break Periods
2,21739,33646
//Storyboard Layer 0 (Background)
//Storyboard Layer 1 (Fail)
//Storyboard Layer 2 (Pass)
//Storyboard Layer 3 (Foreground)
//Storyboard Sound Samples
//Background Colour Transformations
3,100,163,162,255

[TimingPoints]
3944.66004096061,451.127819548872,4,1,0,100,1,0

[Colours]
Combo1 : 227,192,53
Combo2 : 237,84,111
Combo3 : 188,123,75
Combo4 : 255,60,60

[HitObjects]
192,160,7553,1,0
143,263,8004,1,0
189,271,8230,1,0
238,259,8455,1,8
350,163,8907,5,0
459,119,9358,1,0
465,160,9583,1,0
459,204,9809,1,8
137,118,10260,5,0
155,246,10711,2,8,B|131:271|85:217,2,45,0|0|8
324,200,11613,5,0
304,59,12064,2,0,B|370:40|358:90|360:89,2,45,0|0|8
147,204,12967,5,0
127,338,13418,2,0,B|188:356|168:309,2,45,0|0|8
192,129,14771,5,0
192,266,15222,2,0,B|192:328,2,45,0|0|8
317,237,16125,5,0
313,97,16576,2,0,B|313:39,2,45,0|0|8
145,54,17478,5,0
146,141,17929,1,0
146,224,18380,1,0
146,308,18831,2,0,B|146:372,2,45,0|0|8
256,192,19508,12,0,21539
135,95,34846,5,0
225,96,35298,1,0
229,183,35749,1,0
324,182,36200,1,8
350,98,36876,6,0,B|303:69|252:103,2,90
414,135,38230,1,0
454,193,38681,1,0
455,194,38907,2,0,B|335:194,1,90
126,189,39809,5,8
195,146,40260,2,0,B|174:177|207:206,2,45
228,100,40937,2,0,B|257:85|296:97|309:128,1,90
344,325,41839,5,0
160,192,42741,1,0
160,96,42967,2,0,B|160:145|159:210,1,90,0|8
288,96,43869,6,0,B|288:160,1,45
346,122,44320,2,0,B|306:154,1,45
288,160,44771,2,0,B|256:224,2,45
326,91,45448,1,0
362,33,45673,6,0,B|433:92|339:168,1,135
470,35,47027,1,0
352,86,47478,1,0
324,33,47704,1,0
214,88,48155,1,0
189,37,48380,1,0
93,88,48831,1,0
57,42,49057,1,0
57,41,49283,1,0
56,42,49734,2,0,B|26:110|61:181|59:180,1,135,0|8
205,106,51087,6,0,B|190:126|206:157|206:156,1,45
254,170,51538,2,0,B|261:194|243:231,1,45
207,223,51989,2,0,B|197:258|224:297,2,45
324,223,52892,5,0
324,224,53117,2,0,B|346:175|318:114,1,90
263,135,53794,1,0
262,184,54019,1,0
261,226,54245,1,8
218,320,54696,6,0,B|262:348|316:317,3,90
351,185,56501,1,0
324,165,56726,1,0
300,152,56952,1,0
263,145,57177,1,0
229,153,57403,1,0
201,166,57628,1,0
174,182,57854,1,8
262,85,58305,5,0
261,136,58531,1,0
262,236,58982,2,0,B|262:292,1,45
397,303,59658,1,0
398,264,59884,2,0,B|408:222|369:126|360:172,3,90
369,144,61463,1,8
282,106,61914,6,0,B|252:121|251:167,4,45
405,37,63267,1,0
192,205,64395,6,0,B|212:162|257:129|298:156|328:214,1,180,0|0
329,273,65749,5,0
190,272,66200,1,0
194,209,66876,6,0,B|204:182|229:169,2,45
167,254,67553,2,0,B|151:279|157:306,4,45
192,192,68681,1,8
349,95,69358,5,0
351,225,69809,1,0
256,128,70486,1,0
256,128,70711,2,0,B|256:229,1,90
193,162,71388,2,0,B|192:251,1,90
192,284,72064,1,0
192,284,72290,1,8
352,97,72967,5,0
352,192,73418,1,0
283,192,74095,2,0,B|230:192,1,45
191,192,74546,1,0
154,192,74771,1,0
119,191,74997,2,0,B|63:176|48:120,1,90
39,113,75673,2,0,B|29:95|27:65,1,45
94,51,76125,6,0,B|137:33|200:58,1,90
233,81,76801,6,0,B|296:113|311:202,1,135
320,252,77704,5,0
324,312,78155,1,0
401,202,80185,5,0
315,93,80636,1,8
157,108,81313,2,0,B|142:136|164:168,1,45
214,150,81764,2,0,B|231:128|211:99,1,45
207,57,82215,2,0,B|185:37|158:62,4,45,0|0|0|0|8
385,256,83794,5,0
384,97,84245,1,8
286,287,84922,1,0
289,213,85147,2,0,B|289:157,1,45
239,71,85824,1,0
194,90,86049,2,0,B|191:98|191:98|172:97|172:97|167:110|167:110|147:109|147:109|140:124|140:124|125:124,1,90
439,122,87403,5,0
441,303,87854,1,8
239,90,88531,1,0
216,139,88756,2,0,B|264:139,2,45
217,180,89433,2,0,B|262:180,2,45
237,219,90110,1,0
238,240,90335,1,8
160,263,90561,6,0,B|239:321|331:260,4,180
258,74,94621,5,8
258,246,95072,1,8
178,47,95749,1,0
257,47,96200,1,0
340,49,96651,1,0
258,238,97102,1,8
259,59,98230,5,8
258,256,98681,1,8
234,44,99358,1,0
280,100,99809,1,0
237,162,100260,1,0
259,311,100711,1,8
258,95,101839,5,8
259,311,102290,1,8
218,39,102967,1,0
261,95,103418,1,0
300,152,103869,1,0
260,285,104320,1,8
107,181,105222,5,0
169,147,105673,1,0
229,111,106125,1,0
284,75,106576,1,0
337,45,107027,1,0
414,47,107478,1,8
414,48,107704,1,8
256,261,108155,1,8
121,47,108831,6,0,B|104:67|106:109,2,45
169,41,109508,2,0,B|199:32|222:46,3,45,0|0|0|8
364,166,110636,6,0,B|374:136|361:107,2,45
357,208,111313,2,0,B|294:245|226:201,1,135,0|8
114,183,112440,6,0,B|102:209|114:240,2,45
149,168,113117,2,0,B|184:158|219:181,3,45,0|0|0|8
332,207,114245,6,0,B|373:175|445:230,1,90
430,276,114922,2,0,B|352:318|297:261,1,135,0|8
94,62,116049,5,0
99,94,116275,1,0
105,124,116501,1,0
174,107,116726,1,0
201,91,116952,1,0
228,73,117177,1,0
251,57,117403,1,8
371,85,117854,5,0
370,115,118079,1,0
369,150,118305,1,0
305,154,118531,1,0
279,155,118756,1,0
254,154,118982,1,0
226,155,119207,1,8
60,87,119658,6,0,B|60:133,2,45
64,32,120335,2,0,B|14:32,2,45
126,32,121012,1,0
239,34,121463,1,0
428,32,122140,1,0
96,192,123267,5,0
128,160,123492,1,0
160,192,123718,1,0
192,160,123943,1,0
224,192,124169,1,0
256,160,124394,1,0
288,192,124620,1,8
384,64,125072,6,0,B|384:128|384:96,1,45
436,63,125523,2,0,B|436:127,1,45
434,169,125974,1,0
433,208,126200,1,0
432,241,126425,1,8
352,288,126876,5,0
320,288,127102,1,0
288,256,127328,1,0
256,224,127553,1,0
224,224,127779,1,0
192,256,128004,1,0
160,288,128230,1,0
128,288,128455,1,0
96,256,128681,1,0
64,224,128907,1,0
32,256,129132,1,8
109,69,129583,5,0
109,102,129809,1,0
109,132,130034,1,0
174,93,130260,2,0,B|174:149,1,45
230,59,130711,2,0,B|230:122,1,45
289,93,131162,2,0,B|288:159,2,45
432,62,132064,5,0
430,148,132516,2,0,B|430:212,1,45,0|8
223,283,133192,6,0,B|225:186,1,90
256,192,134320,12,0,136576
257,87,137929,5,0
256,309,138380,1,8
243,174,139057,1,0
265,158,139282,1,0
231,131,139508,1,0
271,126,139733,1,0
222,93,139959,1,0
279,89,140184,1,0
224,25,140636,2,0,B|277:25,1,45,0|8
407,314,141538,5,0
409,177,141989,1,8
59,256,142666,1,0
103,200,142892,1,0
151,200,143117,1,0
196,201,143343,1,0
251,261,143568,1,0
306,174,143794,1,0
353,174,144019,1,0
406,175,144245,2,0,B|416:140|389:101,1,45,0|8
129,60,145147,5,0
129,239,145598,1,8
370,328,146275,1,0
368,162,146726,1,0
204,167,147177,2,0,B|182:142|194:100,1,45
236,111,147628,2,0,B|243:64|204:31,1,90
146,38,148305,6,0,B|113:77|137:152,4,90,0|0|0|0|8
209,41,150335,2,0,B|279:146|209:254,1,225
319,287,152365,5,0
319,106,152816,1,8
221,59,153493,2,0,B|202:89|235:128,1,45
237,126,153944,2,0,B|255:155|238:179,1,45
219,199,154395,2,0,B|218:211|218:211|228:211|228:211|225:225|225:225|236:226|236:226|232:237|232:237|245:237|245:237|240:249|240:249|252:252|252:252|253:265,1,90
196,191,155974,5,0
240,239,156200,1,0
283,189,156425,1,0
356,87,157102,6,0,B|244:15|129:91,1,225
378,85,159583,5,0
378,286,160034,1,8
158,286,160711,2,0,B|94:285,1,45
63,82,161388,1,0
98,119,161613,1,0
133,79,161839,1,4
249,167,162290,1,0
294,100,162741,6,0,B|249:72|207:101,8,90
