osu file format v9

[General]
AudioFilename: KaW - Take Me Back.mp3
AudioLeadIn: 0
PreviewTime: 45406
Countdown: 0
SampleSet: Soft
StackLeniency: 0.7
Mode: 0
LetterboxInBreaks: 0

[Editor]
Bookmarks: 79863
DistanceSpacing: 1
BeatDivisor: 4
GridSize: 4

[Metadata]
Title:Take Me Back
Artist:KaW
Creator:Niva
Version:Hard
Source:
Tags:synthsations kyle ward mungyodance maya-kira nivalis

[Difficulty]
HPDrainRate:6
CircleSize:5
OverallDifficulty:6
ApproachRate:8
SliderMultiplier:1.8
SliderTickRate:2

[Events]
//Background and Video events
0,0,"kyaa gtrholic so pro.jpg"
//Break Periods
//Storyboard Layer 0 (Background)
//Storyboard Layer 1 (Fail)
//Storyboard Layer 2 (Pass)
//Storyboard Layer 3 (Foreground)
//Storyboard Sound Samples
//Background Colour Transformations
3,100,163,162,255

[TimingPoints]
1692,342.857142857143,4,2,0,68,1,0
22863,-100,4,1,0,50,0,0
23634,-100,4,2,0,68,0,1
23677,-100,4,2,0,68,0,0
24063,-100,4,1,0,50,0,0
24234,-100,4,2,0,68,0,0
24406,-100,4,1,0,50,0,0
24577,-100,4,2,0,68,0,0
24920,-100,4,1,0,50,0,0
25092,-100,4,2,0,68,0,0
25692,-100,4,1,0,50,0,0
25949,-100,4,2,0,68,0,0
26034,-100,4,1,1,50,0,0
26120,-100,4,2,0,68,0,0
26292,-100,4,1,0,50,0,0
26463,-100,4,2,0,68,0,0
26806,-100,4,1,0,50,0,0
26977,-100,4,2,0,68,0,0
27234,-100,4,1,0,50,0,0
27320,-100,4,2,0,68,0,0
27663,-100,4,1,0,50,0,0
27834,-100,4,2,0,68,0,0
28434,-100,4,1,0,50,0,0
28520,-100,4,2,0,68,0,0
28606,-100,4,1,0,50,0,0
28692,-100,4,2,0,68,0,0
28777,-100,4,1,1,50,0,0
29206,-100,4,2,0,68,0,0
29549,-100,4,1,1,50,0,0
29720,-100,4,2,0,68,0,0
29892,-100,4,1,1,50,0,0
30063,-100,4,2,0,68,0,0
30406,-100,4,1,1,50,0,0
30577,-100,4,2,0,68,0,0
31177,-100,4,1,1,50,0,0
31606,-100,4,2,0,68,0,0
31863,-100,4,1,0,50,0,0
31949,-100,4,2,0,68,0,0
32292,-100,4,1,0,50,0,0
32463,-100,4,2,0,68,0,0
32720,-100,4,1,0,50,0,0
32806,-100,4,2,0,68,0,0
33149,-100,4,1,0,50,0,0
33320,-100,4,2,0,68,0,0
33920,-100,4,1,0,50,0,0
34177,-100,4,2,0,68,0,0
34263,-100,4,1,0,50,0,0
34692,-100,4,2,0,68,0,0
35034,-100,4,1,0,50,0,0
35206,-100,4,2,0,68,0,0
35377,-100,4,1,0,50,0,0
35549,-100,4,2,0,68,0,0
35892,-100,4,1,0,50,0,0
36063,-100,4,2,0,68,0,0
36663,-100,4,1,1,50,0,0
37092,-100,4,2,0,68,0,0
37263,-100,4,1,0,50,0,0
37434,-100,4,2,0,68,0,0
37777,-100,4,1,0,50,0,0
37949,-100,4,2,0,68,0,0
38206,-100,4,1,0,50,0,0
38292,-100,4,2,0,68,0,0
38634,-100,4,1,0,50,0,0
38806,-100,4,2,0,68,0,0
39406,-100,4,1,0,50,0,0
39663,-100,4,2,0,68,0,0
39749,-100,4,1,0,50,0,0
40177,-100,4,2,0,68,0,0
40520,-100,4,1,0,50,0,0
40692,-100,4,2,0,68,0,0
40863,-100,4,1,0,50,0,0
41034,-100,4,2,0,68,0,0
41463,-100,4,1,0,50,0,0
41549,-100,4,2,0,68,0,0
42149,-100,4,1,0,50,0,0
42406,-100,4,1,1,50,0,0
42577,-100,4,2,0,68,0,0
42834,-100,4,1,0,50,0,0
42920,-100,4,2,0,68,0,0
43263,-100,4,1,0,50,0,0
43434,-100,4,2,0,68,0,0
43692,-100,4,1,0,50,0,0
43777,-100,4,2,0,68,0,0
44463,-100,4,2,0,58,0,0
44806,-100,4,2,0,48,0,0
45149,-100,4,2,0,38,0,0
45492,-100,4,2,0,68,0,0
45663,-100,4,1,0,30,0,0
45834,-100,4,2,0,68,0,0
46349,-100,4,1,0,30,0,0
46520,-100,4,2,0,68,0,0
46692,-100,4,1,0,30,0,0
46863,-100,4,2,0,68,0,0
47806,-100,4,1,0,30,0,0
47892,-100,4,2,0,68,0,0
47977,-100,4,1,0,30,0,0
48406,-100,4,2,0,68,0,0
48492,-100,4,1,0,30,0,0
48577,-100,4,2,0,68,0,0
49092,-100,4,1,0,30,0,0
49263,-100,4,2,0,68,0,0
49434,-100,4,1,0,30,0,0
49606,-100,4,2,0,68,0,0
49863,-100,4,1,0,30,0,0
49949,-100,4,2,0,68,0,0
50977,-100,4,1,0,50,0,0
51149,-100,4,2,0,68,0,0
51492,-100,4,1,0,50,0,0
51663,-100,4,2,0,68,0,0
51834,-100,4,1,0,50,0,0
52006,-100,4,2,0,68,0,0
52349,-100,4,1,0,50,0,0
52520,-100,4,2,0,68,0,0
53120,-100,4,1,1,50,0,0
53549,-100,4,2,0,68,0,0
53806,-100,4,1,0,50,0,0
53892,-100,4,2,0,68,0,0
54234,-100,4,1,0,50,0,0
54406,-100,4,2,0,68,0,0
54663,-100,4,1,0,50,0,0
54749,-100,4,2,0,68,0,0
55092,-100,4,1,0,50,0,0
55263,-100,4,2,0,68,0,0
55692,-100,4,1,0,50,0,0
55777,-100,4,2,0,68,0,0
55949,-100,4,1,0,50,0,0
56120,-100,4,2,0,68,0,0
56292,-100,4,1,0,50,0,0
56549,-100,4,2,0,68,0,0
56977,-100,4,1,0,50,0,0
57149,-100,4,2,0,68,0,0
57406,-100,4,1,0,50,0,0
57492,-100,4,2,0,68,0,0
57834,-100,4,1,0,50,0,0
58006,-100,4,2,0,68,0,0
58520,-100,4,1,0,50,0,0
58692,-100,4,2,0,68,0,0
58949,-100,4,1,0,50,0,0
59034,-100,4,2,0,68,0,0
59292,-100,4,1,0,50,0,0
59377,-100,4,2,0,68,0,0
59720,-100,4,1,0,50,0,0
59892,-100,4,2,0,68,0,0
60063,-100,4,1,0,50,0,0
60234,-100,4,2,0,68,0,0
61349,-100,4,1,0,50,0,0
61606,-100,4,2,0,68,0,0
61692,-100,4,1,0,50,0,0
62120,-100,4,2,0,68,0,0
62463,-100,4,1,0,50,0,0
62634,-100,4,2,0,68,0,0
62806,-100,4,1,0,50,0,0
62977,-100,4,2,0,68,0,0
63320,-100,4,1,0,50,0,0
63492,-100,4,2,0,68,0,0
64092,-100,4,1,0,50,0,0
64520,-100,4,2,0,68,0,0
64777,-100,4,1,0,50,0,0
64863,-100,4,2,0,68,0,0
65292,-100,4,1,0,50,0,0
65377,-100,4,2,0,68,0,0
65634,-100,4,1,0,50,0,0
65720,-100,4,2,0,68,0,0
66577,-100,4,1,0,50,0,0
66749,-100,4,2,0,68,0,0
66920,-100,4,1,0,50,0,0
67092,-100,4,1,1,50,0,0
67520,-100,4,2,0,68,0,0
67949,-100,4,1,1,50,0,0
68120,-100,4,2,0,68,0,0
68377,-100,4,1,1,50,0,0
68463,-100,4,2,0,68,0,0
68806,-100,4,1,1,50,0,0
68977,-100,4,2,0,68,0,0
69406,-100,4,1,1,50,0,0
69834,-100,4,2,1,68,0,0
70177,-100,4,1,0,50,0,0
70349,-100,4,2,0,68,0,0
70692,-100,4,1,1,50,0,0
70863,-100,4,2,0,68,0,0
71120,-100,4,1,1,50,0,0
71206,-100,4,2,0,68,0,0
71549,-100,4,1,1,50,0,0
71720,-100,4,2,0,68,0,0
72063,-100,4,1,1,50,0,0
73006,-100,4,2,0,68,0,0
73434,-100,4,1,1,50,0,0
73606,-100,4,2,0,68,0,0
73863,-100,4,1,1,50,0,0
73949,-100,4,2,0,68,0,0
74292,-100,4,1,1,50,0,0
74463,-100,4,2,0,68,0,0
74892,-100,4,1,1,50,0,0
74977,-100,4,2,0,68,0,0
75149,-100,4,1,1,50,0,0
75320,-100,4,2,0,68,0,0
75663,-100,4,1,1,50,0,0
75834,-100,4,2,0,68,0,0
76177,-100,4,1,1,50,0,0
76349,-100,4,2,0,68,0,0
76606,-100,4,1,1,50,0,0
76692,-100,4,2,0,68,0,0
77034,-100,4,1,1,50,0,0
77206,-100,4,2,0,68,0,0
77549,-100,4,1,1,50,0,0
78492,-100,4,2,0,68,0,0
78920,-100,4,1,1,50,0,0
79092,-100,4,2,0,68,0,0
79349,-100,4,1,1,50,0,0
79434,-100,4,2,0,68,0,0
79777,-100,4,1,1,50,0,0
79949,-100,4,2,0,68,0,0
80292,-100,4,1,1,50,0,0
80634,-100,4,2,0,68,0,0
80720,-100,4,1,0,50,0,0
80806,-100,4,2,0,68,0,0
80892,-100,4,1,0,50,0,0
81320,-100,4,2,0,68,0,0
81663,-100,4,1,1,50,0,0
81834,-100,4,2,0,68,0,0
82092,-100,4,1,1,50,0,0
82177,-100,4,2,0,68,0,0
82520,-100,4,1,0,50,0,0
82692,-100,4,2,0,68,0,0
83034,-100,4,1,1,50,0,0
83206,-100,4,2,0,68,0,0
83292,-100,4,1,0,50,0,0
83892,-100,4,1,0,68,0,0
84063,-100,4,2,0,68,0,0
84406,-100,4,1,1,50,0,0
84577,-100,4,2,0,68,0,0
84834,-100,4,1,1,50,0,0
84920,-100,4,2,0,68,0,0
85263,-100,4,1,1,50,0,0
85434,-100,4,2,0,68,0,0
85777,-100,4,1,1,50,0,0
85949,-100,4,2,0,68,0,0
86034,-100,4,1,1,50,0,0
86292,-100,4,2,0,68,0,0
86377,-100,4,1,1,50,0,0
86806,-100,4,2,0,68,0,0
87149,-100,4,1,1,50,0,0
87320,-100,4,2,0,68,0,0
87577,-100,4,1,1,50,0,0
87663,-100,4,2,0,68,0,0
88006,-100,4,1,0,50,0,0
88177,-100,4,2,0,68,0,0
88263,-100,4,1,0,50,0,0
88349,-100,4,2,0,68,0,0
88606,-100,4,1,0,50,0,0
88863,-100,4,2,0,68,0,0
89034,-100,4,1,0,50,0,0
89463,-100,4,2,0,68,0,1
89506,-100,4,2,0,68,0,0
89892,-100,4,1,0,50,0,0
90063,-100,4,2,0,68,0,0
90320,-100,4,1,0,50,0,0
90406,-100,4,2,0,68,0,0
90749,-100,4,1,0,50,0,0
90920,-100,4,2,0,68,0,0
91520,-100,4,1,0,50,0,0
91949,-100,4,2,0,68,0,0
92206,-100,4,1,0,50,0,0
92292,-100,4,2,0,68,0,0
92634,-100,4,1,0,50,0,0
92806,-100,4,2,0,68,0,0
92977,-100,4,1,0,50,0,0
93149,-100,4,2,0,68,0,0
94263,-100,4,1,0,50,0,0
94520,-100,4,2,0,68,0,0
94606,-100,4,1,0,50,0,0
95034,-100,4,2,0,68,0,0
95377,-100,4,1,0,50,0,0
95549,-100,4,2,0,68,0,0
95720,-100,4,1,0,50,0,0
95892,-100,4,2,0,68,0,0
96234,-100,4,1,0,50,0,0
96406,-100,4,2,0,68,0,0
97006,-100,4,1,0,50,0,0
97434,-100,4,2,0,68,0,0
97692,-100,4,1,0,50,0,0
97777,-100,4,2,0,68,0,0
98120,-100,4,1,0,50,0,0
98292,-100,4,2,0,68,0,0
98463,-100,4,1,0,50,0,0
98634,-100,4,2,0,68,0,0
99749,-100,4,1,0,50,0,0
100006,-100,4,2,0,68,0,0
100092,-100,4,1,0,50,0,0
100349,-100,4,2,0,68,0,0
100949,-100,4,1,0,50,0,0
101034,-100,4,2,0,68,0,0
101292,-100,4,1,0,50,0,0
101377,-100,4,2,0,68,0,0
101806,-100,4,1,0,50,0,0
101892,-100,4,2,0,68,0,0
102492,-100,4,1,0,50,0,0
102749,-100,4,2,0,68,0,0
102834,-100,4,1,0,50,0,0
102920,-100,4,2,0,68,0,0
103092,-100,4,1,0,50,0,0
103263,-100,4,2,0,68,0,0
103949,-100,4,1,0,50,0,0
104120,-100,4,2,0,68,0,0
104463,-100,4,1,0,50,0,0
104634,-100,4,2,0,68,0,0
105234,-100,4,1,0,50,0,0
105492,-100,4,2,0,68,0,0
105577,-100,4,1,0,50,0,0
106006,-100,4,2,0,68,0,0
106349,-100,4,1,0,50,0,0
106520,-100,4,2,0,68,0,0
106692,-100,4,1,0,50,0,0
106863,-100,4,2,0,68,0,0
107292,-100,4,1,0,50,0,0
107377,-100,4,2,0,68,0,0
107977,-100,4,1,0,50,0,0
108234,-100,4,2,0,68,0,0
108320,-100,4,1,0,50,0,0
108406,-100,4,2,0,68,0,0
108577,-100,4,1,0,50,0,0
108749,-100,4,2,0,68,0,0
109177,-100,4,1,0,50,0,0
109263,-100,4,2,0,68,0,0
109434,-100,4,1,0,50,0,0
109606,-100,4,2,0,68,0,0
109863,-100,4,1,0,50,0,0
110120,-100,4,2,0,68,0,0
110720,-100,4,1,0,50,0,0
110977,-100,4,2,0,68,0,0
111063,-100,4,1,0,50,0,0
111320,-100,4,2,0,68,0,0
113206,-200,4,2,0,68,0,0
114234,-100,4,2,0,68,0,0
115434,-100,4,2,0,38,0,0
116720,-100,4,2,0,68,0,0
118777,-200,4,2,0,68,0,0
119720,-100,4,2,0,68,0,0
121006,-100,4,2,0,38,0,0

[Colours]
Combo1 : 151,255,244
Combo2 : 79,160,251
SliderBorder : 191,254,249

[HitObjects]
460,332,12663,2,0,B|411:344|378:311|378:311|342:273|289:289,1,180,2|0
212,324,13177,2,0,B|112:364|64:256,2,180,2|2|0
292,364,14034,2,0,B|316:300|272:256|272:256|300:192,1,180,2|2
332,116,14549,1,0
412,156,14720,6,0,B|460:168|504:144,1,90,2|0
248,88,15063,2,0,B|200:76|156:100,1,90,2|0
96,164,15406,2,0,B|52:260|140:320,1,180,2|0
228,300,15920,2,0,B|328:260|384:352,2,180,2|2|0
176,224,16777,2,0,B|160:180|199:143|199:143|234:107|223:59,1,180,2|2
223,59,17292,1,0
136,76,17463,6,0,B|88:84|44:56,1,90,2|0
264,208,17806,2,0,B|312:200|356:228,1,90,2|0
432,188,18149,2,0,B|480:96|400:24,1,180,2|0
316,52,18663,2,0,B|224:104|152:24,1,180,2|2
112,104,19177,1,0
112,104,19349,1,0
32,156,19520,2,0,B|72:252|0:320,1,180,2|2
64,384,20034,1,0
128,320,20206,6,0,B|176:320|212:356,1,90,2|0
384,320,20549,2,0,B|336:320|300:356,1,90,2|0
256,276,20892,2,0,B|232:232|256:192|256:192|280:152|256:104,1,180,2|0
176,68,21406,2,0,B|256:136|340:68,1,180,2|2
424,40,21920,2,0,B|472:40|508:72,1,90
508,160,22263,2,0,B|512:211|480:243|480:243|448:272|455:327,1,180,2|2
368,300,22777,5,0
256,384,22949,1,0
144,300,23120,1,0
256,212,23292,2,0,B|256:176,7,22.5
256,212,23634,6,0,B|168:272|88:204,1,180,4|8
32,136,24149,2,0,B|4:132|-24:144,2,45,0|0|2
116,100,24492,2,0,B|164:92|208:116,1,90,0|8
292,112,24834,1,2
368,164,25006,2,0,B|468:204|532:120,2,180,0|8|0
304,228,25863,2,0,B|278:273|312:320,2,90,0|8|2
368,164,26377,5,0
372,72,26549,1,2
300,20,26720,1,8
216,56,26892,2,0,B|124:92|48:12,1,180,0|0
12,100,27406,2,0,B|40:132|92:144,1,90,8|2
180,152,27749,2,0,B|228:148|264:128|264:128|356:128,1,180,0|8
436,84,28263,2,0,B|464:35,2,45,2|0|0
440,176,28606,2,0,B|493:292,1,90,0|0
332,368,29120,6,0,B|236:420|172:340,1,180,0|8
84,316,29634,2,0,B|60:320|32:336,2,45,0|0|2
148,252,29977,1,0
168,164,30149,2,0,B|192:120|176:68,1,90,8|2
232,288,30492,2,0,B|324:328|396:248,1,180,0|8
440,172,31006,2,0,B|432:148|436:120,2,45,2|0|0
508,232,31349,1,0
452,304,31520,2,0,B|388:384|288:380,1,180,0|0
212,344,32034,6,0,B|168:344|120:364,1,90,2|8
44,320,32377,2,0,B|-16:232|60:156,1,180
140,116,32892,2,0,B|180:140|228:136,1,90,8|2
308,168,33234,2,0,B|355:182|391:144|391:144|424:111|473:123,1,180,0|8
512,44,33749,2,0,B|516:20|504:-12,2,45,2|0|0
424,32,34092,2,0,B|376:32|340:68,1,90
168,32,34606,6,0,B|104:120|188:200,1,180,4|8
260,240,35120,2,0,B|260:216|268:188,2,45,0|0|2
252,328,35463,1,0
332,372,35634,1,8
416,344,35806,1,2
504,364,35977,2,0,B|516:308|472:272|472:272|512:200,2,180,0|8|0
416,344,36834,1,0
356,276,37006,2,0,B|336:232|368:176,1,90,8|2
448,160,37349,6,0,B|360:224|288:144,1,180,0|8
216,92,37863,2,0,B|116:52|60:140,1,180
36,228,38377,1,8
60,316,38549,1,2
144,284,38720,2,0,B|240:232|308:324,1,180,0|8
384,276,39234,2,0,B|404:260|412:228,2,45,2|0|0
380,368,39577,2,0,B|428:380|468:348,1,90,0|0
508,176,40092,6,0,B|528:76|440:20,1,180,4|8
404,104,40606,2,0,B|428:120|424:156,2,45,0|0|2
328,152,40949,2,0,B|276:168|228:128,1,90,0|8
141,0,41292,2,0,B|180:36|172:79,1,90,2|0
101,234,41634,2,0,B|113:182|156:168,1,90,2|8
243,139,41977,2,0,B|254:120|260:79,2,45,2|0|0
248,228,42320,1,0
328,272,42492,2,0,B|424:328|488:236,1,180,8|0
512,152,43006,5,2
488,64,43177,1,8
404,96,43349,2,0,B|304:128|248:36,2,180,0|0|2
396,184,44206,6,0,B|348:200|304:180,1,90,0|2
116,184,44549,2,0,B|164:200|208:180,1,90,0|2
408,272,44892,2,0,B|456:288|500:268,1,90,0|2
104,272,45234,2,0,B|56:288|12:268,1,90,0|2
176,328,45577,5,4
256,372,45749,1,0
332,328,45920,1,2
417,358,46092,2,0,B|429:310|404:267,1,90,2|0
496,268,46434,2,0,B|488:220|448:184,1,90,0|0
368,164,46777,2,0,B|319:160|285:194|285:194|252:228|204:220,2,180,0|0|0
436,104,47634,2,0,B|448:52|408:12,2,90,2|0|0
400,280,48320,6,0,B|439:301|487:289,1,90
316,252,48663,2,0,B|268:240|224:272,1,90,2|0
148,308,49006,1,2
64,276,49177,1,0
36,192,49349,1,2
76,112,49520,2,0,B|164:48|244:128,1,180
312,176,50034,2,0,B|360:180|400:160,1,90,2|0
476,208,50377,2,0,B|432:304|516:372,1,180,2|2
332,344,51063,6,0,B|287:363|249:327|249:327|207:295|163:311,1,180,4|8
104,244,51577,2,0,B|88:200|120:152,1,90,0|2
200,192,51920,2,0,B|296:244|360:148,1,180,0|0
416,224,52434,2,0,B|324:164|368:56,1,180,0|8
452,36,52949,2,0,B|476:36|500:24,2,45,2|0|0
363,69,53292,1,0
280,32,53463,2,0,B|172:-8|128:92,1,180,0|0
92,172,53977,5,2
116,260,54149,1,8
200,296,54320,2,0,B|300:352|364:260,2,180,0|0|2
128,345,55177,2,0,B|100:309|116:257,1,90,0|2
272,240,55520,2,0,B|300:276|284:328,1,90,8|0
212,380,55863,5,2
127,345,56034,1,0
116,260,56206,1,8
188,208,56377,2,0,B|184:176,3,22.5
188,208,56549,6,0,B|276:272|352:192,1,180,4|8
425,142,57063,2,0,B|453:186|432:228,1,90,0|2
352,88,57406,2,0,B|304:99|266:72,1,90,0|8
180,40,57749,1,2
180,40,57920,2,0,B|76:20|32:120,1,180,0|8
16,204,58434,1,2
88,260,58606,2,0,B|184:316|248:228,2,180,0|0|0
96,172,59463,6,0,B|36:168|4:220,1,90,2|8
72,348,59806,2,0,B|132:352|164:300,1,90,0|2
216,380,60149,2,0,B|252:340|240:292,1,90,0|8
220,208,60492,2,8,B|217:159|251:125|251:125|285:91|283:43,1,180,2|2
364,4,61006,1,8
444,44,61177,2,0,B|456:20|456:0,2,45,2|0|0
412,128,61520,2,0,B|396:176|432:216,1,90
304,340,62034,6,0,B|256:332|220:308|220:308|188:332|136:340,1,180,4|8
48,320,62549,1,0
4,240,62720,1,2
28,152,62892,1,0
112,120,63063,2,0,B|160:108|200:140,1,90,8|2
272,188,63406,2,0,B|364:236|436:160,1,180,0|8
484,84,63920,2,0,B|476:32,2,45,2|0|0
436,160,64263,1,0
496,228,64434,6,0,B|420:280|360:224|352:180,1,180,0|0
340,92,64949,1,2
260,52,65120,2,0,B|208:36|172:76,1,90,8|0
104,128,65463,2,0,B|52:148|16:104,2,90,2|0|8
176,184,65977,2,0,B|189:235|157:269|157:269|130:300|143:352,1,180,2|2
232,380,66492,1,8
320,356,66663,6,0,B|344:356|364:364,2,45,0|0|2
496,292,67006,1,0
320,244,67177,1,2
492,176,67349,2,0,B|456:184,3,22.5
492,176,67520,6,0,B|548:156|556:64|492:28,1,180,4|0
448,104,68034,2,0,B|400:128|360:104|360:104|320:80|272:104,1,180,2|2
203,159,68549,2,0,B|176:120|187:74,1,90,0|0
204,252,68892,2,0,B|183:296|138:309,1,90,2|0
284,208,69234,2,0,B|332:203|366:236,1,90,0|2
240,364,69749,2,0,B|333:419|408:336,1,180
488,368,70263,6,0,B|504:324|472:284|472:284|440:244|456:200,1,180
388,140,70777,2,0,B|296:84|220:172,1,180,2|2
148,212,71292,2,0,B|96:224|61:175,1,90,0|0
148,212,71634,2,0,B|172:244|192:316|128:360|92:364,1,180,2|0
72,272,72149,1,2
256,384,72492,1,0
440,272,72834,2,0,B|468:280,3,22.5,2|0|0|0
440,272,73006,6,0,B|424:225|459:190|459:190|493:158|484:101,1,180,4|8
420,44,73520,2,0,B|324:-16|248:72,1,180,2|2
263,152,74034,2,0,B|212:155|185:118,1,90,8|0
343,195,74377,2,0,B|366:149|412:144,1,90,2|0
268,240,74720,2,0,B|297:282|277:325,1,90,8|2
436,240,75234,2,0,B|384:204|380:120|452:84,1,180,2|2
488,168,75749,6,0,B|444:160|400:168|400:168|352:176|304:168,1,180,0|8
228,124,76263,2,0,B|120:92|72:208,1,180,2|2
52,276,76777,1,8
76,364,76949,1,0
164,380,77120,2,0,B|172:296|96:252|32:284,1,180,2|8
76,364,77634,1,2
256,240,77977,1,0
436,364,78320,2,0,B|468:376,3,22.5,2|0|0|0
436,364,78492,6,0,B|344:408|272:312,1,180,4|8
256,240,79006,2,0,B|276:200|256:152|256:152|240:104|256:64,1,180,2|2
336,108,79520,2,0,B|356:152|352:196,1,90,8|2
176,192,79863,2,0,B|156:152|160:104,2,90,0|2|8
256,240,80377,1,2
300,320,80549,2,0,B|256:348|212:320,2,90
468,384,81234,6,0,B|483:343|446:302|446:302|412:256|428:216,1,180,0|8
508,180,81749,2,0,B|428:252|336:176,1,180,2|2
296,108,82263,1,8
320,20,82434,1,2
380,88,82606,2,0,B|316:140|240:92|236:44,1,180,0|8
148,32,83120,2,0,B|140:80|172:120,1,90,2|0
424,168,83463,2,0,B|380:200|312:200,1,90
204,320,83977,6,0,B|126:372|62:320|50:271,1,180,4|8
140,252,84492,2,0,B|217:199|281:251|293:300,1,180,2|2
360,348,85006,2,0,B|408:368|444:332,1,90,8|2
492,256,85349,2,0,B|508:208|472:172|472:172|436:128|456:84,1,180,0|8
512,24,85863,2,0,B|480:-8|428:4,1,90,2|0
396,156,86206,2,0,B|428:188|480:176,1,90
312,244,86720,6,0,B|248:328|152:276,1,180,0|8
104,352,87234,2,0,B|188:280|128:188,1,180,2|2
220,184,87749,2,0,B|212:136|164:104,1,90,8|2
112,44,88092,6,0,B|108:20|120:-4,2,45,0|0|0
256,148,88434,2,0,B|256:100,2,45,2|0|0
400,44,88777,2,0,B|404:20|392:-4,2,45,0|0|2
492,232,89120,2,0,B|512:248,7,22.5
492,232,89463,6,0,B|400:292|328:200,1,180,4|8
256,148,89977,2,0,B|208:132|168:160,2,90,0|2|0
340,112,90492,2,0,B|388:132|432:96,1,90,8|2
276,56,90834,2,0,B|180:28|104:88,1,180,0|8
28,132,91349,2,0,B|4:128|-20:132,2,45,2|0|0
104,176,91692,1,0
60,256,91863,2,0,B|104:276|148:256|148:256|192:240|236:264,1,180
184,336,92377,6,0,B|224:364|276:344,1,90,2|8
104,176,92720,2,0,B|64:148|12:168,1,90,0|2
60,256,93063,1,0
92,340,93234,1,8
184,336,93406,2,0,B|230:351|264:312|264:312|299:273|348:284,1,180,2|2
424,328,93920,1,8
496,280,94092,2,0,B|516:276|548:288,2,45,2|0|0
440,212,94434,2,0,B|420:168|452:124,1,90
288,44,94949,6,0,B|236:32|192:64,1,90,0|2
128,112,95292,1,8
92,192,95463,1,0
112,280,95634,1,2
184,336,95806,2,0,B|276:384|356:300,1,180,0|2
416,364,96320,2,0,B|344:352|316:264|376:200,1,180,0|8
432,276,96834,2,0,B|460:276|492:288,2,45,2|0|0
358,224,97177,1,0
272,244,97349,2,0,B|188:176|248:80,1,180
320,132,97863,6,0,B|364:148|408:116,1,90,2|8
160,56,98206,2,0,B|112:44|72:72,1,90,0|2
12,136,98549,1,0
0,224,98720,1,8
64,288,98892,2,0,B|160:336|224:252,1,180,2|2
300,208,99406,1,8
384,244,99577,2,0,B|396:208|384:184,2,45,2|0|0
334,320,99920,2,0,B|372:348|424:328,1,90
160,364,100434,6,0,B|108:380|60:340,1,90,4|2
128,280,100777,2,0,B|74:267|52:208,1,90,8|0
144,188,101120,2,0,B|104:150|114:87,1,90,2|0
256,32,101463,2,0,B|256:128,2,90,8|2|0
399,106,101977,2,0,B|408:150|368:188,1,90,2|8
452,225,102320,2,0,B|438:267|384:280,1,90,2|0
437,350,102663,2,0,B|404:380|352:364,1,90
256,284,103006,1,2
159,364,103177,6,0,B|108:380|75:350,1,90,0|2
36,268,103520,2,0,B|21:227|60:187|60:187|98:147|81:102,1,180,8|2
156,56,104034,2,0,B|204:44|240:76,1,90,0|8
180,144,104377,1,2
268,164,104549,2,0,B|256:228|184:256|124:220,1,180,0|8
60,160,105063,2,0,B|61:133|43:102,2,45,2|0|0
44,248,105406,2,0,B|0:272|-8:324,1,90
168,344,105920,5,0
256,372,106092,1,2
340,340,106263,1,8
427,315,106434,2,0,B|412:264|368:254,1,90,0|2
87,180,106777,2,0,B|128:152|173:167,1,90,0|8
424,180,107120,2,0,B|384:152|336:168,1,90,2|0
83,315,107463,2,0,B|100:264|143:254,1,90,2|8
256,116,107806,2,0,B|240:68|256:16,1,90,2|0
256,288,108149,2,0,B|272:336|256:388,1,90
256,200,108492,1,2
336,244,108663,6,0,B|360:200|332:144,1,90,0|2
180,156,109006,2,0,B|156:199|178:242,1,90,8|0
256,288,109349,1,2
336,244,109520,2,0,B|365:213|446:200|480:286,1,180,0|0
396,312,110034,2,0,B|392:264|416:224|416:224|440:180|428:128,1,180,0|8
392,56,110549,2,0,B|380:32|392:0,2,45,2|0|0
312,96,110892,2,0,B|264:112|224:80,1,90
144,244,111406,6,0,B|168:200|152:148,2,90,4|0|0
200,316,111920,2,0,B|292:376|356:288,1,180,2|2
440,316,112434,2,0,B|460:272|424:224,1,90
504,180,112777,2,0,B|476:136|424:140,1,90,2|0
340,160,113120,1,0
264,208,113292,6,0,B|184:264|96:176|148:100,1,225,2|2
204,40,114320,5,0
292,64,114492,1,0
372,20,114663,2,0,B|392:68|372:108|372:108|348:152|372:192,1,180,2|2
452,148,115177,2,0,B|504:164|544:136,1,90,0|0
488,64,115520,1,2
488,64,116892,5,2
400,52,117063,1,0
320,96,117234,1,0
292,180,117406,2,0,B|281:228|318:259|318:259|359:298|343:344,1,180,2|2
264,384,117920,1,0
184,344,118092,2,0,B|136:336|96:368,2,90,0|2|0
264,384,118606,1,0
344,344,118777,6,0,B|392:316|400:240|360:184|292:180,1,225,2|2
204,168,119806,5,0
124,208,119977,1,0
36,188,120149,2,0,B|-36:164|-44:76|8:32,1,180,2|2
64,104,120663,2,0,B|168:80,2,90,0|0|2
