osu file format v9

[General]
AudioFilename: KaW - Take Me Back.mp3
AudioLeadIn: 0
PreviewTime: 45406
Countdown: 0
SampleSet: Normal
StackLeniency: 0.7
Mode: 0
LetterboxInBreaks: 0

[Editor]
Bookmarks: 77977,79863
DistanceSpacing: 1
BeatDivisor: 4
GridSize: 4

[Metadata]
Title:Take Me Back
Artist:KaW
Creator:Niva
Version:Easy
Source:
Tags:synthsations kyle ward mungyodance maya-kira nivalis

[Difficulty]
HPDrainRate:1
CircleSize:3
OverallDifficulty:1
ApproachRate:2
SliderMultiplier:0.799999999999999
SliderTickRate:2

[Events]
//Background and Video events
0,0,"kyaa gtrholic so pro.jpg"
//Break Periods
//Storyboard Layer 0 (Background)
//Storyboard Layer 1 (Fail)
//Storyboard Layer 2 (Pass)
//Storyboard Layer 3 (Foreground)
//Storyboard Sound Samples
//Background Colour Transformations
3,100,163,162,255

[TimingPoints]
1692,342.857142857143,4,2,0,68,1,0
22863,-100,4,1,0,50,0,0
23034,-100,4,2,0,68,0,0
23292,-100,4,1,0,50,0,0
23377,-100,4,2,0,68,0,0
23634,-100,4,2,0,68,0,1
23677,-100,4,2,0,68,0,0
24920,-100,4,1,0,50,0,0
25177,-100,4,2,0,68,0,0
25692,-100,4,1,0,50,0,0
26463,-100,4,2,0,68,0,0
27749,-100,4,1,1,50,0,0
29206,-100,4,2,0,68,0,0
30320,-100,4,1,0,50,0,0
31949,-100,4,2,0,68,0,0
33234,-100,4,1,1,50,0,0
34434,-100,4,2,0,68,0,0
35892,-100,4,1,0,50,0,0
36063,-100,4,2,0,68,0,0
36663,-100,4,1,0,50,0,0
37434,-100,4,2,0,68,0,0
38720,-100,4,1,1,50,0,0
40177,-100,4,2,0,68,0,0
41292,-100,4,1,1,50,0,0
43006,-100,4,2,0,68,0,0
44206,-100,4,1,1,50,0,0
44377,-100,4,2,0,68,0,0
44892,-100,4,2,0,58,0,0
45063,-100,4,2,0,48,0,0
45577,-100,4,2,0,68,0,0
46863,-100,4,1,0,30,0,0
47034,-100,4,2,0,68,0,0
47892,-100,4,1,0,30,0,0
48406,-100,4,2,0,68,0,0
49606,-100,4,1,0,30,0,0
50206,-100,4,2,0,68,0,0
52434,-100,4,1,0,50,0,0
53892,-100,4,2,0,68,0,0
55006,-100,4,1,0,50,0,0
55263,-100,4,2,0,68,0,0
57834,-100,4,1,0,50,0,0
58692,-100,4,2,0,68,0,0
59292,-100,4,1,0,50,0,0
59463,-100,4,2,0,68,0,0
60663,-100,4,1,0,50,0,0
61434,-100,4,2,0,68,0,0
62034,-100,4,1,0,50,0,0
62206,-100,4,2,0,68,0,0
63406,-100,4,1,0,50,0,0
64177,-100,4,2,0,68,0,0
64777,-100,4,1,0,50,0,0
64949,-100,4,2,0,68,0,0
66149,-100,4,1,1,50,0,0
67349,-100,4,2,0,68,0,0
68806,-100,4,1,1,50,0,0
68977,-100,4,2,1,68,0,0
69406,-100,4,1,1,50,0,0
69492,-100,4,2,0,68,0,0
70177,-100,4,1,0,50,0,0
70349,-100,4,2,0,68,0,0
71549,-100,4,1,0,50,0,0
71720,-100,4,2,0,68,0,0
72149,-100,4,1,0,50,0,0
72577,-100,4,2,0,68,0,0
73006,-100,4,1,0,50,0,0
73606,-100,4,2,0,68,0,0
73863,-100,4,1,0,50,0,0
74463,-100,4,2,0,68,0,0
74892,-100,4,1,0,50,0,0
74977,-100,4,2,0,68,0,0
75577,-100,4,1,0,50,0,0
75920,-100,4,2,0,68,0,0
77034,-100,4,1,0,50,0,0
77206,-100,4,2,0,68,0,0
77634,-100,4,1,0,50,0,0
78063,-100,4,2,0,68,0,0
78920,-100,4,1,0,50,0,0
79092,-100,4,2,0,68,0,0
79349,-100,4,1,0,50,0,0
79949,-100,4,2,0,68,0,0
80549,-100,4,1,1,50,0,0
81320,-100,4,2,0,68,0,0
82520,-100,4,1,0,50,0,0
82692,-100,4,2,0,68,0,0
83292,-100,4,1,1,50,0,0
84063,-100,4,2,0,68,0,0
85263,-100,4,1,0,50,0,0
85434,-100,4,2,0,68,0,0
86034,-100,4,1,1,50,0,0
86806,-100,4,2,0,68,0,0
87920,-100,4,1,0,50,0,0
88263,-100,4,2,0,68,0,0
88606,-100,4,1,0,50,0,0
88949,-100,4,2,0,68,0,0
89463,-100,4,2,0,68,0,1
89506,-100,4,2,0,68,0,0
90492,-100,4,1,0,50,0,0
91606,-100,4,2,0,68,0,0
91863,-100,4,1,0,50,0,0
92292,-100,4,2,0,68,0,0
93492,-100,4,1,0,50,0,0
93663,-100,4,2,0,68,0,0
94263,-100,4,1,0,50,0,0
95034,-100,4,2,0,68,0,0
96234,-100,4,1,0,50,0,0
96406,-100,4,2,0,68,0,0
97006,-100,4,1,0,50,0,0
97777,-100,4,2,0,68,0,0
98977,-100,4,1,0,50,0,0
99149,-100,4,2,0,68,0,0
99749,-100,4,1,0,50,0,0
100349,-100,4,2,0,68,0,0
101720,-100,4,1,0,50,0,0
101892,-100,4,2,0,68,0,0
102834,-100,4,1,0,50,0,0
103263,-100,4,2,0,68,0,0
104549,-100,4,1,0,50,0,0
105320,-100,4,2,0,68,0,0
105577,-100,4,1,0,50,0,0
106006,-100,4,2,0,68,0,0
107206,-100,4,1,0,50,0,0
107377,-100,4,2,0,68,0,0
108320,-100,4,1,0,50,0,0
108749,-100,4,2,0,68,0,0
110034,-100,4,1,0,50,0,0
111234,-100,4,2,0,68,0,0
115520,-100,4,2,0,30,0,0
116720,-100,4,2,0,68,0,0
121006,-100,4,2,0,30,0,0

[Colours]
Combo1 : 151,255,244
Combo2 : 79,160,251
SliderBorder : 191,254,249

[HitObjects]
32,280,12663,2,0,B|76:280|102:308|102:308|136:340|176:340,1,160
336,340,14034,2,0,B|376:339|409:308|409:308|436:279|480:279,1,160,2|0
512,204,15063,1,0
448,156,15406,6,0,B|372:100|404:12,1,160
268,104,16777,2,0,B|213:144|142:115|131:56,1,160,2|0
212,40,17806,1,0
284,4,18149,6,0,B|327:-6|358:21|358:21|391:53|436:39,1,160
512,180,19520,2,0,B|552:272|464:328,1,160,2|0
400,348,20549,1,0
332,308,20892,6,0,B|244:268|188:348,1,160
64,248,22263,1,2
112,96,22949,2,0,B|124:56|104:16,2,79.9999999999999,0|0|4
268,60,24320,5,2
388,168,25006,2,0,B|436:252|364:316,1,160
212,272,26377,6,0,B|124:244|68:324,2,160,0|2|0
360,332,28434,1,2
396,260,28777,1,0
364,188,29120,6,0,B|320:108|392:40,1,160,0|2
256,136,30492,1,0
124,44,31177,1,0
68,104,31520,1,0
36,176,31863,6,0,B|-4:260|48:336,2,160,0|2|0
180,244,33920,1,2
256,220,34263,1,0
332,244,34606,6,0,B|344:208|316:168|316:168|288:128|304:88,1,160,4|2
436,4,35977,2,0,B|424:40|452:80|452:80|480:120|464:160,1,160
484,236,37006,1,0
416,280,37349,6,0,B|336:328|276:248,2,160,0|2|0
496,140,39406,2,0,B|460:128|435:88,1,79.9999999999999,2|0
380,32,40092,6,0,B|292:-8|240:72,1,160,0|2
176,216,41463,1,0
232,364,42149,1,0
312,368,42492,1,0
376,316,42834,6,0,B|468:288|516:368,2,160,0|2|0
312,368,44549,2,0,B|288:336|296:284,1,79.9999999999999,2|0
216,308,45234,2,0,B|208:260|244:228,1,79.9999999999999,2|4
376,156,46263,5,2
252,56,46949,2,0,B|160:24|112:104,1,160,0|2
92,180,47977,1,0
124,252,48320,6,0,B|160:276|200:252|200:252|236:232|276:252,1,160,0|2
408,344,49692,1,0
468,196,50377,2,0,B|504:112|424:44,1,160,2|4
360,20,51406,5,8
288,52,51749,2,0,B|196:84|152:4,1,160,2|0
44,120,53120,1,0
136,252,53806,6,0,B|181:262|208:228|208:228|236:198|284:203,1,160,0|2
352,240,54834,1,8
420,200,55177,2,0,B|464:120|384:48,1,160,0|2
316,32,56206,1,8
240,60,56549,6,0,B|148:96|96:16,1,160,4|2
16,156,57920,1,0
96,296,58606,2,0,B|180:336|244:256,1,160
296,204,59634,5,8
364,164,59977,2,0,B|452:132|504:212,1,160,2|0
416,344,61349,2,0,B|376:324|340:344|340:344|300:368|260:344,1,160
240,268,62377,5,8
184,328,62720,2,0,B|147:293|142:224|205:192,1,160,2|0
356,240,64092,2,0,B|444:280|496:196,1,160
468,124,65120,5,8
388,140,65463,2,0,B|343:147|315:117|315:117|284:83|238:94,1,160,2|0
140,216,66834,1,2
128,296,67177,1,8
184,352,67520,6,0,B|272:400|328:320,1,160,4|2
356,168,68892,2,0,B|384:104|316:52,2,120,0|0|2
336,244,70263,6,0,B|308:332|392:384,1,160,0|2
480,248,71634,2,0,B|520:200|496:132,1,120
452,68,72492,2,0,B|400:28|332:60,1,120
252,140,73520,6,0,B|208:216,1,79.9999999999999
128,296,74377,2,0,B|60:312|20:256,2,120,0|0|2
204,268,75749,6,0,B|292:228|348:312,1,160,0|2
500,344,77120,2,0,B|468:284|516:228,1,120
472,164,77977,2,0,B|408:148|392:76,1,120,0|4
288,24,79006,6,0,B|252:44|208:44,1,79.9999999999999,0|0
104,100,79863,2,0,B|44:176|104:252,1,160
168,288,80892,1,2
240,256,81234,6,0,B|328:224|380:304,1,160,0|2
504,200,82606,2,0,B|517:155|485:126|485:126|452:93|466:48,1,160
392,20,83634,1,2
320,56,83977,6,0,B|236:96|172:16,1,160,0|2
60,128,85349,2,0,B|100:200|192:220,1,160
256,260,86377,1,2
326,218,86720,6,0,B|412:200|452:128,1,160,0|2
328,28,88092,1,0
260,68,88434,1,2
180,80,88777,1,0
100,68,89120,1,8
44,124,89463,6,0,B|4:208|80:268,1,160,4|2
232,224,90834,1,0
376,296,91520,1,0
456,280,91863,1,0
484,204,92206,6,0,B|412:140|472:60,1,160,0|2
312,92,93577,2,0,B|224:136|168:44,1,160
104,12,94606,1,0
96,92,94949,6,0,B|116:128|148:152|148:152|124:180|120:228,1,160,0|2
212,356,96320,2,0,B|300:404|352:320,1,160
384,252,97349,1,0
348,180,97692,6,0,B|292:104|364:36,1,160,0|2
208,76,99063,2,0,B|172:100|132:76|132:76|96:52|48:76,1,160
12,140,100092,1,0
40,216,100434,6,0,B|64:280|132:276|132:276|148:344|220:352,1,240,4|2
296,351,101806,2,0,B|365:344|381:276|381:276|449:280|477:216,1,240
396,192,103177,2,0,B|368:204|336:188|336:188|272:204|256:240|256:240|240:204|180:188|180:188|148:204|116:192,1,320
256,104,105234,5,0
176,88,105577,1,0
112,136,105920,6,0,B|83:226|130:303|225:326,1,240,0|2
294,323,107292,2,0,B|377:303|424:226|396:136,1,240
316,144,108663,6,0,B|360:224|304:248|248:296|208:244|144:228|192:140,1,320
60,52,110720,1,0
24,124,111063,1,0
67,190,111406,6,0,B|91:254|39:302,2,120,4|2|0
106,119,112777,2,0,B|170:135|218:87,1,120,0|2
413,52,114149,6,0,B|380:116|436:165,1,120,0|2
460,236,115006,2,0,B|428:352,1,120,0|2
428,352,116892,6,0,B|358:373|320:316,2,120,2|2|0
496,308,118263,2,0,B|456:248|388:280,1,120,0|2
204,348,119634,6,0,B|140:380|96:316,1,120,0|2
84,240,120492,2,0,B|108:116,1,120,0|2
