osu file format v14

[General]
AudioFilename: 01. At Gwanghwamun.mp3
AudioLeadIn: 0
PreviewTime: 73070
Countdown: 0
SampleSet: Soft
StackLeniency: 0.7
Mode: 0
LetterboxInBreaks: 0
WidescreenStoryboard: 0

[Editor]
Bookmarks: 14835,72629,165718
DistanceSpacing: 1
BeatDivisor: 2
GridSize: 4
TimelineZoom: 1

[Metadata]
Title:At Gwanghwamun
TitleUnicode:광화문에서
Artist:KYUHYUN
ArtistUnicode:규현
Creator:Cerulean Veyron
Version:Normal
Source:
Tags:Soul Ballad KH Super Junior SJ SuJu 슈퍼주니어 KT뮤직 SM엔터테인먼트 S.M.Entertainment KT MUSIC 1st Mini Album EP
BeatmapID:1090644
BeatmapSetID:513268

[Difficulty]
HPDrainRate:4
CircleSize:3
OverallDifficulty:3
ApproachRate:5
SliderMultiplier:1.3
SliderTickRate:1

[Events]
//Background and Video events
0,0,"wp1.jpg",0,0
Video,-260,"vby.avi"
//Break Periods
2,103070,108929
2,216012,227606
//Storyboard Layer 0 (Background)
//Storyboard Layer 1 (Fail)
//Storyboard Layer 2 (Pass)
//Storyboard Layer 3 (Foreground)
//Storyboard Sound Samples

[TimingPoints]
718,882.352941176471,4,2,1,40,1,0
73070,-100,4,2,1,50,0,0
99541,-100,4,2,1,30,0,0
110129,-100,4,2,1,40,0,0
166600,-100,4,2,2,70,0,1
212482,-100,4,2,1,50,0,0
230129,-100,4,2,2,85,0,1
244137,-100,4,2,2,85,0,0
244247,-100,4,2,2,85,0,1
258365,-100,4,2,1,40,0,0
258806,-100,4,2,1,30,0,0
259688,-100,4,2,1,20,0,0
260570,-100,4,2,1,10,0,0
261453,-100,4,2,1,5,0,0

[Colours]
Combo1 : 231,212,184
Combo2 : 244,228,136
Combo3 : 191,168,127
Combo4 : 127,102,31

[HitObjects]
322,59,14835,6,0,P|268:60|201:105,1,130,0|0,0:0|0:0,0:0:0:0:
172,156,16159,1,0,0:0:0:0:
156,219,16600,2,0,B|143:253|143:253|61:311,2,130,0|2|0,0:0|0:0|0:0,0:0:0:0:
233,114,19247,1,0,0:0:0:0:
291,143,19688,1,0,0:0:0:0:
355,155,20129,2,0,B|412:147|412:147|448:130|463:85,2,130,0|2|0,0:0|0:0|0:0,0:0:0:0:
229,189,22776,6,0,L|265:242,1,65,2|0,0:0|0:0,0:0:0:0:
321,277,23659,2,0,P|273:319|210:330,1,130,2|0,0:0|0:0,0:0:0:0:
87,286,25423,2,0,P|56:281|23:283,2,65,0|0|0,0:0|0:0|0:0,0:0:0:0:
142,321,26747,1,0,0:0:0:0:
142,321,27188,2,0,L|156:169,1,130,2|0,0:0|0:0,0:0:0:0:
50,113,28953,6,0,P|109:70|173:62,1,130,0|0,0:0|0:0,0:0:0:0:
227,77,30276,1,0,0:0:0:0:
284,109,30718,2,0,B|347:106|347:106|421:70,2,130,0|2|0,0:0|0:0|0:0,0:0:0:0:
166,165,33365,1,0,0:0:0:0:
149,228,33806,1,0,0:0:0:0:
99,269,34247,2,0,P|178:282|219:329,2,130,0|2|0,0:0|0:0|0:0,0:0:0:0:
15,169,36894,6,0,P|44:148|79:140,1,65,2|0,0:0|0:0,0:0:0:0:
109,87,37776,2,0,B|147:110|147:110|233:120,1,130,2|0,0:0|0:0,0:0:0:0:
352,70,39541,2,0,L|431:61,2,65,0|0|0,0:0|0:0|0:0,0:0:0:0:
291,48,40865,1,0,0:0:0:0:
291,48,41306,2,0,P|287:118|327:168,1,130,0|2,0:0|0:0,0:0:0:0:
412,256,43070,6,0,L|445:200,2,65,0|0|2,0:0|0:0|0:0,0:0:0:0:
413,321,44394,1,0,0:0:0:0:
354,348,44835,2,0,P|300:315|232:303,1,130,2|0,0:0|0:0,0:0:0:0:
172,319,46159,1,0,0:0:0:0:
172,319,46600,2,0,L|142:187,1,130,2|0,0:0|0:0,0:0:0:0:
61,91,48365,2,0,B|102:111|152:111|152:111|183:93,1,130,2|0,0:0|0:0,0:0:0:0:
237,57,49688,1,0,0:0:0:0:
237,57,50129,6,0,P|218:119|229:183,1,130,0|0,0:0|0:0,0:0:0:0:
176,301,51894,2,0,B|238:284|238:284|303:287,1,130,2|0,0:0|0:0,0:0:0:0:
361,318,53218,1,0,0:0:0:0:
402,268,53659,2,0,B|420:245|420:204|389:182|389:182|387:146|433:144|426:87,1,195,0|0,0:0|0:0,0:0:0:0:
390,41,55423,2,0,P|326:27|263:47,1,130,0|2,0:0|0:0,0:0:0:0:
136,47,57188,6,0,P|179:94|200:155,1,130,0|2,0:0|0:0,0:0:0:0:
135,268,58953,2,0,B|153:303|153:303|204:315|252:297,1,130,2|0,0:0|0:0,0:0:0:0:
300,270,60276,1,0,0:0:0:0:
300,270,60718,2,0,L|433:286,1,130,2|0,0:0|0:0,0:0:0:0:
506,180,62482,2,0,P|441:185|374:166,1,130,2|0,0:0|0:0,0:0:0:0:
321,139,63806,1,0,0:0:0:0:
321,139,64247,6,0,B|292:106|292:106|249:121|200:108,1,130,2|0,0:0|0:0,0:0:0:0:
86,63,66012,2,0,B|72:160|72:160|91:203,1,130,2|0,0:0|0:0,0:0:0:0:
141,222,67335,1,0,0:0:0:0:
135,287,67776,2,0,P|206:254|341:270,1,195,0|0,0:0|0:0,0:0:0:0:
371,302,69541,2,0,L|248:349,1,130,2|0,0:0|0:0,0:0:0:0:
135,287,71306,2,0,L|258:240,1,130,0|0,0:0|0:0,0:0:0:0:
269,177,72629,1,0,0:0:0:0:
269,177,73070,6,0,P|264:240|302:298,1,130,4|2,0:0|0:3,0:0:0:0:
363,303,74394,1,0,0:0:0:0:
413,262,74835,2,0,P|445:258|476:263,2,65,2|0|2,0:0|0:0|0:3,0:0:0:0:
363,304,76159,1,0,0:0:0:0:
363,304,76600,2,0,L|396:173,1,130,2|2,0:0|0:3,0:0:0:0:
412,115,77923,1,0,0:0:0:0:
374,62,78365,2,0,B|342:53|319:84|319:84|282:66|256:88,1,130,2|2,0:0|0:3,0:0:0:0:
162,177,80129,6,0,L|155:244,2,65,2|0|2,0:0|0:0|0:3,0:0:0:0:
258,264,81894,2,0,L|251:331,2,65,2|0|2,0:0|0:0|0:3,0:0:0:0:
265,199,83218,1,0,0:0:0:0:
265,199,83659,2,0,P|288:259|339:299,1,130,2|2,0:0|0:3,0:0:0:0:
403,294,84982,1,0,0:0:0:0:
436,238,85423,2,0,P|413:178|362:138,1,130,2|2,0:0|0:3,0:0:0:0:
300,120,86747,1,0,0:0:0:0:
300,120,87188,6,0,B|285:137|258:142|258:142|166:128,1,130,4|2,0:0|0:3,0:0:0:0:
122,95,88512,1,0,0:0:0:0:
76,141,88953,2,0,L|104:278,1,130,2|2,0:0|0:3,0:0:0:0:
209,342,90718,2,0,B|227:313|227:313|233:251|233:251|252:223,1,130,2|2,0:0|0:3,0:0:0:0:
260,159,92041,1,0,0:0:0:0:
260,159,92482,2,0,B|294:229|294:229|308:251|338:253,1,130,2|2,0:0|0:3,0:0:0:0:
467,241,94247,6,0,P|494:221|512:186,2,65,2|0|2,0:0|0:0|0:3,0:0:0:0:
391,135,96012,2,0,P|371:108|336:90,2,65,2|0|2,0:0|0:0|0:3,0:0:0:0:
395,200,97335,1,0,0:0:0:0:
330,201,97776,2,0,B|296:208|296:208|272:228,1,65,2|0,0:0|0:0,0:0:0:0:
258,291,98659,2,0,P|241:226|197:165,1,130,2|2,0:3|0:0,0:0:0:0:
206,174,110129,6,0,P|271:157|332:113,1,130,4|2,0:0|0:0,0:0:0:0:
357,67,111453,1,0,0:0:0:0:
415,96,111894,2,0,B|460:181|460:181|466:237,2,130,0|8|0,0:0|0:0|0:0,0:0:0:0:
296,43,114541,1,2,0:0:0:0:
233,58,114982,1,0,0:0:0:0:
168,64,115423,2,0,B|122:58|85:78|85:78|55:139,2,130,0|8|0,0:0|0:0|0:0,0:0:0:0:
170,194,118070,6,0,L|142:265,1,65,2|0,0:0|0:0,0:0:0:0:
94,294,118953,2,0,B|140:284|140:284|167:314|213:319,1,130,0|8,0:0|0:0,0:0:0:0:
333,269,120718,2,0,P|365:272|394:285,2,65,0|0|2,0:0|0:0|0:0,0:0:0:0:
269,281,122041,1,0,0:0:0:0:
269,281,122482,2,0,P|204:272|148:236,1,130,0|8,0:0|0:0,0:0:0:0:
43,165,124247,6,0,P|108:156|164:120,1,130,4|2,0:0|0:0,0:0:0:0:
196,67,125570,1,0,0:0:0:0:
258,48,126012,2,0,B|289:46|313:69|313:69|340:93|377:88,2,130,0|8|0,0:0|0:0|0:0,0:0:0:0:
128,61,128659,1,2,0:0:0:0:
153,121,129100,1,0,0:0:0:0:
141,185,129541,2,0,L|118:317,2,130,0|8|0,0:0|0:0|0:0,0:0:0:0:
259,239,132188,6,0,L|272:165,1,65,2|0,0:0|0:0,0:0:0:0:
267,110,133070,2,0,P|282:168|341:160,1,130,0|8,0:0|0:0,0:0:0:0:
403,46,134835,2,0,P|428:60|454:93,2,65,0|0|2,0:0|0:0|0:0,0:0:0:0:
339,33,136159,1,0,0:0:0:0:
339,33,136600,2,0,L|371:174,1,130,0|8,0:0|0:0,0:0:0:0:
418,280,138365,6,0,B|321:270|321:270|289:276,1,130,4|2,0:0|0:0,0:0:0:0:
228,299,139688,1,0,0:0:0:0:
228,299,140129,2,0,B|198:306|164:299|164:299|144:271|146:237,1,130,0|8,0:0|0:0,0:0:0:0:
79,126,141894,2,0,B|145:108|145:108|220:125,1,130,0|2,0:0|0:0,0:0:0:0:
255,163,143218,1,0,0:0:0:0:
255,163,143659,2,0,P|314:158|297:95,1,130,0|8,0:0|0:0,0:0:0:0:
421,38,145423,6,0,P|447:100|445:180,1,130,0|2,0:0|0:0,0:0:0:0:
411,215,146747,1,0,0:0:0:0:
367,263,147188,2,0,B|343:289|349:333|349:333|314:326|283:341|283:341|271:303|233:292,1,195,0|0,0:0|0:0,0:0:0:0:
188,288,148953,2,0,P|136:305|63:291,1,130,0|2,0:0|0:0,0:0:0:0:
23,167,150718,2,0,B|75:150|75:150|148:164,1,130,0|8,0:0|0:0,0:0:0:0:
274,200,152482,6,0,P|279:127|313:74,1,130,4|2,0:0|0:0,0:0:0:0:
363,45,153806,1,0,0:0:0:0:
363,45,154247,2,0,P|368:117|402:171,1,130,0|8,0:0|0:0,0:0:0:0:
462,278,156012,2,0,B|440:269|420:281|420:281|399:289|378:282|378:282|359:271|336:284,1,130,0|2,0:0|0:0,0:0:0:0:
292,331,157335,1,0,0:0:0:0:
292,331,157776,2,0,B|256:280|256:280|229:303|192:296,1,130,0|8,0:0|0:0,0:0:0:0:
65,322,159541,6,0,B|98:280|100:238|100:238|87:188,1,130,0|2,0:0|0:0,0:0:0:0:
50,151,160865,1,0,0:0:0:0:
50,151,161306,2,0,B|125:187|125:187|153:178|182:192|182:192|212:206|233:191,1,195,0|0,0:0|0:0,0:0:0:0:
278,145,163070,2,0,B|302:137|325:139|325:139|345:152|359:170|359:170|404:163,1,130,4|8,0:0|0:3,0:0:0:0:
495,247,164835,2,0,P|433:256|395:312,1,130,8|8,0:3|0:3,0:0:0:0:
358,361,166159,1,4,0:3:0:0:
358,361,166600,6,0,P|337:299|338:235,1,130,4|0,0:0|1:0,0:0:0:0:
358,173,167923,1,2,0:3:0:0:
401,124,168365,2,0,P|417:98|426:63,2,65,2|2|0,0:0|0:3|1:0,0:0:0:0:
358,173,169688,1,2,0:3:0:0:
358,173,170129,2,0,B|332:151|332:151|272:141|272:141|245:120,1,130,2|0,0:0|1:0,0:0:0:0:
191,82,171453,1,2,0:3:0:0:
155,28,171894,2,0,P|159:99|121:157,1,130,2|0,0:0|1:0,0:0:0:0:
49,249,173659,6,0,P|50:279|62:315,2,65,2|2|0,0:0|0:3|1:0,0:0:0:0:
167,302,175423,2,0,P|166:332|154:368,2,65,2|2|0,0:0|0:3|1:0,0:0:0:0:
154,238,176747,1,2,0:3:0:0:
154,238,177188,2,0,B|223:293|223:293|276:300,1,130,2|0,0:0|1:0,0:0:0:0:
328,286,178512,1,2,0:3:0:0:
383,251,178953,2,0,P|403:189|398:124,1,130,2|0,0:0|1:0,0:0:0:0:
369,67,180276,1,2,0:3:0:0:
369,67,180718,6,0,L|320:187,1,130,4|0,0:0|1:0,0:0:0:0:
266,224,182041,1,2,0:3:0:0:
202,234,182482,2,0,P|181:297|193:360,1,130,2|0,0:0|1:0,0:0:0:0:
311,304,184247,2,0,L|452:286,1,130,2|0,0:0|1:0,0:0:0:0:
488,244,185570,1,2,0:3:0:0:
488,244,186012,2,0,P|419:249|364:223,1,130,2|0,0:0|1:0,0:0:0:0:
334,98,187776,6,0,P|366:96|398:100,2,65,4|2|0,0:0|0:3|1:0,0:0:0:0:
241,189,189541,2,0,P|236:221|239:253,2,65,2|2|0,0:0|0:3|1:0,0:0:0:0:
263,128,190865,1,2,0:3:0:0:
208,94,191306,2,0,L|146:119,1,65,4|2,0:0|0:3,0:0:0:0:
84,105,192188,2,0,B|124:125|124:125|107:168|111:209,1,130,0|2,1:0|0:0,0:0:0:0:
159,329,193953,1,8,1:3:0:0:
223,341,194394,1,4,0:3:0:0:
287,329,194835,6,0,P|344:289|376:237,1,130,4|0,0:0|1:0,0:0:0:0:
383,174,196159,1,0,0:0:0:0:
383,174,196600,2,0,B|336:201|336:201|259:211,1,130,2|0,0:0|1:0,0:0:0:0:
196,206,197923,1,0,0:0:0:0:
138,176,198365,2,0,L|57:170,2,65,2|0|0,0:0|0:0|1:0,0:0:0:0:
196,147,199688,1,0,0:0:0:0:
196,147,200129,2,0,P|267:120|323:130,1,130,2|8,0:0|1:3,0:0:0:0:
435,70,201894,6,0,P|422:144|386:188,1,130,4|0,0:0|1:0,0:0:0:0:
381,315,203659,2,0,P|322:267|302:213,1,130,2|0,0:0|1:0,0:0:0:0:
325,90,205423,2,0,P|294:86|262:94,1,65,2|0,0:0|0:0,0:0:0:0:
205,126,206306,2,0,B|173:134|173:134|141:130,1,65,0|0,1:0|0:0,0:0:0:0:
82,103,207188,2,0,P|72:166|85:230,1,130,2|0,0:0|1:0,0:0:0:0:
256,192,208953,12,2,212482,0:0:0:0:
92,232,228806,6,0,L|155:245,1,65,8|4,0:3|0:3,0:0:0:0:
219,231,229688,1,4,0:3:0:0:
219,231,230129,6,0,B|188:280|188:280|183:318|201:349,1,130,4|0,0:0|1:0,0:0:0:0:
263,370,231453,1,2,0:3:0:0:
324,347,231894,2,0,L|395:352,2,65,2|2|0,0:0|0:3|1:0,0:0:0:0:
280,299,233218,1,2,0:3:0:0:
280,299,233659,2,0,P|345:299|395:255,1,130,2|0,0:0|1:0,0:0:0:0:
403,195,234982,1,2,0:3:0:0:
355,151,235423,2,0,B|268:168|268:168|237:196,1,130,2|0,0:0|1:0,0:0:0:0:
215,324,237188,6,0,B|249:327|249:327|279:318,2,65,2|2|0,0:0|0:3|1:0,0:0:0:0:
114,242,238953,2,0,B|80:239|80:239|49:247,2,65,2|2|0,0:0|0:3|1:0,0:0:0:0:
171,273,240276,1,2,0:3:0:0:
171,273,240718,2,0,P|151:206|166:147,1,130,2|0,0:0|1:0,0:0:0:0:
206,99,242041,1,2,0:3:0:0:
206,99,242482,2,0,B|211:146|211:146|273:206,1,130,2|8,0:0|1:3,0:0:0:0:
334,218,243806,1,4,0:3:0:0:
334,218,244247,6,0,P|274:210|209:245,1,130,4|0,0:0|1:0,0:0:0:0:
182,297,245570,1,2,0:3:0:0:
119,313,246012,2,0,B|63:275|63:275|38:217,1,130,2|0,0:0|1:0,0:0:0:0:
49,88,247776,2,0,P|92:135|166:161,1,130,2|0,0:0|1:0,0:0:0:0:
217,153,249100,1,2,0:3:0:0:
276,126,249541,2,0,B|310:124|339:140|339:140|370:124|379:91,1,130,2|0,0:0|1:0,0:0:0:0:
507,72,251306,6,0,L|497:154,2,65,4|2|0,0:0|0:3|1:0,0:0:0:0:
399,144,253070,2,0,L|409:62,2,65,2|2|0,0:0|0:3|1:0,0:0:0:0:
421,205,254394,1,2,0:3:0:0:
421,205,254835,2,0,P|359:205|319:254,1,130,2|0,0:0|1:0,0:0:0:0:
256,192,256600,12,2,262335,0:0:0:0:
