osu file format v14

[General]
AudioFilename: 01. At Gwanghwamun.mp3
AudioLeadIn: 0
PreviewTime: 73070
Countdown: 0
SampleSet: Soft
StackLeniency: 0.7
Mode: 0
LetterboxInBreaks: 0
WidescreenStoryboard: 0

[Editor]
Bookmarks: 14835,72629,165718
DistanceSpacing: 1.2
BeatDivisor: 4
GridSize: 4
TimelineZoom: 1

[Metadata]
Title:At Gwanghwamun
TitleUnicode:광화문에서
Artist:KYUHYUN
ArtistUnicode:규현
Creator:Cerulean Veyron
Version:Hard
Source:
Tags:Soul Ballad KH Super Junior SJ SuJu 슈퍼주니어 KT뮤직 SM엔터테인먼트 S.M.Entertainment KT MUSIC 1st Mini Album EP
BeatmapID:1100475
BeatmapSetID:513268

[Difficulty]
HPDrainRate:5
CircleSize:4
OverallDifficulty:4
ApproachRate:6
SliderMultiplier:1.4
SliderTickRate:1

[Events]
//Background and Video events
0,0,"wp1.jpg",0,0
Video,-260,"vby.avi"
//Break Periods
2,103070,109079
2,216012,227756
//Storyboard Layer 0 (Background)
//Storyboard Layer 1 (Fail)
//Storyboard Layer 2 (Pass)
//Storyboard Layer 3 (Foreground)
//Storyboard Sound Samples

[TimingPoints]
718,882.352941176471,4,2,1,40,1,0
73070,-100,4,2,1,50,0,0
99541,-100,4,2,1,30,0,0
110129,-100,4,2,1,40,0,0
166600,-83.3333333333333,4,2,2,70,0,1
212482,-100,4,2,1,50,0,0
230129,-76.9230769230769,4,2,2,85,0,1
244137,-76.9230769230769,4,2,2,85,0,0
244247,-76.9230769230769,4,2,2,85,0,1
258365,-100,4,2,1,40,0,0
258806,-100,4,2,1,30,0,0
259688,-100,4,2,1,20,0,0
260570,-100,4,2,1,10,0,0
261453,-100,4,2,1,5,0,0

[Colours]
Combo1 : 231,212,184
Combo2 : 244,228,136
Combo3 : 191,168,127
Combo4 : 127,102,31

[HitObjects]
254,160,14835,6,0,P|284:222|258:285,1,140,0|0,0:0|0:0,0:0:0:0:
199,226,16159,1,0,0:0:0:0:
185,309,16600,2,0,L|345:336,1,140,0|2,0:0|0:0,0:0:0:0:
416,247,18144,1,0,0:0:0:0:
416,247,18365,2,0,B|434:201|434:201|425:132,1,105,0|0,0:0|0:0,0:0:0:0:
417,105,19247,2,0,P|398:83|378:71,2,46.6666666666667,0|0|0,0:0|0:0|0:0,0:0:0:0:
389,153,20129,2,0,P|317:173|242:149,1,140,0|2,0:0|0:0,0:0:0:0:
187,107,21453,1,0,0:0:0:0:
108,78,21894,6,0,B|70:91|50:119|50:119|62:154|48:185,2,140,0|2|2,0:0|0:0|0:0,0:0:0:0:
274,50,24541,1,0,0:0:0:0:
396,165,25423,2,0,L|407:255,1,70,0|0,0:0|0:0,0:0:0:0:
478,275,26306,1,0,0:0:0:0:
417,333,26747,2,0,L|373:326,1,35,0|0,0:0|0:0,0:0:0:0:
347,305,27188,2,0,P|312:297|277:296,1,70,2|0,0:0|0:0,0:0:0:0:
197,323,28070,2,0,P|181:328|164:331,1,35,0|0,0:0|0:0,0:0:0:0:
125,315,28512,2,0,P|119:298|116:281,1,35,0|0,0:0|0:0,0:0:0:0:
124,240,28953,6,0,P|138:207|146:173,1,70,0|0,0:0|0:0,0:0:0:0:
125,91,29835,2,0,P|159:100|194:101,1,70,0|0,0:0|0:0,0:0:0:0:
232,82,30497,1,0,0:0:0:0:
232,82,30718,2,0,P|303:55|350:97,1,140,0|2,0:0|0:0,0:0:0:0:
380,169,32041,1,0,0:0:0:0:
463,181,32482,2,0,L|441:326,1,140,0|0,0:0|0:0,0:0:0:0:
295,238,34247,2,0,L|273:93,1,140,0|2,0:0|0:0,0:0:0:0:
214,41,35570,1,0,0:0:0:0:
135,71,36012,6,0,B|96:83|65:69|65:69|56:103|23:119,2,140,0|2|2,0:0|0:0|0:0,0:0:0:0:
300,102,38659,1,0,0:0:0:0:
194,232,39541,2,0,L|210:326,1,70,0|0,0:0|0:0,0:0:0:0:
261,363,40423,2,0,P|282:335|290:301,1,70,0|0,0:0|0:0,0:0:0:0:
291,259,41085,1,0,0:0:0:0:
291,259,41306,2,0,P|332:309|396:290,1,140,0|2,0:0|0:0,0:0:0:0:
439,217,42629,1,0,0:0:0:0:
382,155,43070,6,0,P|365:120|360:77,1,70,0|0,0:0|0:0,0:0:0:0:
391,11,43953,1,2,0:0:0:0:
308,24,44394,1,0,0:0:0:0:
225,37,44835,2,0,P|172:85|178:153,1,140,2|0,0:0|0:0,0:0:0:0:
237,206,46159,1,0,0:0:0:0:
237,206,46379,1,0,0:0:0:0:
237,206,46600,6,0,B|165:185|165:185|95:180,1,140,2|0,0:0|0:0,0:0:0:0:
194,320,48365,2,0,B|258:315|258:315|330:294,1,140,2|0,0:0|0:0,0:0:0:0:
394,239,49688,1,0,0:0:0:0:
476,256,50129,6,0,P|461:189|402:154,1,140,0|0,0:0|0:0,0:0:0:0:
319,148,51453,1,0,0:0:0:0:
246,190,51894,2,0,B|208:206|174:202|174:202|157:173|158:138,1,140,2|0,0:0|0:0,0:0:0:0:
163,97,52997,1,0,0:0:0:0:
163,97,53218,1,0,0:0:0:0:
222,37,53659,6,0,P|256:30|290:33,1,70,0|0,0:0|0:0,0:0:0:0:
343,100,54541,2,0,P|377:106|411:103,1,70,0|0,0:0|0:0,0:0:0:0:
438,70,55203,1,0,0:0:0:0:
438,70,55423,2,0,L|411:217,1,140,0|2,0:0|0:0,0:0:0:0:
380,285,56747,1,0,0:0:0:0:
299,308,57188,6,0,P|285:263|306:171,1,140,0|2,0:0|0:0,0:0:0:0:
420,52,58953,2,0,B|384:75|384:75|268:70,1,140,2|0,0:0|0:0,0:0:0:0:
206,46,60276,1,0,0:0:0:0:
206,46,60497,1,0,0:0:0:0:
206,46,60718,2,0,P|143:33|59:66,1,140,2|0,0:0|0:0,0:0:0:0:
52,222,62482,2,0,P|107:189|147:108,1,140,2|0,0:0|0:0,0:0:0:0:
87,63,63806,1,0,0:0:0:0:
169,46,64247,6,0,L|288:125,1,140,2|0,0:0|0:0,0:0:0:0:
314,202,65570,1,0,0:0:0:0:
385,158,66012,2,0,B|430:144|479:158|479:158|494:199,1,140,2|0,0:0|0:0,0:0:0:0:
507,240,67115,1,0,0:0:0:0:
507,240,67335,1,0,0:0:0:0:
459,309,67776,6,0,B|416:317|416:317|367:306,1,70,0|0,0:0|0:0,0:0:0:0:
361,232,68659,2,0,B|318:224|318:224|292:229,1,70,0|0,0:0|0:0,0:0:0:0:
223,277,69541,2,0,B|185:299|145:291|145:291|123:346|123:346|77:334|52:280|61:231,1,280,2|0,0:0|0:0,0:0:0:0:
42,66,72188,2,0,P|70:87|104:95,1,70,0|0,0:0|0:0,0:0:0:0:
255,69,73070,6,0,P|220:71|187:81,1,70,4|0,0:0|0:0,0:0:0:0:
314,140,73953,1,2,0:3:0:0:
416,79,74394,1,0,0:0:0:0:
416,79,74615,1,0,0:0:0:0:
416,79,74835,2,0,P|430:112|428:151,1,70,2|0,0:0|0:0,0:0:0:0:
353,263,75718,2,0,L|362:193,1,70,2|0,0:3|0:0,0:0:0:0:
383,343,76600,6,0,P|346:286|272:279,1,140,2|2,0:0|0:3,0:0:0:0:
302,357,77923,1,0,0:0:0:0:
177,342,78365,2,0,B|151:318|147:280|147:280|160:242|158:211,1,140,2|2,0:0|0:3,0:0:0:0:
49,148,79688,1,0,0:0:0:0:
49,148,79909,1,0,0:0:0:0:
49,148,80129,6,0,P|84:142|116:128,1,70,2|0,0:0|0:0,0:0:0:0:
177,72,81012,1,2,0:3:0:0:
327,58,81453,1,0,0:0:0:0:
327,58,81673,1,0,0:0:0:0:
327,58,81894,2,0,P|293:49|258:48,1,70,2|0,0:0|0:0,0:0:0:0:
391,112,82776,1,2,0:3:0:0:
259,159,83218,1,0,0:0:0:0:
259,159,83438,1,0,0:0:0:0:
258,159,83659,6,0,P|250:192|250:227,1,70,2|0,0:0|0:0,0:0:0:0:
289,243,84320,1,0,0:0:0:0:
289,243,84541,2,0,P|320:256|348:277,1,70,2|0,0:3|0:0,0:0:0:0:
254,361,85423,2,0,P|176:333|137:277,1,140,2|2,0:0|0:3,0:0:0:0:
250,239,86747,1,0,0:0:0:0:
75,236,87188,6,0,P|85:202|107:175,1,70,4|0,0:0|0:0,0:0:0:0:
253,163,88070,1,2,0:3:0:0:
177,125,88512,1,0,0:0:0:0:
301,87,88953,2,0,B|349:71|391:76|391:76|413:94|440:99,1,140,2|2,0:0|0:3,0:0:0:0:
457,17,90276,1,0,0:0:0:0:
488,154,90718,6,0,L|480:230,1,70,2|0,0:0|0:0,0:0:0:0:
378,202,91600,2,0,L|386:278,1,70,2|0,0:3|0:0,0:0:0:0:
315,317,92482,2,0,L|298:177,1,140,2|2,0:0|0:3,0:0:0:0:
348,110,93806,1,0,0:0:0:0:
226,140,94247,6,0,P|190:128|162:108,2,70,2|0|2,0:0|0:0|0:3,0:0:0:0:
348,110,95570,1,0,0:0:0:0:
304,213,96012,2,0,P|275:232|241:243,2,70,2|0|2,0:0|0:0|0:3,0:0:0:0:
348,110,97335,1,0,0:0:0:0:
397,256,97776,6,0,P|413:225|420:190,1,70,2|0,0:0|0:0,0:0:0:0:
318,287,98659,2,0,L|242:271,1,70,2|0,0:3|0:0,0:0:0:0:
156,285,99541,1,2,0:0:0:0:
304,84,110129,6,0,P|393:78|412:129,1,140,4|2,0:0|0:0,0:0:0:0:
419,154,111232,1,0,0:0:0:0:
410,195,111453,1,0,0:0:0:0:
326,202,111894,2,0,P|331:238|347:272,1,70,0|0,0:0|0:0,0:0:0:0:
354,352,112776,2,0,P|318:347|285:329,1,70,8|0,0:0|0:0,0:0:0:0:
255,306,113438,1,0,0:0:0:0:
255,306,113659,6,0,B|230:295|230:295|185:291,1,70,0|0,0:0|0:0,0:0:0:0:
146,298,114320,1,0,0:0:0:0:
115,326,114541,1,2,0:0:0:0:
36,354,114982,1,0,0:0:0:0:
27,271,115423,2,0,L|18:198,1,70,0|0,0:0|0:0,0:0:0:0:
101,186,116306,2,0,L|110:113,1,70,8|0,0:0|0:0,0:0:0:0:
51,55,117188,6,0,P|116:33|175:66,1,140,0|2,0:0|0:0,0:0:0:0:
205,145,118512,1,0,0:0:0:0:
272,94,118953,2,0,B|319:87|319:87|341:56|341:56|399:63,1,140,0|8,0:0|0:0,0:0:0:0:
498,195,120718,6,0,L|423:186,1,70,0|0,0:0|0:0,0:0:0:0:
350,157,121600,2,0,L|275:166,1,70,2|0,0:0|0:0,0:0:0:0:
238,159,122262,1,0,0:0:0:0:
238,159,122482,2,0,P|296:193|308:259,1,140,0|8,0:0|0:0,0:0:0:0:
226,242,123806,1,0,0:0:0:0:
222,283,124026,1,0,0:0:0:0:
204,321,124247,6,0,P|168:349|141:360,1,70,4|0,0:0|0:0,0:0:0:0:
105,286,125129,2,0,P|78:263|45:252,1,70,2|0,0:0|0:0,0:0:0:0:
3,256,125791,1,0,0:0:0:0:
3,256,126012,2,0,P|46:210|124:192,1,140,0|8,0:0|0:0,0:0:0:0:
200,212,127335,1,0,0:0:0:0:
225,246,127556,1,0,0:0:0:0:
263,264,127776,6,0,L|327:296,1,70,0|0,0:0|0:0,0:0:0:0:
361,318,128438,1,0,0:0:0:0:
386,352,128659,1,2,0:0:0:0:
470,358,129100,1,0,0:0:0:0:
477,274,129541,2,0,B|481:248|481:248|473:197,1,70,0|0,0:0|0:0,0:0:0:0:
403,160,130423,2,0,B|359:166|359:166|333:162,1,70,8|0,0:0|0:0,0:0:0:0:
251,176,131306,6,0,P|289:122|265:56,1,140,0|2,0:0|0:0,0:0:0:0:
189,24,132629,1,0,0:0:0:0:
115,63,133070,2,0,B|86:95|86:95|57:203,1,140,0|8,0:0|0:0,0:0:0:0:
50,356,134835,6,0,P|80:324|108:309,1,70,0|0,0:0|0:0,0:0:0:0:
156,246,135718,2,0,P|185:264|208:290,1,70,2|0,0:0|0:0,0:0:0:0:
220,331,136379,1,0,0:0:0:0:
220,331,136600,2,0,L|294:327,1,70,0|0,0:0|0:0,0:0:0:0:
321,249,137482,2,0,L|395:245,1,70,8|0,0:0|0:0,0:0:0:0:
443,311,138365,6,0,L|408:169,1,140,4|2,0:0|0:0,0:0:0:0:
459,107,139688,1,0,0:0:0:0:
419,91,139909,1,0,0:0:0:0:
381,73,140129,2,0,P|349:58|314:56,1,70,0|0,0:0|0:0,0:0:0:0:
327,139,141012,2,0,P|295:153|260:155,1,70,8|0,0:0|0:0,0:0:0:0:
272,72,141894,6,0,P|201:60|124:73,1,140,0|2,0:0|0:0,0:0:0:0:
55,41,143218,1,0,0:0:0:0:
72,123,143659,2,0,B|85:213|85:213|83:241|72:260,1,140,0|8,0:0|0:0,0:0:0:0:
41,289,144762,1,0,0:0:0:0:
3,307,144982,1,0,0:0:0:0:
63,366,145423,6,0,P|122:330|161:272,1,140,0|2,0:0|0:0,0:0:0:0:
167,231,146526,1,0,0:0:0:0:
163,189,146747,1,0,0:0:0:0:
109,125,147188,2,0,L|27:112,1,70,0|0,0:0|0:0,0:0:0:0:
88,45,148070,2,0,L|157:55,1,70,8|0,0:0|0:0,0:0:0:0:
199,51,148732,1,0,0:0:0:0:
199,50,148953,6,0,P|233:44|268:48,1,70,0|0,0:0|0:0,0:0:0:0:
311,120,149835,2,0,L|280:198,1,70,2|0,0:0|0:0,0:0:0:0:
208,219,150718,2,0,P|203:253|206:288,1,70,0|0,0:0|0:0,0:0:0:0:
223,327,151379,1,0,0:0:0:0:
260,347,151600,1,8,0:0:0:0:
309,279,152041,1,0,0:0:0:0:
366,341,152482,6,0,P|387:308|360:211,1,140,4|2,0:0|0:0,0:0:0:0:
285,189,153806,1,0,0:0:0:0:
307,153,154026,1,0,0:0:0:0:
327,116,154247,2,0,L|397:101,1,70,0|0,0:0|0:0,0:0:0:0:
438,29,155129,2,0,L|368:14,1,70,8|0,0:0|0:0,0:0:0:0:
286,25,156012,6,0,B|243:44|243:44|150:51,1,140,0|2,0:0|0:0,0:0:0:0:
90,110,157335,1,0,0:0:0:0:
171,133,157776,2,0,B|319:121,1,140,0|8,0:0|0:0,0:0:0:0:
346,100,158879,1,0,0:0:0:0:
379,74,159100,1,0,0:0:0:0:
427,5,159541,6,0,P|458:49|439:131,1,140,0|2,0:0|0:0,0:0:0:0:
410,157,160644,1,0,0:0:0:0:
368,163,160865,1,0,0:0:0:0:
326,236,161306,2,0,L|335:316,1,70,0|0,0:0|0:0,0:0:0:0:
251,291,162188,2,0,L|242:211,1,70,8|0,0:0|0:0,0:0:0:0:
171,177,163070,6,0,P|140:194|106:202,1,70,4|0,0:0|0:0,0:0:0:0:
25,181,163953,1,8,0:3:0:0:
36,97,164394,1,4,0:3:0:0:
63,65,164615,1,8,0:3:0:0:
100,45,164835,2,0,P|133:36|168:38,1,70,8|2,0:3|0:3,0:0:0:0:
136,116,165718,2,0,L|129:151,1,35,8|4,0:3|0:3,0:0:0:0:
120,192,166159,1,4,0:3:0:0:
292,51,166600,6,0,P|251:55|212:71,1,83.9999974365235,4|2,0:0|0:3,0:0:0:0:
376,107,167482,1,0,1:0:0:0:
314,245,167923,1,2,0:3:0:0:
314,245,168144,1,0,0:0:0:0:
314,245,168365,2,0,P|309:203|294:165,1,83.9999974365235,2|2,0:0|0:3,0:0:0:0:
175,258,169247,2,0,P|179:299|195:338,1,83.9999974365235,0|2,1:0|0:3,0:0:0:0:
205,162,170129,6,0,B|148:263|148:263|79:293,1,167.999994873047,2|0,0:0|1:0,0:0:0:0:
85,183,171453,1,2,0:3:0:0:
67,20,171894,2,0,B|69:49|52:75|52:75|112:61|154:98,1,167.999994873047,2|0,0:0|1:0,0:0:0:0:
308,30,173218,1,2,0:3:0:0:
308,30,173438,1,0,0:0:0:0:
308,30,173659,6,0,P|266:21|222:26,1,83.9999974365235,2|2,0:0|0:3,0:0:0:0:
383,97,174541,1,0,1:0:0:0:
255,206,174982,1,2,0:3:0:0:
255,206,175203,1,0,0:0:0:0:
255,206,175423,2,0,P|260:164|275:125,1,83.9999974365235,2|2,0:0|0:3,0:0:0:0:
287,301,176306,1,0,1:0:0:0:
437,317,176747,1,2,0:3:0:0:
437,317,176968,1,0,0:0:0:0:
437,316,177188,6,0,P|453:278|455:236,1,83.9999974365235,2|2,0:0|0:3,0:0:0:0:
428,193,177850,1,0,0:0:0:0:
428,193,178070,2,0,P|390:177|348:175,1,83.9999974365235,0|2,1:0|0:3,0:0:0:0:
255,66,178953,2,0,P|238:146|172:195,1,167.999994873047,2|0,0:0|1:0,0:0:0:0:
109,314,180276,1,2,0:3:0:0:
61,157,180718,6,0,P|43:123|38:78,1,83.9999974365235,4|2,0:0|0:3,0:0:0:0:
172,80,181600,1,0,1:0:0:0:
106,4,182041,1,2,0:3:0:0:
270,47,182482,2,0,B|283:112|241:151|241:151|257:184|233:225,1,167.999994873047,2|0,0:0|1:0,0:0:0:0:
143,185,183806,1,2,0:3:0:0:
154,336,184247,6,0,P|102:331|68:317,1,83.9999974365235,2|2,0:0|0:3,0:0:0:0:
143,185,185129,2,0,P|182:172|224:169,1,83.9999974365235,0|2,1:0|0:3,0:0:0:0:
206,294,186012,2,0,B|238:306|280:304|305:287|305:287|337:308|366:306,1,167.999994873047,2|0,0:0|1:0,0:0:0:0:
371,181,187335,1,2,0:3:0:0:
466,288,187776,6,0,B|482:335|482:335|481:378,2,83.9999974365235,4|2|0,0:0|0:3|1:0,0:0:0:0:
371,181,189100,1,2,0:3:0:0:
415,45,189541,2,0,B|464:44|464:44|505:58,2,83.9999974365235,2|2|0,0:0|0:3|1:0,0:0:0:0:
371,181,190865,1,2,0:3:0:0:
306,93,191306,6,0,P|290:54|286:12,1,83.9999974365235,4|2,0:0|0:3,0:0:0:0:
271,184,192188,2,0,P|265:232|242:279,1,83.9999974365235,0|2,1:0|0:3,0:0:0:0:
137,88,193070,2,0,P|122:147|138:257,1,167.999994873047,2|8,0:0|1:3,0:0:0:0:
159,297,194173,1,8,0:3:0:0:
197,330,194394,1,4,0:3:0:0:
226,190,194835,6,0,L|287:247,1,83.9999974365235,4|0,0:0|0:0,0:0:0:0:
421,258,195718,2,0,P|413:299|391:334,1,83.9999974365235,0|0,1:0|0:0,0:0:0:0:
275,193,196600,2,0,P|314:179|356:180,1,83.9999974365235,2|0,0:0|0:0,0:0:0:0:
404,196,197262,1,0,0:0:0:0:
454,193,197482,1,0,1:0:0:0:
258,267,197923,1,0,0:0:0:0:
211,248,198144,1,0,0:0:0:0:
165,227,198365,6,0,L|86:193,1,83.9999974365235,2|0,0:0|0:0,0:0:0:0:
224,152,199247,2,0,L|190:75,1,83.9999974365235,0|0,1:0|0:0,0:0:0:0:
161,34,199909,1,0,0:0:0:0:
161,34,200129,2,0,P|202:46|249:44,1,83.9999974365235,2|0,0:0|0:0,0:0:0:0:
353,123,201012,2,0,B|393:111|393:111|435:110,1,83.9999974365235,8|4,1:3|0:3,0:0:0:0:
479,136,201673,1,4,0:3:0:0:
479,136,201894,6,0,P|413:162|359:241,1,167.999994873047,4|0,0:0|1:0,0:0:0:0:
360,341,203218,1,0,0:0:0:0:
163,329,203659,2,0,B|134:295|135:245|152:217|152:217|132:209|112:188,1,167.999994873047,2|0,0:0|1:0,0:0:0:0:
19,152,204982,1,0,0:0:0:0:
45,108,205203,1,0,0:0:0:0:
92,90,205423,6,0,P|150:94|190:119,1,83.9999974365235,2|0,0:0|0:0,0:0:0:0:
235,288,206306,2,0,P|209:235|211:188,1,83.9999974365235,0|0,1:0|0:0,0:0:0:0:
334,65,207188,2,0,P|301:113|259:135,1,83.9999974365235,2|0,0:0|0:0,0:0:0:0:
230,129,207850,1,0,0:0:0:0:
185,107,208070,1,0,1:0:0:0:
292,237,208512,1,0,0:0:0:0:
256,192,208953,12,2,212482,0:0:0:0:
293,122,228806,5,8,0:3:0:0:
119,103,229247,1,4,0:3:0:0:
85,180,229468,1,8,0:3:0:0:
168,169,229688,1,4,0:3:0:0:
385,144,230129,6,0,P|380:98|364:56,1,90.9999958343508,4|2,0:0|0:3,0:0:0:0:
322,215,231012,1,0,1:0:0:0:
461,318,231453,1,2,0:3:0:0:
461,318,231673,1,0,0:0:0:0:
461,318,231894,2,0,L|368:305,1,90.9999958343508,2|2,0:0|0:3,0:0:0:0:
242,220,232776,2,0,P|271:185|312:168,1,90.9999958343508,0|2,1:0|0:3,0:0:0:0:
306,337,233659,6,0,P|228:294|134:310,1,181.999991668702,2|0,0:0|1:0,0:0:0:0:
40,263,234982,1,2,0:3:0:0:
23,100,235423,2,0,B|72:89|115:108|115:108|156:126|201:109,1,181.999991668702,2|0,0:0|1:0,0:0:0:0:
381,45,236747,1,2,0:3:0:0:
381,45,236968,1,0,0:0:0:0:
381,45,237188,6,0,B|312:41|312:41|286:52,1,90.9999958343508,2|2,0:0|0:3,0:0:0:0:
460,118,238070,1,0,1:0:0:0:
273,161,238512,1,2,0:3:0:0:
273,161,238732,1,0,0:0:0:0:
273,161,238953,2,0,P|318:159|363:152,1,90.9999958343508,2|2,0:0|0:3,0:0:0:0:
195,82,239835,1,0,1:0:0:0:
239,249,240276,1,2,0:3:0:0:
239,249,240497,1,0,0:0:0:0:
239,249,240718,6,0,P|194:242|148:240,1,90.9999958343508,2|2,0:0|0:3,0:0:0:0:
107,275,241379,1,0,0:0:0:0:
107,275,241600,2,0,L|54:196,1,90.9999958343508,0|2,1:0|0:3,0:0:0:0:
78,46,242482,1,2,0:0:0:0:
128,105,242703,1,8,0:3:0:0:
158,33,242923,2,0,P|203:38|245:54,1,90.9999958343508,4|8,0:3|1:3,0:0:0:0:
299,111,243585,1,8,0:3:0:0:
224,130,243806,1,4,0:3:0:0:
398,32,244247,6,0,P|423:71|429:115,1,90.9999958343508,4|2,0:0|0:3,0:0:0:0:
389,245,245129,1,0,1:0:0:0:
336,150,245570,1,2,0:3:0:0:
499,251,246012,2,0,P|465:330|374:358,1,181.999991668702,2|0,0:0|1:0,0:0:0:0:
275,325,247335,1,2,0:3:0:0:
203,168,247776,6,0,P|154:171|97:188,1,90.9999958343508,2|2,0:0|0:3,0:0:0:0:
185,309,248659,2,0,P|228:320|274:324,1,90.9999958343508,0|2,1:0|0:3,0:0:0:0:
198,206,249541,2,0,B|116:265|116:265|103:307|116:344,1,181.999991668702,2|0,0:0|1:0,0:0:0:0:
233,322,250865,1,2,0:3:0:0:
341,176,251306,6,0,P|383:160|433:160,2,90.9999958343508,4|2|0,0:0|0:3|1:0,0:0:0:0:
233,322,252629,1,2,0:3:0:0:
377,346,253070,2,0,B|401:305|401:305|401:261,2,90.9999958343508,2|2|0,0:0|0:3|1:0,0:0:0:0:
233,322,254394,1,2,0:3:0:0:
255,187,254835,2,0,B|226:173|226:173|198:177|198:177|161:157,1,90.9999958343508,2|2,0:0|0:3,0:0:0:0:
53,94,255718,2,0,P|77:132|85:177,1,90.9999958343508,0|2,1:0|0:3,0:0:0:0:
256,192,256600,12,2,262335,0:0:0:0:
