osu file format v14

[General]
AudioFilename: 01. At Gwanghwamun.mp3
AudioLeadIn: 0
PreviewTime: 73070
Countdown: 0
SampleSet: Soft
StackLeniency: 0.7
Mode: 0
LetterboxInBreaks: 0
WidescreenStoryboard: 0

[Editor]
Bookmarks: 7776,14835,72629,165718
DistanceSpacing: 1
BeatDivisor: 8
GridSize: 4
TimelineZoom: 1

[Metadata]
Title:At Gwanghwamun
TitleUnicode:광화문에서
Artist:KYUHYUN
ArtistUnicode:규현
Creator:Cerulean Veyron
Version:Desolated
Source:
Tags:Soul Ballad KH Super Junior SJ SuJu 슈퍼주니어 KT뮤직 SM엔터테인먼트 S.M.Entertainment KT MUSIC 1st Mini Album EP
BeatmapID:1090642
BeatmapSetID:513268

[Difficulty]
HPDrainRate:6
CircleSize:4.3
OverallDifficulty:5
ApproachRate:7
SliderMultiplier:1.5
SliderTickRate:1

[Events]
//Background and Video events
0,0,"wp1.jpg",0,0
Video,-260,"vby.avi"
//Break Periods
2,103070,109229
2,216012,227906
//Storyboard Layer 0 (Background)
//Storyboard Layer 1 (Fail)
//Storyboard Layer 2 (Pass)
//Storyboard Layer 3 (Foreground)
//Storyboard Sound Samples

[TimingPoints]
718,882.352941176471,4,2,1,40,1,0
53548,-100,4,2,1,5,0,0
53659,-100,4,2,1,40,0,0
67666,-100,4,2,1,5,0,0
67776,-100,4,2,1,40,0,0
73070,-100,4,2,1,50,0,0
99541,-100,4,2,1,30,0,0
110129,-100,4,2,1,40,0,0
166600,-83.3333333333333,4,2,2,70,0,1
212482,-100,4,2,1,50,0,0
230129,-71.4285714285714,4,2,2,85,0,1
244137,-71.4285714285714,4,2,2,85,0,0
244247,-71.4285714285714,4,2,2,85,0,1
258365,-100,4,2,1,40,0,0
258806,-100,4,2,1,30,0,0
259688,-100,4,2,1,20,0,0
260570,-100,4,2,1,10,0,0
261453,-100,4,2,1,5,0,0

[Colours]
Combo1 : 231,212,184
Combo2 : 244,228,136
Combo3 : 191,168,127
Combo4 : 127,102,31

[HitObjects]
95,189,14835,6,0,P|166:181|199:111,1,150,0|0,0:0|0:0,0:0:0:0:
227,152,15938,2,0,L|266:158,1,37.5
318,248,16600,2,0,B|292:214|287:171|306:144|306:144|337:156|341:186,1,150,0|2,0:0|0:0,0:0:0:0:
376,297,18365,6,0,B|322:277|322:277|289:296|243:286,1,112.5
238,322,19247,2,0,L|284:356,2,50
169,334,20129,2,0,B|159:311|166:285|166:285|201:261|201:261|211:235|200:200,1,150,0|2,0:0|0:0,0:0:0:0:
173,119,21453,1,0,0:0:0:0:
173,119,21894,6,0,P|239:89|317:92,1,150,0|2,0:0|0:0,0:0:0:0:
414,205,23659,2,0,B|378:178|336:182|309:218|309:218|297:227|279:227,1,150,2|0,0:0|0:0,0:0:0:0:
123,176,25423,6,0,L|66:187,1,37.5,0|0,0:0|0:0,0:0:0:0:
163,238,25865,2,0,L|106:249,1,37.5,0|0,0:0|0:0,0:0:0:0:
203,299,26306,1,0,0:0:0:0:
203,299,26747,2,0,L|146:310,1,37.5,0|0,0:0|0:0,0:0:0:0:
243,360,27188,2,0,P|252:306|239:243,1,112.5,2|0,0:0|0:0,0:0:0:0:
284,265,28070,1,0,0:0:0:0:
393,319,28291,1,0,0:0:0:0:
284,265,28512,1,0,0:0:0:0:
385,207,28732,1,0,0:0:0:0:
412,297,28953,6,0,P|418:256|447:217,1,75,0|0,0:0|0:0,0:0:0:0:
374,162,29835,2,0,P|392:129|397:92,1,75,0|0,0:0|0:0,0:0:0:0:
442,88,30497,1,0,0:0:0:0:
442,88,30718,2,0,B|326:74|326:74|331:112,1,150,0|2,0:0|0:0,0:0:0:0:
262,165,32041,2,0,L|251:217,1,37.5,0|0,0:0|0:0,0:0:0:0:
290,229,32482,6,0,L|231:85,1,150,0|0,0:0|0:0,0:0:0:0:
168,28,33806,2,0,P|148:59|143:85,1,37.5,0|0,0:0|0:0,0:0:0:0:
107,40,34247,2,0,P|129:94|118:188,1,150,0|2,0:0|0:0,0:0:0:0:
52,243,35570,1,0,0:0:0:0:
52,243,36012,6,0,B|165:226|165:226|184:228|197:238,1,150,0|2,0:0|0:0,0:0:0:0:
314,333,37776,2,0,B|289:298|305:256|305:256|294:225|294:225|310:182,1,150,2|0,0:0|0:0,0:0:0:0:
341,29,39541,6,0,L|399:58,1,37.5,0|0,0:0|0:0,0:0:0:0:
297,99,39982,2,0,L|239:128,1,37.5,0|0,0:0|0:0,0:0:0:0:
341,169,40423,1,0,0:0:0:0:
341,169,40865,2,0,L|399:198,1,37.5,0|0,0:0|0:0,0:0:0:0:
373,231,41306,2,0,L|302:195,1,75,0|0,0:0|0:0,0:0:0:0:
377,253,42188,2,0,P|346:283|332:318,1,75,2|0,0:0|0:0,0:0:0:0:
245,327,43070,6,0,P|275:358|310:372,2,75,0|0|2,0:0|0:0|0:0,0:0:0:0:
220,240,44394,1,0,0:0:0:0:
220,240,44835,2,0,L|206:327,1,75,2|0,0:0|0:0,0:0:0:0:
194,357,45497,2,0,B|181:320|181:320|116:278,1,112.5
75,272,46379,1,0,0:0:0:0:
75,272,46600,6,0,P|143:249|223:240,1,150,2|0,0:0|0:0,0:0:0:0:
399,257,48365,2,0,P|376:212|374:173,1,75,2|0,0:0|0:0,0:0:0:0:
418,191,49026,2,0,B|346:177|346:177|306:191,1,112.5,0|0,0:0|0:0,0:0:0:0:
318,280,50129,6,0,B|398:253|398:253|418:190,1,150,0|0,0:0|0:0,0:0:0:0:
445,300,51232,2,0,L|432:256,1,37.5,0|0,0:0|0:0,0:0:0:0:
339,349,51894,2,0,P|384:352|477:295,1,150,2|0,0:0|0:0,0:0:0:0:
494,262,52997,1,0,0:0:0:0:
452,174,53218,2,0,L|464:241,1,56.25,0|0,0:0|0:0,0:0:0:0:
476,247,53659,6,0,B|425:252|425:252|403:262,1,75,0|0,0:0|0:0,0:0:0:0:
366,287,54320,1,0,0:0:0:0:
289,233,54541,1,0,0:0:0:0:
279,243,54982,2,0,P|256:254|232:257,1,37.5,0|0,0:0|0:0,0:0:0:0:
358,190,55423,2,0,P|321:197|289:216,1,75,0|0,0:0|0:0,0:0:0:0:
472,112,56306,2,0,P|439:130|403:137,1,75,2|0,0:0|0:0,0:0:0:0:
324,95,57188,5,0,0:0:0:0:
243,135,57629,1,0,0:0:0:0:
315,187,58070,2,0,P|288:211|252:223,1,75,2|0,0:0|0:0,0:0:0:0:
331,142,58953,2,0,L|387:211,1,75,2|0,0:0|0:0,0:0:0:0:
374,245,59615,2,0,P|401:221|437:209,1,75,0|0,0:0|0:0,0:0:0:0:
365,320,60276,2,0,P|337:312|319:297,1,37.5,0|0,0:0|0:0,0:0:0:0:
232,335,60718,6,0,P|230:286|302:211,1,150,2|0,0:0|0:0,0:0:0:0:
458,142,62482,2,0,B|429:149|429:149|377:142,1,75,2|0,0:0|0:0,0:0:0:0:
370,100,63144,2,0,P|361:143|296:131,1,112.5,0|0,0:0|0:0,0:0:0:0:
259,61,64247,2,0,B|228:50|190:61|190:61|147:73|108:55,1,150,2|0,0:0|0:0,0:0:0:0:
175,149,65350,2,0,P|156:152|137:152,1,37.5,0|0,0:0|0:0,0:0:0:0:
264,131,66012,2,0,P|205:166|181:240,1,150,2|0,0:0|0:0,0:0:0:0:
192,284,67115,1,0,0:0:0:0:
287,314,67335,2,0,P|265:298|238:289,1,56.25,0|0,0:0|0:0,0:0:0:0:
192,284,67776,6,0,L|110:306,1,75,0|0,0:0|0:0,0:0:0:0:
33,200,68659,2,0,L|105:219,1,75,0|0,0:0|0:0,0:0:0:0:
251,185,69541,2,0,B|251:238|215:253|176:240|162:216|173:178|173:178|185:146|173:118|145:108|145:108|113:94|117:63,1,300,2|0,0:0|0:0,0:0:0:0:
292,22,72188,1,0,0:0:0:0:
273,110,72629,1,0,0:0:0:0:
358,84,73070,6,0,P|396:81|433:88,1,75,4|0,0:0|0:0,0:0:0:0:
503,145,73953,1,2,0:3:0:0:
388,229,74394,1,0,0:0:0:0:
388,229,74615,1,0,0:0:0:0:
388,229,74835,2,0,P|387:193|394:152,1,75,2|0,0:0|0:0,0:0:0:0:
437,267,75718,2,0,L|356:287,1,75,2|0,0:3|0:0,0:0:0:0:
295,354,76600,6,0,P|321:308|307:251,1,112.5,2|0,0:0|0:0,0:0:0:0:
273,224,77482,2,0,B|219:232|219:232|199:229,1,75,2|0,0:3|0:0,0:0:0:0:
91,193,78365,2,0,P|154:222|190:163,1,150,2|2,0:0|0:3,0:0:0:0:
112,54,79688,1,0,0:0:0:0:
129,127,79909,1,0,0:0:0:0:
209,38,80129,6,0,L|201:89,1,37.5,2|0,0:0|0:0,0:0:0:0:
327,43,80570,2,0,L|288:76,1,37.5,0|0,0:0|0:0,0:0:0:0:
415,130,81012,2,0,P|377:128|345:137,1,56.25,2|0,0:3|0:0,0:0:0:0:
342,139,81453,1,0,0:0:0:0:
275,172,81673,1,0,0:0:0:0:
357,260,81894,2,0,L|359:219,1,37.5,2|0,0:0|0:0,0:0:0:0:
290,321,82335,2,0,L|288:280,1,37.5,0|0,0:0|0:0,0:0:0:0:
128,332,82776,2,0,P|155:339|196:339,1,56.25,2|0,0:3|0:0,0:0:0:0:
206,339,83218,1,0,0:0:0:0:
170,269,83438,1,0,0:0:0:0:
186,131,83659,5,2,0:0:0:0:
112,225,83879,1,0,0:0:0:0:
245,173,84100,1,0,0:0:0:0:
121,156,84320,1,0,0:0:0:0:
238,241,84541,1,2,0:3:0:0:
55,184,84762,1,0,0:0:0:0:
231,311,84982,2,0,P|258:309|278:298,1,37.5
437,241,85423,2,0,P|399:229|351:234,1,75,2|0,0:0|0:0,0:0:0:0:
490,280,86085,1,0,0:0:0:0:
490,280,86306,2,0,P|478:238|481:194,1,75,2|0,0:3|0:0,0:0:0:0:
493,95,87188,6,0,L|420:81,1,75,4|0,0:0|0:0,0:0:0:0:
328,15,88070,1,2,0:3:0:0:
260,105,88512,2,0,P|262:123|269:141,1,37.5,0|0,0:0|0:0,0:0:0:0:
240,40,88953,2,0,B|209:60|209:60|193:95,1,75,2|0,0:0|0:0,0:0:0:0:
88,135,89835,2,0,B|104:170|104:170|135:190,1,75,2|0,0:3|0:0,0:0:0:0:
247,202,90718,5,2,0:0:0:0:
176,289,91159,1,0,0:0:0:0:
223,130,91600,2,0,P|260:129|294:144,1,75,2|0,0:3|0:0,0:0:0:0:
204,350,92482,2,0,P|137:344|116:261,1,150,2|2,0:0|0:3,0:0:0:0:
130,162,93806,1,0,0:0:0:0:
59,139,94026,1,0,0:0:0:0:
152,151,94247,6,0,L|214:148,1,56.25,2|0,0:0|0:0,0:0:0:0:
228,128,94688,2,0,L|267:138,1,37.5,0|0,0:0|0:0,0:0:0:0:
318,195,95129,1,2,0:3:0:0:
414,279,95570,1,0,0:0:0:0:
418,354,95791,1,0,0:0:0:0:
436,262,96012,2,0,P|443:240|443:208,1,56.25,2|0,0:0|0:0,0:0:0:0:
456,182,96453,2,0,L|416:164,1,37.5,0|0,0:0|0:0,0:0:0:0:
378,101,96894,1,2,0:3:0:0:
302,184,97335,1,0,0:0:0:0:
240,89,97776,6,0,P|205:72|159:67,1,75,2|0,0:0|0:0,0:0:0:0:
113,164,98659,2,0,P|149:158|183:141,1,75,2|0,0:3|0:0,0:0:0:0:
95,71,99541,1,2,0:0:0:0:
385,294,110129,6,0,P|403:244|403:211,1,75,4|0,0:0|0:0,0:0:0:0:
363,117,111012,2,0,L|348:161,1,37.5,2|0,0:0|0:0,0:0:0:0:
274,65,111453,2,0,L|286:100,1,37.5,0|0,0:0|0:0,0:0:0:0:
278,22,111894,2,0,P|240:26|208:43,1,75,0|0,0:0|0:0,0:0:0:0:
104,87,112776,2,0,P|141:91|173:108,1,75,8|0,0:0|0:0,0:0:0:0:
113,170,113438,1,0,0:0:0:0:
113,170,113659,6,0,B|120:225|120:225|112:250,1,75,0|0,0:0|0:0,0:0:0:0:
63,306,114320,1,0,0:0:0:0:
207,334,114541,2,0,P|193:321|177:311,1,37.5,2|0,0:0|0:0,0:0:0:0:
299,279,114982,2,0,P|298:260|293:242,1,37.5,0|0,0:0|0:0,0:0:0:0:
403,304,115423,2,0,P|425:275|432:238,1,75,0|0,0:0|0:0,0:0:0:0:
494,144,116306,2,0,P|457:137|427:115,1,75,8|0,0:0|0:0,0:0:0:0:
331,57,117188,6,0,B|279:51|279:51|250:55,1,75,0|0,0:0|0:0,0:0:0:0:
102,100,118070,2,0,B|154:94|154:94|176:97,1,75,2|0,0:0|0:0,0:0:0:0:
260,140,118732,1,0,0:0:0:0:
143,239,118953,2,0,P|157:205|183:179,1,75,0|0,0:0|0:0,0:0:0:0:
174,307,119835,2,0,P|137:312|101:301,1,75,8|0,0:0|0:0,0:0:0:0:
216,246,120718,6,0,P|231:259|241:274,1,37.5,0|0,0:0|0:0,0:0:0:0:
231,351,121159,2,0,P|218:365|203:375,1,37.5,0|0,0:0|0:0,0:0:0:0:
316,288,121600,2,0,P|354:285|407:291,1,75,2|0,0:0|0:0,0:0:0:0:
476,311,122262,1,0,0:0:0:0:
447,230,122482,2,0,B|427:176|427:176|423:141,1,75,0|0,0:0|0:0,0:0:0:0:
471,31,123365,1,8,0:0:0:0:
381,48,123585,1,0,0:0:0:0:
231,91,123806,1,0,0:0:0:0:
321,108,124026,1,0,0:0:0:0:
180,56,124247,6,0,L|188:138,1,75,4|0,0:0|0:0,0:0:0:0:
130,269,125129,2,0,P|127:229|134:188,1,75,2|0,0:0|0:0,0:0:0:0:
204,291,125791,1,0,0:0:0:0:
204,291,126012,2,0,P|181:321|151:344,1,75,0|0,0:0|0:0,0:0:0:0:
61,276,126894,2,0,P|56:238|61:201,1,75,8|0,0:0|0:0,0:0:0:0:
85,115,127556,1,0,0:0:0:0:
85,115,127776,6,0,L|171:93,1,75,0|0,0:0|0:0,0:0:0:0:
221,32,128438,1,0,0:0:0:0:
301,129,128659,2,0,L|264:113,1,37.5,2|0,0:0|0:0,0:0:0:0:
381,66,129100,2,0,L|343:69,1,37.5,0|0,0:0|0:0,0:0:0:0:
434,8,129541,2,0,P|453:39|457:76,1,75,0|0,0:0|0:0,0:0:0:0:
356,134,130423,2,0,P|361:97|383:65,1,75,8|0,0:0|0:0,0:0:0:0:
402,176,131306,6,0,L|321:191,1,75,0|0,0:0|0:0,0:0:0:0:
254,105,132188,2,0,P|229:141|218:173,1,75,2|0,0:0|0:0,0:0:0:0:
231,252,132850,1,0,0:0:0:0:
348,339,133070,2,0,P|334:304|312:273,1,75,0|0,0:0|0:0,0:0:0:0:
186,293,133953,2,0,P|199:327|221:358,1,75,8|0,0:0|0:0,0:0:0:0:
215,231,134835,6,0,L|164:224,1,37.5,0|0,0:0|0:0,0:0:0:0:
65,190,135276,2,0,L|102:184,1,37.5,0|0,0:0|0:0,0:0:0:0:
243,132,135718,2,0,P|210:113|172:110,1,75,2|0,0:0|0:0,0:0:0:0:
101,120,136379,1,0,0:0:0:0:
202,30,136600,2,0,L|123:45,1,75,0|0,0:0|0:0,0:0:0:0:
281,61,137482,2,0,L|360:76,1,75,8|0,0:0|0:0,0:0:0:0:
355,75,138144,1,0,0:0:0:0:
481,38,138365,6,0,P|485:75|477:111,1,75,4|0,0:0|0:0,0:0:0:0:
445,256,139026,2,0,L|435:181,1,75,0|0,0:0|0:0,0:0:0:0:
354,111,139688,2,0,P|373:106|392:106,1,37.5,0|0,0:0|0:0,0:0:0:0:
286,157,140129,2,0,P|249:161|212:157,1,75,0|0,0:0|0:0,0:0:0:0:
119,71,141012,2,0,P|81:66|44:70,1,75,8|0,0:0|0:0,0:0:0:0:
66,219,141894,6,0,L|81:146,1,75,0|0,0:0|0:0,0:0:0:0:
158,271,142556,2,0,P|148:236|149:198,1,75,0|0,0:0|0:0,0:0:0:0:
277,222,143218,2,0,L|236:228,1,37.5,0|0,0:0|0:0,0:0:0:0:
330,175,143659,2,0,P|330:212|341:247,1,75,0|0,0:0|0:0,0:0:0:0:
466,317,144541,1,8,0:0:0:0:
466,317,144762,1,0,0:0:0:0:
466,317,144982,2,0,P|436:313|408:312,1,56.25,0|0,0:0|0:0,0:0:0:0:
384,323,145423,6,0,P|348:333|310:333,1,75,0|0,0:0|0:0,0:0:0:0:
212,279,146306,2,0,L|165:282,1,37.5,2|0,0:0|0:0,0:0:0:0:
85,310,146747,2,0,P|83:282|86:255,1,56.25,0|0,0:0|0:0,0:0:0:0:
97,228,147188,1,0,0:0:0:0:
192,127,147629,1,0,0:0:0:0:
109,103,147850,1,0,0:0:0:0:
185,198,148070,2,0,P|212:196|237:182,1,56.25,8|0,0:0|0:0,0:0:0:0:
256,161,148512,2,0,L|266:109,1,37.5,0|0,0:0|0:0,0:0:0:0:
365,140,148953,6,0,L|354:59,1,75,0|0,0:0|0:0,0:0:0:0:
453,120,149835,2,0,L|442:194,1,75,2|0,0:0|0:0,0:0:0:0:
340,240,150718,2,0,P|372:257|398:284,1,75,0|0,0:0|0:0,0:0:0:0:
323,321,151379,1,0,0:0:0:0:
323,321,151600,2,0,P|296:347|264:365,1,75,8|0,0:0|0:0,0:0:0:0:
99,276,152482,6,0,P|136:275|172:285,1,75,4|0,0:0|0:0,0:0:0:0:
23,301,153144,2,0,L|39:222,1,75,0|0,0:0|0:0,0:0:0:0:
75,111,153806,2,0,L|80:154,1,37.5,0|0,0:0|0:0,0:0:0:0:
212,63,154247,2,0,P|175:54|137:57,1,75,0|0,0:0|0:0,0:0:0:0:
209,144,155129,2,0,P|246:153|284:150,1,75,8|0,0:0|0:0,0:0:0:0:
459,86,156012,6,0,L|378:97,1,75,0|0,0:0|0:0,0:0:0:0:
407,243,156673,2,0,P|424:210|428:173,1,75,0|0,0:0|0:0,0:0:0:0:
330,246,157335,2,0,L|341:284,1,37.5,0|0,0:0|0:0,0:0:0:0:
276,159,157776,2,0,L|254:239,1,75,0|0,0:0|0:0,0:0:0:0:
279,357,158659,1,8,0:0:0:0:
279,357,158879,1,0,0:0:0:0:
279,357,159100,2,0,L|233:344,1,37.5,0|0,0:0|0:0,0:0:0:0:
163,252,159541,6,0,P|159:289|140:321,1,75,0|0,0:0|0:0,0:0:0:0:
54,249,160423,2,0,L|53:195,1,37.5,2|0,0:0|0:0,0:0:0:0:
21,123,160865,2,0,P|48:119|76:122,1,56.25,0|0,0:0|0:0,0:0:0:0:
102,135,161306,1,0,0:0:0:0:
188,207,161747,1,0,0:0:0:0:
173,292,161968,1,0,0:0:0:0:
182,124,162188,2,0,P|209:125|236:140,1,56.25,8|0,0:0|0:0,0:0:0:0:
261,149,162629,2,0,L|313:146,1,37.5,0|0,0:0|0:0,0:0:0:0:
484,224,163070,6,0,L|397:217,1,75,4|0,0:0|0:0,0:0:0:0:
305,261,163953,1,8,0:3:0:0:
204,209,164394,1,4,0:3:0:0:
93,238,164615,1,8,0:3:0:0:
177,315,164835,2,0,L|165:273,1,37.5,8|4,0:3|0:3,0:0:0:0:
129,161,165276,1,2,0:3:0:0:
129,161,165718,5,8,0:3:0:0:
95,60,165938,1,4,0:3:0:0:
283,58,166159,1,4,0:3:0:0:
131,247,166600,6,0,P|87:238|53:209,1,89.9999972534181,4|2,0:0|0:3,0:0:0:0:
11,110,167482,1,0,1:0:0:0:
204,121,167923,1,2,0:3:0:0:
204,121,168144,1,0,0:0:0:0:
204,121,168365,2,0,P|218:163|210:207,1,89.9999972534181,2|2,0:0|0:3,0:0:0:0:
168,41,169247,2,0,L|263:46,1,89.9999972534181,0|2,1:0|0:3,0:0:0:0:
453,101,170129,6,0,P|389:88|342:134,1,134.999995880127,2|0,0:0|0:0,0:0:0:0:
344,189,171012,2,0,P|372:222|415:235,1,89.9999972534181,0|2,1:0|0:3,0:0:0:0:
508,180,171894,2,0,L|319:148,1,179.999994506836,2|0,0:0|1:0,0:0:0:0:
142,75,173218,1,2,0:3:0:0:
219,150,173438,1,0,0:0:0:0:
93,245,173659,6,0,L|104:190,1,44.999998626709,2|0,0:0|0:0,0:0:0:0:
176,314,174100,2,0,L|165:259,1,44.999998626709,2|0,0:3|0:0,0:0:0:0:
328,329,174541,2,0,P|301:344|258:350,1,67.4999979400635,0|0,1:0|0:0,0:0:0:0:
238,349,174982,1,2,0:3:0:0:
267,247,175203,1,0,0:0:0:0:
418,203,175423,2,0,P|396:202|372:205,1,44.999998626709,2|0,0:0|0:0,0:0:0:0:
272,114,175865,2,0,P|294:114|316:112,1,44.999998626709,2|0,0:3|0:0,0:0:0:0:
151,156,176306,2,0,L|173:88,1,67.4999979400635,0|0,1:0|0:0,0:0:0:0:
183,67,176747,1,2,0:3:0:0:
78,82,176968,1,0,0:0:0:0:
205,215,177188,5,2,0:0:0:0:
181,348,177409,1,0,0:0:0:0:
83,256,177629,1,2,0:3:0:0:
259,296,177850,1,0,0:0:0:0:
362,149,178070,1,0,1:0:0:0:
186,189,178291,1,0,0:0:0:0:
369,237,178512,2,0,L|418:252,1,44.999998626709,2|0,0:3|0:0,0:0:0:0:
333,68,178953,2,0,P|297:97|281:137,1,89.9999972534181,2|2,0:0|0:3,0:0:0:0:
213,284,179615,1,0,0:0:0:0:
213,284,179835,2,0,P|253:301|297:294,1,89.9999972534181,0|2,1:0|0:3,0:0:0:0:
459,279,180718,6,0,P|453:234|426:197,1,89.9999972534181,4|2,0:0|0:3,0:0:0:0:
311,114,181600,1,0,1:0:0:0:
186,186,182041,2,0,L|134:189,1,44.999998626709,2|0,0:3|0:0,0:0:0:0:
255,216,182482,2,0,P|258:171|238:132,1,89.9999972534181,2|2,0:0|0:3,0:0:0:0:
133,33,183365,2,0,P|129:77|149:116,1,89.9999972534181,0|2,1:0|0:3,0:0:0:0:
288,76,184247,5,2,0:0:0:0:
430,97,184688,1,2,0:3:0:0:
247,143,185129,2,0,B|211:140|211:140|159:115,1,89.9999972534181,0|2,1:0|0:3,0:0:0:0:
412,38,186012,2,0,P|469:74|413:155,1,179.999994506836,2|0,0:0|1:0,0:0:0:0:
278,145,187335,1,2,0:3:0:0:
336,214,187556,1,0,0:0:0:0:
284,122,187776,6,0,P|259:113|214:113,1,67.4999979400635,4|0,0:0|0:0,0:0:0:0:
183,121,188218,2,0,P|160:119|139:111,1,44.999998626709,2|0,0:3|0:0,0:0:0:0:
123,32,188659,1,0,1:0:0:0:
71,185,189100,1,2,0:3:0:0:
19,112,189320,1,0,0:0:0:0:
97,184,189541,2,0,B|108:204|108:204|112:250,1,67.4999979400635,2|0,0:0|0:0,0:0:0:0:
96,281,189982,2,0,B|103:308|103:308|114:320,1,44.999998626709,2|0,0:3|0:0,0:0:0:0:
192,345,190423,1,0,1:0:0:0:
280,209,190865,1,2,0:3:0:0:
416,297,191306,6,0,P|461:288|497:252,1,89.9999972534181,4|2,0:0|0:3,0:0:0:0:
399,150,192188,2,0,P|404:104|381:59,1,89.9999972534181,0|2,1:0|0:3,0:0:0:0:
254,121,193070,2,0,P|212:101|162:109,1,89.9999972534181,2|2,0:0|0:3,0:0:0:0:
42,78,193732,1,2,0:3:0:0:
42,78,193843,1,2,0:3:0:0:
42,78,193953,2,0,L|31:138,1,44.999998626709,8|8,1:3|0:3,0:0:0:0:
84,233,194394,1,4,0:3:0:0:
89,246,194835,6,0,P|127:268|171:272,1,89.9999972534181,4|0,0:0|0:0,0:0:0:0:
289,357,195718,2,0,L|273:280,1,67.4999979400635,0|0,1:0|0:0,0:0:0:0:
294,260,196159,2,0,P|316:258|338:263,1,44.999998626709,0|0,0:0|0:0,0:0:0:0:
416,317,196600,2,0,P|443:286|450:233,1,89.9999972534181,2|0,0:0|0:0,0:0:0:0:
429,170,197262,1,0,0:0:0:0:
429,170,197482,2,0,B|382:160|382:160|366:148,1,67.4999979400635,0|0,1:0|0:0,0:0:0:0:
344,120,197923,1,0,0:0:0:0:
425,35,198144,1,0,0:0:0:0:
310,122,198365,6,0,L|214:140,1,89.9999972534181,2|0,0:0|0:0,0:0:0:0:
60,60,199247,2,0,L|141:76,1,67.4999979400635,0|0,1:0|0:0,0:0:0:0:
148,102,199688,2,0,P|147:124|140:145,1,44.999998626709,0|0,0:0|0:0,0:0:0:0:
52,191,200129,1,2,0:0:0:0:
136,273,200350,2,0,P|159:271|180:277,1,44.999998626709
220,298,201012,1,8,1:3:0:0:
88,325,201232,1,8,0:3:0:0:
205,197,201453,1,4,0:3:0:0:
337,223,201673,1,4,0:3:0:0:
147,140,201894,6,0,P|127:180|130:224,1,89.9999972534181,4|0,0:0|0:0,0:0:0:0:
234,125,202776,2,0,P|236:80|216:41,1,89.9999972534181,0|0,1:0|0:0,0:0:0:0:
208,185,203659,2,0,L|305:152,1,89.9999972534181,2|0,0:0|0:0,0:0:0:0:
412,75,204541,2,0,L|392:175,1,89.9999972534181,0|0,1:0|0:0,0:0:0:0:
405,307,205203,1,0,0:0:0:0:
405,307,205423,6,0,L|327:242,1,89.9999972534181,2|0,0:0|0:0,0:0:0:0:
195,220,206306,2,0,P|227:212|259:183,1,67.4999979400635,0|0,1:0|0:0,0:0:0:0:
269,158,206747,2,0,P|275:138|273:113,1,44.999998626709
336,63,207188,2,0,P|291:67|251:47,1,89.9999972534181,2|0,0:0|0:0,0:0:0:0:
182,97,207850,1,0,0:0:0:0:
97,110,208070,2,0,P|141:115|182:97,1,89.9999972534181,0|0,1:0|0:0,0:0:0:0:
256,192,208953,12,2,212482,0:0:0:0:
335,131,228806,5,8,0:3:0:0:
308,234,229026,1,4,0:3:0:0:
209,57,229247,1,4,0:3:0:0:
232,161,229467,1,8,0:3:0:0:
308,234,229688,1,4,0:3:0:0:
347,219,230129,6,0,P|399:217|446:238,1,104.999996795654,4|2,0:0|0:3,0:0:0:0:
371,352,231012,1,0,1:0:0:0:
290,158,231453,1,2,0:3:0:0:
290,158,231673,1,0,0:0:0:0:
290,158,231894,2,0,P|337:136|389:138,1,104.999996795654,2|2,0:0|0:3,0:0:0:0:
190,147,232776,2,0,P|212:100|253:68,1,104.999996795654,0|2,1:0|0:3,0:0:0:0:
120,244,233659,6,0,P|159:182|228:207,1,157.499995193482,2|0,0:0|0:0,0:0:0:0:
259,269,234541,2,0,B|291:320|291:320|345:339,1,104.999996795654,0|2,1:0|0:3,0:0:0:0:
470,340,235423,2,0,B|478:288|478:288|385:148,1,209.999993591309,2|0,0:0|1:0,0:0:0:0:
219,35,236747,1,2,0:3:0:0:
168,127,236968,1,0,0:0:0:0:
237,262,237188,6,0,L|229:194,1,52.4999983978272,2|0,0:0|0:0,0:0:0:0:
326,349,237629,2,0,L|334:281,1,52.4999983978272,2|0,0:3|0:0,0:0:0:0:
390,139,238070,2,0,L|400:218,1,78.7499975967408,0|0,1:0|0:0,0:0:0:0:
426,240,238512,1,2,0:3:0:0:
480,150,238732,1,0,0:0:0:0:
346,77,238953,2,0,P|315:75|286:66,1,52.4999983978272,2|0,0:0|0:0,0:0:0:0:
137,129,239394,2,0,P|162:122|188:121,1,52.4999983978272,2|0,0:3|0:0,0:0:0:0:
205,289,239835,2,0,P|181:260|173:217,1,78.7499975967408,0|0,1:0|0:0,0:0:0:0:
185,188,240276,1,2,0:3:0:0:
288,209,240497,1,0,0:0:0:0:
98,286,240718,5,2,0:0:0:0:
138,91,240938,1,0,0:0:0:0:
87,183,241159,1,2,0:3:0:0:
232,47,241379,1,0,0:0:0:0:
385,176,241600,1,0,1:0:0:0:
188,152,241820,1,0,0:0:0:0:
398,142,242041,2,0,L|454:145,1,52.4999983978272,2|0,0:3|0:0,0:0:0:0:
283,272,242482,2,0,L|227:269,1,52.4999983978272,2|8,0:0|0:3,0:0:0:0:
51,228,242923,2,0,L|107:225,1,52.4999983978272,4|4,0:3|0:3,0:0:0:0:
312,192,243365,1,8,1:3:0:0:
403,287,243585,1,8,0:3:0:0:
290,355,243806,1,4,0:3:0:0:
261,366,244247,6,0,P|218:361|172:309,1,104.999996795654,4|2,0:0|0:3,0:0:0:0:
114,174,245129,1,0,1:0:0:0:
237,75,245570,2,0,P|263:75|289:79,1,52.4999983978272,2|0,0:3|0:0,0:0:0:0:
192,133,246012,2,0,L|182:23,1,104.999996795654,2|2,0:0|0:3,0:0:0:0:
278,154,246894,2,0,L|268:258,1,104.999996795654,0|2,1:0|0:3,0:0:0:0:
135,342,247776,5,2,0:0:0:0:
129,184,248218,1,2,0:3:0:0:
310,309,248659,2,0,P|272:308|216:273,1,104.999996795654,0|2,1:0|0:3,0:0:0:0:
27,124,249541,2,0,B|54:101|90:98|90:98|118:70|118:70|171:63|212:96,1,209.999993591309,2|0,0:0|1:0,0:0:0:0:
286,236,250865,1,2,0:3:0:0:
334,143,251085,1,0,0:0:0:0:
288,255,251306,6,0,P|299:292|325:325,1,78.7499975967408,4|0,0:0|0:0,0:0:0:0:
360,338,251747,2,0,P|390:338|414:332,1,52.4999983978272,2|0,0:3|0:0,0:0:0:0:
474,285,252188,1,0,1:0:0:0:
444,130,252629,1,2,0:3:0:0:
356,188,252850,1,0,0:0:0:0:
462,131,253070,2,0,L|474:39,1,78.7499975967408,2|0,0:0|0:0,0:0:0:0:
451,19,253512,2,0,L|397:51,1,52.4999983978272,2|0,0:3|0:0,0:0:0:0:
327,52,253953,1,0,1:0:0:0:
176,96,254394,1,2,0:3:0:0:
285,209,254835,6,0,P|301:270|299:321,1,104.999996795654,2|2,0:0|0:3,0:0:0:0:
94,273,255718,2,0,L|207:279,1,104.999996795654,0|2,1:0|0:3,0:0:0:0:
256,192,256600,12,2,262335,0:0:0:0:
