osu file format v14

[General]
AudioFilename: Ninjari_Bang_bang_x_Monogatari_Series[www.MP3Fiber.com].mp3
AudioLeadIn: 0
PreviewTime: 14451
Countdown: 0
SampleSet: None
StackLeniency: 0.7
Mode: 0
LetterboxInBreaks: 0
WidescreenStoryboard: 0

[Editor]
Bookmarks: 19181,40297
DistanceSpacing: 1
BeatDivisor: 4
GridSize: 8
TimelineZoom: 1.300001

[Metadata]
Title:Ninjya Re Bang Bang
TitleUnicode:にんじゃりばんばん(au TVCM ソング)
Artist:KYARY PAMYU PAMYU
ArtistUnicode:きゃりーぱみゅぱみゅ
Creator:Peachtrees
Version:Normal
Source:
Tags:Kiriko Takemura Caroline Charonplop Full Control Tokyo
BeatmapID:705330
BeatmapSetID:316573

[Difficulty]
HPDrainRate:4
CircleSize:3
OverallDifficulty:4
ApproachRate:5
SliderMultiplier:1.1
SliderTickRate:2

[Events]
//Background and Video events
0,0,"ff.jpg",0,0
//Break Periods
2,45458,51443
//Storyboard Layer 0 (Background)
//Storyboard Layer 1 (Fail)
//Storyboard Layer 2 (Pass)
//Storyboard Layer 3 (Foreground)
//Storyboard Sound Samples

[TimingPoints]
951,461.538461538462,4,3,0,60,1,0
15720,-100,4,3,0,70,0,1
45258,-100,4,3,0,70,0,0
60027,-100,4,3,0,50,0,0
74797,-100,4,3,0,60,0,0
82181,-100,4,3,0,50,0,0
85412,-100,4,3,0,40,0,0
89566,-100,4,3,0,70,0,1
119104,-100,4,3,0,70,0,0
133874,-100,4,3,0,60,0,0
134797,-100,4,3,0,50,0,0
135720,-100,4,3,0,40,0,0
136643,-100,4,3,0,30,0,0

[Colours]
Combo1 : 255,128,0
Combo2 : 255,0,0
Combo3 : 128,128,255
Combo4 : 128,255,0

[HitObjects]
81,77,951,6,0,P|70:141|86:201,1,110,2|8,2:0|1:0,0:0:0:0:
105,232,1643,1,0,0:0:0:0:
153,258,1874,2,0,L|268:251,1,110,2|8,2:0|1:0,0:0:0:0:
349,184,2797,2,0,P|371:233|366:288,2,110,2|8|2,2:0|1:0|2:0,0:0:0:0:
274,103,4181,1,8,1:0:0:0:
199,184,4643,6,0,P|141:207|73:195,1,110,2|8,2:0|1:0,0:0:0:0:
47,174,5335,1,0,0:0:0:0:
47,174,5566,2,0,L|50:296,1,110,2|8,2:0|1:0,0:0:0:0:
109,376,6489,2,0,P|142:344|158:276,1,110,2|8,2:0|1:0,0:0:0:0:
220,192,7412,2,0,P|257:231|269:284,1,110,2|8,2:0|1:0,0:0:0:0:
328,377,8335,6,0,P|365:337|377:284,1,110,4|8,0:0|1:0,0:0:0:0:
360,232,9027,1,0,0:0:0:0:
360,232,9258,2,0,L|340:117,1,110,2|8,2:0|1:0,0:0:0:0:
266,42,10181,2,0,P|236:80|236:156,1,110,2|8,2:0|1:0,0:0:0:0:
245,192,10874,1,0,0:0:0:0:
245,192,11104,2,0,B|190:182|190:182|136:192,1,110,2|8,2:0|1:0,0:0:0:0:
29,218,12027,6,0,P|40:251|103:297,2,110,2|8|2,2:0|1:0|2:0,0:0:0:0:
12,109,13412,1,8,1:0:0:0:
60,10,13874,1,4,0:0:0:0:
275,45,14797,2,0,L|340:55,2,55,2|0|8,2:0|0:0|1:0,0:0:0:0:
223,63,15489,1,0,0:0:0:0:
223,63,15720,6,0,P|213:117|236:166,1,110,4|8,0:2|1:0,0:0:0:0:
346,165,16643,2,0,P|355:223|317:281,1,110,2|8,0:0|1:0,0:0:0:0:
289,301,17335,1,0,0:0:0:0:
234,306,17566,1,2,0:0:0:0:
140,247,18027,2,0,L|135:170,1,55,8|0,1:0|0:0,0:0:0:0:
181,159,18489,2,0,L|187:43,1,110,2|8,0:0|1:0,0:0:0:0:
291,15,19412,6,0,P|333:17|401:73,2,110,2|8|2,0:0|1:0|0:0,0:0:0:0:
306,123,20797,2,0,L|316:191,1,55,8|0,1:0|0:0,0:0:0:0:
343,223,21258,2,0,L|334:284,1,55,2|0,0:0|0:0,0:0:0:0:
295,315,21720,2,0,L|303:374,2,55,8|0|2,1:0|0:0|0:0,0:0:0:0:
228,227,22643,1,8,1:0:0:0:
144,298,23104,6,0,P|119:250|129:183,1,110,2|8,0:0|1:0,0:0:0:0:
144,144,23797,1,0,0:0:0:0:
189,112,24027,1,2,0:0:0:0:
283,171,24489,2,0,L|337:171,1,55,8|0,1:0|0:0,0:0:0:0:
393,171,24951,2,0,P|419:115|406:58,1,110,2|8,0:0|1:0,0:0:0:0:
317,11,25874,1,2,0:0:0:0:
265,31,26104,1,0,0:0:0:0:
209,32,26335,1,8,1:0:0:0:
115,90,26797,6,0,P|153:129|221:143,2,110,2|8|2,0:0|1:0|0:0,0:0:0:0:
12,128,28181,2,0,L|15:194,1,55,8|0,1:0|0:0,0:0:0:0:
44,229,28643,2,0,L|47:295,1,55,2|0,0:0|0:0,0:0:0:0:
79,328,29104,2,0,P|127:335|192:296,1,110,8|2,1:0|0:0,0:0:0:0:
229,210,30027,1,8,1:0:0:0:
214,100,30489,6,0,P|263:104|314:139,1,110,4|8,0:2|1:0,0:0:0:0:
337,186,31181,1,0,0:0:0:0:
337,186,31412,2,0,L|323:304,1,110,2|8,0:0|1:0,0:0:0:0:
409,364,32335,1,2,0:0:0:0:
466,269,32797,1,8,1:0:0:0:
482,216,33027,1,0,0:0:0:0:
474,161,33258,2,0,P|449:112|383:80,1,110,2|8,0:0|1:0,0:0:0:0:
303,129,34181,6,0,L|310:256,2,110,2|8|2,0:0|1:0|0:0,0:0:0:0:
208,72,35566,2,0,P|234:41|254:32,2,55,8|0|2,1:0|0:0|0:0,0:0:0:0:
201,126,36258,1,0,0:0:0:0:
201,126,36489,2,0,L|89:129,1,110,8|2,1:0|0:0,0:0:0:0:
37,225,37412,1,8,1:0:0:0:
105,311,37874,6,0,P|164:301|210:260,1,110,2|8,0:0|1:0,0:0:0:0:
213,216,38566,1,0,0:0:0:0:
213,216,38797,2,0,L|321:233,1,110,2|8,0:0|1:0,0:0:0:0:
429,256,39720,1,2,0:0:0:0:
502,174,40181,2,0,P|490:118|449:68,1,110,8|2,1:0|0:0,0:0:0:0:
412,47,40874,1,0,0:0:0:0:
357,47,41104,1,8,1:0:0:0:
255,88,41566,6,0,P|189:72|153:20,2,110,2|8|2,0:0|1:0|0:0,0:0:0:0:
357,47,42951,2,0,L|365:112,1,55,8|0,1:0|0:0,0:0:0:0:
388,150,43412,2,0,L|380:215,1,55,2|0,0:0|0:0,0:0:0:0:
355,253,43874,2,0,L|363:318,2,55,8|0|2,1:0|0:0|0:0,0:0:0:0:
280,171,44797,1,8,1:0:0:0:
248,276,45258,1,4,0:2:0:0:
123,265,52643,6,0,P|200:245|222:221,1,110,4|8,0:2|1:0,0:0:0:0:
234,173,53335,1,0,0:0:0:0:
234,173,53566,2,0,L|362:183,1,110,2|8,0:0|1:0,0:0:0:0:
425,254,54489,2,0,P|447:220|446:142,1,110,2|8,0:0|1:0,0:0:0:0:
424,103,55181,1,0,0:0:0:0:
424,103,55412,2,0,L|314:94,1,110,2|8,0:0|1:0,0:0:0:0:
210,57,56335,6,0,P|223:28|248:9,2,55,2|0|8,0:0|0:0|1:0,0:0:0:0:
224,110,57027,1,0,0:0:0:0:
224,110,57258,2,0,P|218:168|171:219,1,110,2|8,0:0|1:0,0:0:0:0:
79,229,58181,2,0,P|97:277|167:314,1,110,2|8,0:0|1:0,0:0:0:0:
198,314,58874,1,0,0:0:0:0:
250,299,59104,2,0,B|336:258|378:342|465:300,1,220,2|2,0:0|2:0,0:0:0:0:
498,258,60258,5,2,2:0:0:0:
500,203,60489,1,8,1:0:0:0:
471,96,60951,1,2,2:0:0:0:
430,59,61181,1,2,2:0:0:0:
375,54,61412,1,8,1:0:0:0:
386,163,61874,6,0,P|353:163|322:149,1,55,2|2,2:0|2:0,0:0:0:0:
290,120,62335,1,8,1:0:0:0:
225,30,62797,2,0,L|164:34,1,55,2|2,2:0|2:0,0:0:0:0:
115,39,63258,1,8,1:0:0:0:
121,148,63720,6,0,P|151:144|180:124,2,55,4|2|8,0:0|2:0|1:0,0:0:0:0:
34,215,64643,1,2,2:0:0:0:
59,263,64874,1,2,2:0:0:0:
86,310,65104,1,8,1:0:0:0:
192,338,65566,6,0,L|257:326,2,55,2|2|4,2:0|2:0|3:0,0:0:0:0:
86,310,66489,2,0,L|31:300,2,55,2|2|4,2:0|2:0|3:0,0:0:0:0:
168,236,67412,5,2,2:0:0:0:
182,182,67643,1,2,2:0:0:0:
175,127,67874,1,8,1:0:0:0:
238,37,68335,1,2,2:0:0:0:
274,78,68566,1,2,2:0:0:0:
284,132,68797,1,8,1:0:0:0:
222,227,69258,6,0,L|163:236,2,55,2|2|8,2:0|2:0|1:0,0:0:0:0:
288,314,70181,2,0,L|229:323,2,55,2|2|8,2:0|2:0|1:0,0:0:0:0:
395,290,71104,5,4,3:0:0:0:
414,238,71335,1,2,2:0:0:0:
406,183,71566,1,8,1:0:0:0:
314,122,72027,1,2,2:0:0:0:
261,138,72258,1,2,2:0:0:0:
232,184,72489,1,8,1:0:0:0:
233,297,72951,6,0,L|287:287,1,55,2|0,2:0|0:0,0:0:0:0:
340,300,73412,2,0,L|394:290,1,55,4|0,0:0|0:0,0:0:0:0:
445,269,73874,2,0,P|468:215|460:142,1,110,2|8,2:0|1:0,0:0:0:0:
387,88,74797,6,0,P|412:67|433:60,2,55,4|0|8,0:2|0:0|1:0,0:0:0:0:
347,126,75489,1,0,0:0:0:0:
347,126,75720,2,0,P|298:126|248:90,1,110,2|8,2:0|1:0,0:0:0:0:
145,55,76643,2,0,L|141:115,1,55,2|0,2:0|0:0,0:0:0:0:
155,162,77104,2,0,L|151:222,1,55,8|0,1:0|0:0,0:0:0:0:
166,269,77566,2,0,P|232:294|277:279,1,110,2|8,2:0|1:0,0:0:0:0:
332,194,78489,6,0,L|319:75,2,110,4|8|2,0:0|1:0|2:0,0:0:0:0:
400,279,79874,1,8,1:0:0:0:
445,247,80104,1,0,0:0:0:0:
461,194,80335,2,0,P|461:133|437:88,1,110,2|8,2:0|1:0,0:0:0:0:
340,42,81258,2,0,L|217:44,1,110,2|8,2:0|1:0,0:0:0:0:
130,91,82181,6,0,P|173:139|229:154,1,110,2|8,2:0|1:0,0:0:0:0:
267,136,82874,1,0,0:0:0:0:
267,136,83104,2,0,L|250:249,1,110,2|8,2:0|1:0,0:0:0:0:
266,353,84027,2,0,P|320:330|354:279,1,110,2|8,2:0|1:0,0:0:0:0:
344,234,84720,1,0,0:0:0:0:
344,234,84951,2,0,L|459:240,1,110,2|8,2:0|1:0,0:0:0:0:
508,243,85643,1,0,0:0:0:0:
256,192,85874,12,4,87720,2:0:0:0:
325,222,89566,6,0,P|371:201|391:125,1,110,4|8,0:2|1:0,0:0:0:0:
376,96,90258,1,0,0:0:0:0:
376,96,90489,2,0,L|259:87,1,110,2|8,0:0|1:0,0:0:0:0:
167,38,91412,2,0,P|155:95|172:149,1,110,2|8,0:0|1:0,0:0:0:0:
207,182,92104,1,0,0:0:0:0:
207,182,92335,2,0,P|219:239|202:293,1,110,2|8,0:0|1:0,0:0:0:0:
107,339,93258,6,0,P|95:282|112:228,2,110,2|8|2,0:0|1:0|0:0,0:0:0:0:
212,369,94643,2,0,L|271:362,1,55,8|0,1:0|0:0,0:0:0:0:
315,337,95104,2,0,L|374:330,1,55,2|0,0:0|0:0,0:0:0:0:
424,340,95566,2,0,P|436:283|419:229,1,110,8|2,1:0|0:0,0:0:0:0:
342,158,96489,1,8,1:0:0:0:
368,51,96951,6,0,P|312:52|254:90,1,110,2|8,0:0|1:0,0:0:0:0:
234,122,97643,1,0,0:0:0:0:
234,122,97874,2,0,P|178:121|120:83,1,110,2|8,0:0|1:0,0:0:0:0:
55,15,98797,1,2,0:0:0:0:
21,119,99258,1,8,1:0:0:0:
19,174,99489,1,0,0:0:0:0:
34,226,99720,2,0,P|86:244|162:223,1,110,2|8,0:0|1:0,0:0:0:0:
249,235,100643,6,0,P|233:295|192:332,2,110,2|8|2,0:0|1:0|0:0,0:0:0:0:
230,126,102027,2,0,L|293:116,1,55,8|0,1:0|0:0,0:0:0:0:
335,137,102489,2,0,L|398:127,1,55,2|0,0:0|0:0,0:0:0:0:
439,152,102951,2,0,P|446:205|403:266,1,110,8|2,1:0|0:0,0:0:0:0:
332,319,103874,1,8,1:0:0:0:
249,246,104335,6,0,P|197:230|136:242,1,110,4|8,0:1|1:0,0:0:0:0:
94,265,105027,1,0,0:0:0:0:
64,311,105258,1,2,0:0:0:0:
168,345,105720,2,0,L|225:340,1,55,8|0,1:0|0:0,0:0:0:0:
276,352,106181,2,0,L|401:339,1,110,2|8,0:0|1:0,0:0:0:0:
471,271,107104,2,0,P|493:311|493:341,2,55,2|0|8,0:0|0:0|1:0,0:0:0:0:
428,235,107797,1,0,0:0:0:0:
428,235,108027,6,0,L|440:115,2,110,2|8|2,0:0|1:0|0:0,0:0:0:0:
322,266,109412,2,0,P|281:250|264:233,1,55,8|0,1:0|0:0,0:0:0:0:
241,198,109874,2,0,P|200:213|183:230,1,55,2|0,0:0|0:0,0:0:0:0:
156,262,110335,2,0,P|105:254|62:189,1,110,8|2,1:0|0:0,0:0:0:0:
68,102,111258,1,8,1:0:0:0:
150,29,111720,6,0,P|201:37|244:102,1,110,2|8,0:0|1:0,0:0:0:0:
230,133,112412,1,0,0:0:0:0:
230,133,112643,2,0,L|350:129,1,110,2|8,0:0|1:0,0:0:0:0:
443,92,113566,2,0,P|438:178|413:210,1,110,2|8,0:0|1:0,0:0:0:0:
380,226,114258,1,0,0:0:0:0:
380,226,114489,2,0,L|270:229,1,110,2|8,0:0|1:0,0:0:0:0:
161,211,115412,6,0,P|165:268|206:320,2,110,2|8|2,0:0|1:0|0:0,0:0:0:0:
188,104,116797,2,0,L|249:101,1,55,8|0,1:0|0:0,0:0:0:0:
295,117,117258,2,0,L|356:114,1,55,2|0,0:0|0:0,0:0:0:0:
402,131,117720,2,0,L|463:128,2,55,8|0|2,1:0|0:0|0:0,0:0:0:0:
360,233,118643,1,8,1:0:0:0:
408,331,119104,6,0,P|336:338|288:316,1,110,4|8,0:2|1:0,0:0:0:0:
261,287,119797,1,0,0:0:0:0:
261,287,120027,2,0,P|189:280|141:302,1,110,2|8,0:0|1:0,0:0:0:0:
45,281,120951,2,0,P|65:227|113:190,1,110,2|8,0:0|1:0,0:0:0:0:
157,179,121643,1,0,0:0:0:0:
157,179,121874,2,0,L|275:179,1,110,2|8,0:0|1:0,0:0:0:0:
356,114,122797,5,2,0:0:0:0:
376,164,123027,1,0,0:0:0:0:
370,218,123258,2,0,P|338:267|288:288,1,110,8|2,1:0|0:0,0:0:0:0:
183,302,124181,1,8,1:0:0:0:
89,244,124643,1,2,0:0:0:0:
69,194,124873,1,0,0:0:0:0:
75,140,125104,2,0,P|107:91|157:70,2,110,8|2|8,1:0|0:0|1:0,0:0:0:0:
177,179,126489,6,0,L|250:199,1,55,4|0,0:2|0:0,0:0:0:0:
273,228,126951,2,0,L|386:210,1,110,8|2,1:0|0:0,0:0:0:0:
483,252,127874,1,8,1:0:0:0:
472,305,128104,1,0,0:0:0:0:
437,347,128335,2,0,L|328:364,1,110,2|8,0:0|1:0,0:0:0:0:
229,321,129258,2,0,P|242:255|287:220,1,110,2|8,0:0|1:0,0:0:0:0:
324,207,129951,1,0,0:0:0:0:
324,207,130181,6,0,L|313:97,2,110,2|8|2,0:0|1:0|0:0,0:0:0:0:
399,286,131566,1,8,1:0:0:0:
449,264,131797,1,0,0:0:0:0:
474,215,132027,2,0,L|463:105,2,110,2|8|2,0:0|1:0|0:0,0:0:0:0:
256,192,133181,12,4,137566,3:2:0:0:
