osu file format v14

[General]
AudioFilename: Ninjari_Bang_bang_x_Monogatari_Series[www.MP3Fiber.com].mp3
AudioLeadIn: 0
PreviewTime: 14451
Countdown: 0
SampleSet: None
StackLeniency: 0.7
Mode: 0
LetterboxInBreaks: 0
WidescreenStoryboard: 0

[Editor]
DistanceSpacing: 0.8
BeatDivisor: 4
GridSize: 4
TimelineZoom: 1.300001

[Metadata]
Title:Ninjya Re Bang Bang
TitleUnicode:にんじゃりばんばん(au TVCM ソング)
Artist:KYARY PAMYU PAMYU
ArtistUnicode:きゃりーぱみゅぱみゅ
Creator:Peachtrees
Version:Insane
Source:
Tags:Kiriko Takemura Caroline Charonplop Full Control Tokyo
BeatmapID:705329
BeatmapSetID:316573

[Difficulty]
HPDrainRate:7
CircleSize:4
OverallDifficulty:7
ApproachRate:8
SliderMultiplier:1.6
SliderTickRate:2

[Events]
//Background and Video events
0,0,"ff.jpg",0,0
//Break Periods
2,45458,51893
//Storyboard Layer 0 (Background)
//Storyboard Layer 1 (Fail)
//Storyboard Layer 2 (Pass)
//Storyboard Layer 3 (Foreground)
//Storyboard Sound Samples

[TimingPoints]
951,461.538461538462,4,3,0,60,1,0
15720,-100,4,3,0,70,0,1
45258,-100,4,3,0,70,0,0
60027,-100,4,3,0,50,0,0
74797,-100,4,3,0,60,0,0
82181,-100,4,3,0,50,0,0
85412,-100,4,3,0,40,0,0
89566,-100,4,3,0,70,0,1
119104,-100,4,3,0,70,0,0
133874,-100,4,3,0,60,0,0
134797,-100,4,3,0,50,0,0
135720,-100,4,3,0,40,0,0
136643,-100,4,3,0,30,0,0

[Colours]
Combo1 : 255,128,0
Combo2 : 255,0,0
Combo3 : 128,128,255
Combo4 : 128,255,0

[HitObjects]
166,257,951,6,0,L|246:254,1,80,2|0,2:0|0:0,0:0:0:0:
343,135,1412,2,0,L|263:138,1,80,8|0,1:0|0:0,0:0:0:0:
102,207,1874,2,0,P|87:244|97:295,1,80,2|0,2:0|0:0,0:0:0:0:
252,214,2335,2,0,P|267:177|257:126,1,80,8|0,1:0|0:0,0:0:0:0:
88,117,2797,5,2,2:0:0:0:
102,207,3027,1,0,0:0:0:0:
238,304,3258,1,8,1:0:0:0:
252,214,3488,1,0,0:0:0:0:
162,64,3720,1,2,2:0:0:0:
88,117,3950,1,0,0:0:0:0:
158,301,4181,2,0,L|238:304,1,80,8|0,1:0|0:0,0:0:0:0:
323,182,4643,6,0,P|281:192|247:218,1,80,2|0,2:0|0:0,0:0:0:0:
320,346,5104,2,0,P|361:335|395:309,1,80,8|0,1:0|0:0,0:0:0:0:
390,127,5566,2,0,P|357:104|318:94,1,80,2|0,2:0|0:0,0:0:0:0:
180,181,6027,2,0,P|212:203|251:213,1,80,8|0,1:0|0:0,0:0:0:0:
390,127,6489,5,2,2:0:0:0:
360,36,6720,1,0,0:0:0:0:
210,90,6951,1,8,1:0:0:0:
180,181,7182,1,0,0:0:0:0:
279,309,7412,2,0,B|389:299|389:299|423:255,1,160,2|8,2:0|1:0,0:0:0:0:
259,174,8104,1,0,0:0:0:0:
259,174,8335,6,0,L|171:181,1,80,4|0,0:0|0:0,0:0:0:0:
98,343,8797,2,0,L|177:336,1,80,8|0,1:0|0:0,0:0:0:0:
341,174,9258,2,0,P|320:119|227:98,1,160,2|8,2:0|1:0,0:0:0:0:
325,258,9951,1,0,0:0:0:0:
325,258,10181,6,0,P|383:247|403:229,1,80,2|0,2:0|0:0,0:0:0:0:
428,97,10643,2,0,P|400:67|362:55,1,80,8|0,1:0|0:0,0:0:0:0:
234,140,11104,2,0,P|257:212|326:258,1,160,2|8,2:0|1:0,0:0:0:0:
418,230,11797,1,0,0:0:0:0:
288,335,12027,6,0,B|183:342|183:342|131:327,1,160,2|8,2:0|1:0,0:0:0:0:
324,85,12951,2,0,B|428:77|428:77|481:93,1,160,2|8,2:0|1:0,0:0:0:0:
288,335,13874,5,4,0:0:0:0:
282,330,14797,2,0,P|274:281|282:241,1,80,2|0,2:0|0:0,0:0:0:0:
391,104,15258,1,8,1:0:0:0:
427,193,15489,1,0,0:0:0:0:
278,251,15720,6,0,L|110:240,1,160,4|8,0:2|1:0,0:0:0:0:
32,147,16412,1,0,0:0:0:0:
3,280,16643,1,2,0:0:0:0:
128,139,16874,1,0,0:0:0:0:
128,139,16989,1,0,0:0:0:0:
128,139,17104,2,0,L|216:145,1,80,8|0,1:0|0:0,0:0:0:0:
357,256,17566,6,0,L|277:250,1,80,2|0,0:0|0:0,0:0:0:0:
128,139,18027,1,8,1:0:0:0:
323,99,18258,1,0,0:0:0:0:
207,86,18489,1,2,0:0:0:0:
377,178,18720,1,0,0:0:0:0:
377,178,18835,1,0,0:0:0:0:
377,178,18951,2,0,L|356:258,1,80,8|0,1:0|0:0,0:0:0:0:
188,164,19412,6,0,L|208:86,1,80,2|0,0:0|0:0,0:0:0:0:
377,210,19874,2,0,L|329:277,1,80,8|0,1:0|0:0,0:0:0:0:
188,134,20335,2,0,L|233:68,1,80,2|0,0:0|0:0,0:0:0:0:
375,244,20797,1,8,1:0:0:0:
320,322,21027,1,0,0:0:0:0:
175,211,21258,6,0,P|177:160|192:126,1,80,2|0,0:0|0:0,0:0:0:0:
387,166,21720,2,0,P|385:217|370:251,1,80,8|0,1:0|0:0,0:0:0:0:
320,322,22181,1,2,0:0:0:0:
187,133,22412,1,0,0:0:0:0:
187,133,22527,1,0,0:0:0:0:
187,133,22643,1,8,1:0:0:0:
280,192,22874,1,0,0:0:0:0:
142,308,23104,6,0,P|78:295|36:210,1,160,2|8,0:0|1:0,0:0:0:0:
79,81,23797,1,0,0:0:0:0:
131,213,24027,1,2,0:0:0:0:
187,133,24258,1,0,0:0:0:0:
187,133,24374,1,0,0:0:0:0:
187,133,24489,2,0,L|276:140,1,80,8|0,1:0|0:0,0:0:0:0:
343,299,24951,6,0,L|263:292,1,80,2|0,0:0|0:0,0:0:0:0:
187,133,25412,2,0,P|193:85|214:55,1,80,8|0,1:0|0:0,0:0:0:0:
386,210,25874,2,0,P|380:258|359:288,1,80,2|0,0:0|0:0,0:0:0:0:
343,299,26220,1,0,0:0:0:0:
343,299,26335,2,0,L|263:292,1,80,8|0,1:0|0:0,0:0:0:0:
108,127,26797,6,0,L|187:133,1,80,2|0,0:0|0:0,0:0:0:0:
263,292,27258,2,0,L|183:285,1,80,8|0,1:0|0:0,0:0:0:0:
187,133,27720,2,0,L|266:139,1,80,2|0,0:0|0:0,0:0:0:0:
413,233,28181,1,8,1:0:0:0:
343,299,28412,1,0,0:0:0:0:
168,208,28643,6,0,P|168:170|193:125,1,80,2|0,0:0|0:0,0:0:0:0:
361,223,29104,2,0,P|360:260|336:306,1,80,8|0,1:0|0:0,0:0:0:0:
249,322,29566,1,2,0:0:0:0:
304,106,29797,1,0,0:0:0:0:
304,106,29912,1,0,0:0:0:0:
304,106,30027,1,8,1:0:0:0:
249,322,30489,6,0,P|191:337|90:306,1,160,4|8,0:2|1:0,0:0:0:0:
10,229,31181,1,0,0:0:0:0:
91,97,31412,2,0,P|139:101|172:123,1,80,2|0,0:0|0:0,0:0:0:0:
186,132,31758,1,0,0:0:0:0:
186,132,31874,2,0,P|234:128|267:106,1,80,8|0,1:0|0:0,0:0:0:0:
91,97,32335,6,0,P|88:147|104:191,1,80,2|0,0:0|0:0,0:0:0:0:
241,302,32797,2,0,P|244:252|228:208,2,80,8|0|2,1:0|0:0|0:0,0:0:0:0:
86,360,33489,1,0,0:0:0:0:
86,360,33604,1,0,0:0:0:0:
86,360,33720,2,0,P|76:321|80:281,1,80,8|0,1:0|0:0,0:0:0:0:
235,223,34181,6,0,L|314:224,1,80,2|0,0:0|0:0,0:0:0:0:
448,326,34643,2,0,L|368:324,1,80,8|0,1:0|0:0,0:0:0:0:
346,122,35104,2,0,L|435:124,1,80,2|0,0:0|0:0,0:0:0:0:
288,312,35566,1,8,1:0:0:0:
235,223,35797,1,0,0:0:0:0:
425,123,36027,6,0,P|433:167|419:214,1,80,2|0,0:0|0:0,0:0:0:0:
235,223,36489,2,0,P|227:179|241:132,1,80,8|0,1:0|0:0,0:0:0:0:
315,90,36951,1,2,0:0:0:0:
288,312,37181,1,0,0:0:0:0:
288,312,37297,1,0,0:0:0:0:
288,312,37412,1,8,1:0:0:0:
144,363,37643,1,0,0:0:0:0:
71,238,37874,6,0,L|89:64,1,160,2|8,0:0|1:0,0:0:0:0:
179,20,38566,1,0,0:0:0:0:
183,149,38797,1,2,0:0:0:0:
286,61,39027,1,0,0:0:0:0:
286,61,39143,1,0,0:0:0:0:
286,61,39258,2,0,P|337:74|363:100,1,80,8|0,1:0|0:0,0:0:0:0:
183,149,39720,6,0,P|132:136|106:110,1,80,2|0,0:0|0:0,0:0:0:0:
296,178,40181,2,0,L|279:270,1,80,8|0,1:0|0:0,0:0:0:0:
199,333,40643,1,2,0:0:0:0:
183,149,40874,1,0,0:0:0:0:
183,149,40989,1,0,0:0:0:0:
183,149,41104,2,0,L|197:70,1,80,8|0,1:0|0:0,0:0:0:0:
383,175,41566,6,0,L|350:337,2,160,2|8|2,0:0|1:0|0:0,0:0:0:0:
183,149,42951,2,0,P|143:155|113:180,1,80,8|0,1:0|0:0,0:0:0:0:
313,206,43412,2,0,P|352:199|382:174,1,80,2|0,0:0|0:0,0:0:0:0:
229,65,43874,1,8,1:0:0:0:
183,149,44104,1,0,0:0:0:0:
268,308,44335,1,2,0:0:0:0:
354,149,44566,5,2,0:0:0:0:
329,128,44681,1,0,0:0:0:0:
300,116,44797,1,8,1:0:0:0:
268,112,44911,1,0,0:0:0:0:
238,116,45027,1,2,0:0:0:0:
207,129,45142,1,0,0:0:0:0:
183,149,45258,1,4,0:2:0:0:
280,146,52643,5,4,0:2:0:0:
301,51,52874,1,0,0:0:0:0:
107,49,53104,2,0,L|110:92,1,40,8|0,1:0|0:0,0:0:0:0:
75,186,53335,2,0,L|57:151,1,40,2|0,0:0|0:0,0:0:0:0:
158,160,53566,2,0,P|160:201|144:239,1,80,2|0,0:0|0:0,0:0:0:0:
42,348,54027,1,8,1:0:0:0:
74,350,54143,1,0,0:0:0:0:
105,351,54258,1,2,0:0:0:0:
137,351,54374,1,0,0:0:0:0:
168,353,54489,6,0,L|259:356,1,80,2|0,0:0|0:0,0:0:0:0:
400,270,54951,2,0,L|356:263,1,40,8|0,1:0|0:0,0:0:0:0:
326,181,55181,2,0,L|366:181,1,40,2|0,0:0|0:0,0:0:0:0:
476,252,55412,2,0,P|478:278|453:329,1,80,2|0,0:0|0:0,0:0:0:0:
294,358,55874,1,8,1:0:0:0:
262,356,55990,1,0,0:0:0:0:
231,355,56105,1,2,0:0:0:0:
199,355,56221,1,0,0:0:0:0:
168,353,56336,6,0,L|77:350,1,80,2|0,0:0|0:0,0:0:0:0:
65,172,56797,2,0,L|119:173,1,40,8|0,1:0|0:0,0:0:0:0:
165,243,57027,2,0,L|126:254,1,40,2|0,0:0|0:0,0:0:0:0:
196,157,57258,2,0,L|302:158,1,80,2|0,0:0|0:0,0:0:0:0:
416,241,57720,1,8,1:0:0:0:
437,217,57835,1,0,0:0:0:0:
449,187,57951,1,2,0:0:0:0:
452,155,58066,1,0,0:0:0:0:
443,124,58181,6,0,P|428:87|388:56,1,80,2|0,0:0|0:0,0:0:0:0:
232,71,58643,1,8,1:0:0:0:
211,95,58758,1,0,0:0:0:0:
199,125,58874,1,2,0:0:0:0:
196,157,58989,1,0,0:0:0:0:
205,188,59104,6,0,B|241:246|241:246|197:278|197:278|216:329|330:355|391:275,1,320,2|2,0:0|2:0,0:0:0:0:
445,221,60258,1,2,2:0:0:0:
487,336,60489,1,8,1:0:0:0:
342,176,60951,1,2,2:0:0:0:
369,297,61181,1,2,2:0:0:0:
487,336,61412,1,8,1:0:0:0:
371,58,61874,5,2,2:0:0:0:
342,176,62104,1,2,2:0:0:0:
229,228,62335,1,8,1:0:0:0:
258,110,62797,1,2,2:0:0:0:
229,228,63027,1,2,2:0:0:0:
117,282,63258,1,8,1:0:0:0:
258,110,63720,6,0,L|347:95,1,80,4|2,0:0|2:0,0:0:0:0:
463,117,64181,1,8,1:0:0:0:
320,282,64643,2,0,L|240:296,1,80,2|2,2:0|2:0,0:0:0:0:
117,282,65104,1,8,1:0:0:0:
384,212,65566,6,0,P|409:257|402:311,1,80,2|2,2:0|2:0,0:0:0:0:
276,372,66027,1,4,3:0:0:0:
175,182,66489,2,0,P|165:145|186:79,1,80,2|2,2:0|2:0,0:0:0:0:
291,50,66951,1,4,3:0:0:0:
394,239,67412,6,0,P|383:276|357:306,2,80,2|2|8,2:0|2:0|1:0,0:0:0:0:
291,50,68335,2,0,L|210:63,2,80,2|2|8,2:0|2:0|1:0,0:0:0:0:
195,179,69258,6,0,P|129:150|94:61,1,160,2|8,2:0|1:0,0:0:0:0:
297,125,70181,2,0,L|272:291,1,160,2|8,2:0|1:0,0:0:0:0:
487,303,71104,6,0,L|473:212,1,80,4|0,3:0|0:0,0:0:0:0:
452,102,71566,1,8,1:0:0:0:
242,36,72027,1,2,2:0:0:0:
147,55,72258,1,2,2:0:0:0:
99,139,72489,1,8,1:0:0:0:
103,156,72951,5,2,2:0:0:0:
122,250,73181,1,2,2:0:0:0:
270,321,73412,2,0,L|376:315,1,80,4|2,0:0|2:0,0:0:0:0:
182,151,73874,2,0,L|102:155,1,80,2|0,2:0|0:0,0:0:0:0:
270,321,74335,1,8,1:0:0:0:
327,241,74566,1,0,0:0:0:0:
182,151,74797,6,0,P|161:188|161:247,1,80,4|0,0:2|0:0,0:0:0:0:
327,241,75258,2,0,P|348:204|348:145,1,80,8|0,1:0|0:0,0:0:0:0:
214,60,75720,1,2,2:0:0:0:
182,151,75951,1,0,0:0:0:0:
186,246,76181,2,0,P|204:287|253:323,1,80,8|0,1:0|0:0,0:0:0:0:
431,311,76643,5,2,2:0:0:0:
475,225,76874,1,0,0:0:0:0:
283,155,77104,1,8,1:0:0:0:
327,241,77335,1,0,0:0:0:0:
475,225,77566,2,0,P|503:194|510:141,1,80,2|0,2:0|0:0,0:0:0:0:
319,87,78027,2,0,P|291:118|284:171,1,80,8|0,1:0|0:0,0:0:0:0:
205,277,78489,6,0,P|175:242|157:127,1,160,4|8,3:0|1:0,0:0:0:0:
319,87,79181,1,0,0:0:0:0:
319,87,79412,2,0,P|349:122|367:237,1,160,2|8,2:0|1:0,0:0:0:0:
307,331,80104,1,0,0:0:0:0:
205,277,80335,6,0,P|199:223|212:181,1,80,2|0,2:0|0:0,0:0:0:0:
319,87,80797,2,0,P|325:141|312:183,1,80,8|0,1:0|0:0,0:0:0:0:
121,211,81258,2,0,P|133:158|160:123,1,80,2|0,2:0|0:0,0:0:0:0:
319,165,81720,2,0,P|306:217|279:252,1,80,8|0,1:0|0:0,0:0:0:0:
147,323,82181,6,0,L|332:332,1,160,2|8,2:0|1:0,0:0:0:0:
460,255,82874,1,0,0:0:0:0:
398,169,83104,2,0,L|299:164,2,80,2|0|8,2:0|0:0|1:0,0:0:0:0:
460,255,83797,1,0,0:0:0:0:
280,254,84027,6,0,P|242:219|250:103,1,160,2|8,2:0|1:0,0:0:0:0:
314,24,84720,1,0,0:0:0:0:
398,169,84951,2,0,L|367:342,1,160,2|8,2:0|1:0,0:0:0:0:
256,360,85643,1,0,0:0:0:0:
256,192,85874,12,4,87720,3:2:0:0:
276,219,88643,6,0,L|364:213,1,80,2|0,2:0|0:0,0:0:0:0:
244,75,89104,1,8,1:0:0:0:
173,139,89335,1,0,0:0:0:0:
229,303,89566,6,0,L|395:293,1,160,4|8,0:2|1:0,0:0:0:0:
450,217,90258,1,0,0:0:0:0:
479,352,90489,1,2,0:0:0:0:
355,213,90720,1,0,0:0:0:0:
355,213,90835,1,0,0:0:0:0:
355,213,90951,2,0,L|275:218,1,80,8|0,1:0|0:0,0:0:0:0:
128,113,91412,6,0,L|207:107,1,80,2|0,0:0|0:0,0:0:0:0:
355,213,91874,2,0,P|346:269|316:299,1,80,8|0,1:0|0:0,0:0:0:0:
131,212,92335,2,0,P|110:178|108:138,1,80,2|0,0:0|0:0,0:0:0:0:
128,113,92681,1,0,0:0:0:0:
128,113,92797,2,0,L|207:107,1,80,8|0,1:0|0:0,0:0:0:0:
355,213,93258,6,0,L|276:219,1,80,2|0,0:0|0:0,0:0:0:0:
128,113,93720,2,0,P|134:68|158:32,1,80,8|0,1:0|0:0,0:0:0:0:
355,213,94181,2,0,P|349:258|325:294,1,80,2|0,0:0|0:0,0:0:0:0:
120,209,94643,1,8,1:0:0:0:
128,113,94874,1,0,0:0:0:0:
331,138,95104,6,0,P|350:172|354:212,1,80,2|0,0:0|0:0,0:0:0:0:
144,282,95566,2,0,P|124:247|120:207,1,80,8|0,1:0|0:0,0:0:0:0:
278,58,96027,1,2,0:0:0:0:
261,283,96258,1,0,0:0:0:0:
261,283,96374,1,0,0:0:0:0:
261,283,96489,1,8,1:0:0:0:
128,113,96720,1,0,0:0:0:0:
278,58,96951,6,0,L|361:50,1,80,2|0,0:0|0:0,0:0:0:0:
384,219,97412,1,8,1:0:0:0:
331,138,97643,1,0,0:0:0:0:
285,333,97874,1,2,0:0:0:0:
244,186,98104,1,0,0:0:0:0:
244,186,98220,1,0,0:0:0:0:
244,186,98335,2,0,L|161:178,1,80,8|0,1:0|0:0,0:0:0:0:
285,333,98797,6,0,L|364:340,1,80,2|0,0:0|0:0,0:0:0:0:
323,193,99258,2,0,L|243:185,1,80,8|0,1:0|0:0,0:0:0:0:
145,291,99720,1,2,0:0:0:0:
140,108,99951,1,0,0:0:0:0:
140,108,100066,1,0,0:0:0:0:
140,108,100181,2,0,P|183:72|221:66,1,80,8|0,1:0|0:0,0:0:0:0:
323,193,100643,6,0,P|280:229|242:235,1,80,2|0,0:0|0:0,0:0:0:0:
305,43,101104,2,0,P|338:64|358:99,1,80,8|0,1:0|0:0,0:0:0:0:
310,290,101566,2,0,P|276:268|256:233,1,80,2|0,0:0|0:0,0:0:0:0:
208,49,102027,1,8,1:0:0:0:
305,43,102258,1,0,0:0:0:0:
357,207,102489,5,2,0:0:0:0:
310,290,102720,1,0,0:0:0:0:
161,132,102951,1,8,1:0:0:0:
208,49,103182,1,0,0:0:0:0:
362,115,103412,1,2,0:0:0:0:
161,132,103643,1,0,0:0:0:0:
161,132,103758,1,0,0:0:0:0:
161,132,103874,1,8,1:0:0:0:
174,353,104335,6,0,P|244:347|311:287,1,160,4|8,0:2|1:0,0:0:0:0:
161,132,105027,1,0,0:0:0:0:
215,263,105258,1,2,0:0:0:0:
241,115,105489,1,0,0:0:0:0:
241,115,105604,1,0,0:0:0:0:
241,115,105720,2,0,L|332:122,1,80,8|0,1:0|0:0,0:0:0:0:
392,302,106181,6,0,L|312:295,1,80,2|0,0:0|0:0,0:0:0:0:
161,132,106643,2,0,P|164:85|191:48,1,80,8|0,1:0|0:0,0:0:0:0:
331,221,107104,2,0,P|328:268|301:305,1,80,2|0,0:0|0:0,0:0:0:0:
282,313,107451,1,0,0:0:0:0:
282,313,107566,2,0,L|194:309,1,80,8|0,1:0|0:0,0:0:0:0:
123,146,108027,6,0,L|211:150,1,80,2|0,0:0|0:0,0:0:0:0:
361,316,108489,2,0,L|273:312,1,80,8|0,1:0|0:0,0:0:0:0:
202,149,108951,2,0,L|290:153,1,80,2|0,0:0|0:0,0:0:0:0:
361,316,109412,1,8,1:0:0:0:
282,370,109643,1,0,0:0:0:0:
153,232,109874,5,2,0:0:0:0:
202,149,110104,1,0,0:0:0:0:
375,239,110335,2,0,P|371:294|348:333,1,80,8|0,1:0|0:0,0:0:0:0:
202,149,110797,2,0,P|230:101|268:77,1,80,2|0,0:0|0:0,0:0:0:0:
279,74,111143,1,0,0:0:0:0:
279,74,111258,1,8,1:0:0:0:
375,239,111489,1,0,0:0:0:0:
282,370,111720,6,0,L|117:341,1,160,2|8,0:0|1:0,0:0:0:0:
111,155,112412,1,0,0:0:0:0:
201,241,112643,2,0,L|288:256,1,80,2|0,0:0|0:0,0:0:0:0:
312,252,112989,1,0,0:0:0:0:
312,252,113104,2,0,P|340:216|341:166,1,80,8|0,1:0|0:0,0:0:0:0:
143,85,113566,6,0,P|115:121|114:171,1,80,2|0,0:0|0:0,0:0:0:0:
250,327,114027,1,8,1:0:0:0:
312,252,114258,1,0,0:0:0:0:
250,70,114489,2,0,L|161:67,1,80,2|0,0:0|0:0,0:0:0:0:
143,85,114835,1,0,0:0:0:0:
143,85,114951,2,0,P|115:121|114:171,1,80,8|0,1:0|0:0,0:0:0:0:
312,251,115412,6,0,P|337:221|344:182,1,80,2|0,0:0|0:0,0:0:0:0:
110,154,115874,2,0,P|113:182|142:223,1,80,8|0,1:0|0:0,0:0:0:0:
344,182,116335,2,0,P|341:154|311:112,1,80,2|0,0:0|0:0,0:0:0:0:
142,223,116797,1,8,1:0:0:0:
191,305,117027,1,0,0:0:0:0:
344,182,117258,5,2,0:0:0:0:
295,100,117488,1,0,0:0:0:0:
93,141,117720,1,8,1:0:0:0:
142,223,117950,1,0,0:0:0:0:
295,100,118181,2,0,P|262:78|203:80,1,80,2|0,0:0|0:0,0:0:0:0:
191,305,118643,1,8,1:0:0:0:
219,318,118758,1,0,0:0:0:0:
251,322,118873,1,2,0:0:0:0:
282,317,118989,1,0,0:0:0:0:
310,301,119104,6,0,L|306:213,1,80,4|0,0:2|0:0,0:0:0:0:
249,52,119566,2,0,L|245:91,1,40,8|0,1:0|0:0,0:0:0:0:
159,127,119797,2,0,L|155:88,1,40,2|0,0:0|0:0,0:0:0:0:
76,138,120027,2,0,L|71:238,1,80,2|0,0:0|0:0,0:0:0:0:
153,320,120489,2,0,L|190:305,1,40,8|0,1:0|0:0,0:0:0:0:
310,301,120720,2,0,L|273:316,1,40,2|0,0:0|0:0,0:0:0:0:
241,228,120951,6,0,L|333:196,1,80,2|0,0:0|0:0,0:0:0:0:
420,97,121412,1,8,1:0:0:0:
395,76,121527,1,0,0:0:0:0:
366,63,121642,1,2,0:0:0:0:
335,57,121758,1,0,0:0:0:0:
304,64,121874,2,0,P|256:73|214:63,1,80,2|0,0:0|0:0,0:0:0:0:
76,138,122335,2,0,L|113:194,1,40,8|0,1:0|0:0,0:0:0:0:
189,197,122566,2,0,L|184:158,1,40,2|0,0:0|0:0,0:0:0:0:
125,257,122797,6,0,P|161:280|203:284,1,80,2|0,0:0|0:0,0:0:0:0:
342,235,123258,1,8,1:0:0:0:
351,266,123374,1,0,0:0:0:0:
351,298,123489,1,2,0:0:0:0:
343,329,123604,1,0,0:0:0:0:
323,354,123720,2,0,P|282:366|240:358,1,80,2|0,0:0|0:0,0:0:0:0:
125,257,124181,2,0,L|137:211,1,40,8|0,1:0|0:0,0:0:0:0:
76,138,124412,2,0,L|65:176,1,40,2|0,0:0|0:0,0:0:0:0:
53,291,124643,2,0,P|76:320|118:337,1,80,2|0,0:0|0:0,0:0:0:0:
225,246,125104,5,8,1:0:0:0:
230,214,125219,1,0,0:0:0:0:
242,184,125334,1,2,0:0:0:0:
260,158,125450,1,0,0:0:0:0:
283,137,125566,1,2,0:0:0:0:
311,121,125680,1,0,0:0:0:0:
342,111,125796,1,2,0:0:0:0:
373,109,125911,1,0,0:0:0:0:
405,114,126027,1,8,1:0:0:0:
433,128,126143,1,0,0:0:0:0:
453,152,126258,1,2,0:0:0:0:
361,253,126489,6,0,L|368:332,1,80,4|0,0:2|0:0,0:0:0:0:
225,246,126951,2,0,L|234:195,1,40,8|0,1:0|0:0,0:0:0:0:
171,144,127181,2,0,L|162:93,1,40,2|0,0:0|0:0,0:0:0:0:
127,234,127412,2,0,L|143:331,1,80,2|0,0:0|0:0,0:0:0:0:
294,347,127874,2,0,L|333:326,1,40,8|0,1:0|0:0,0:0:0:0:
361,253,128104,2,0,L|316:227,1,40,2|0,0:0|0:0,0:0:0:0:
409,189,128335,6,0,L|501:139,1,80,2|0,0:0|0:0,0:0:0:0:
413,22,128797,1,8,1:0:0:0:
385,38,128912,1,0,0:0:0:0:
357,54,129027,1,2,0:0:0:0:
330,70,129143,1,0,0:0:0:0:
302,86,129258,2,0,L|231:124,1,80,2|0,0:0|0:0,0:0:0:0:
92,207,129720,2,0,L|133:229,1,40,8|0,1:0|0:0,0:0:0:0:
251,227,129951,2,0,L|215:208,1,40,2|0,0:0|0:0,0:0:0:0:
173,301,130181,6,0,L|255:347,1,80,2|0,0:0|0:0,0:0:0:0:
398,353,130643,1,8,1:0:0:0:
420,330,130758,1,0,0:0:0:0:
435,302,130874,1,2,0:0:0:0:
439,270,130989,1,0,0:0:0:0:
434,238,131104,2,0,L|421:160,1,80,2|0,0:0|0:0,0:0:0:0:
295,56,131566,2,0,L|289:95,1,40,8|0,1:0|0:0,0:0:0:0:
209,164,131797,2,0,L|203:124,1,40,2|0,0:0|0:0,0:0:0:0:
135,56,132027,6,0,P|95:60|49:95,1,80,2|0,0:0|0:0,0:0:0:0:
19,224,132489,1,8,1:0:0:0:
49,232,132604,1,0,0:0:0:0:
81,232,132720,1,2,0:0:0:0:
111,224,132835,1,0,0:0:0:0:
256,192,132951,12,4,133874,3:2:0:0:
256,192,133989,12,4,134796,3:2:0:0:
256,192,134912,12,4,135719,3:2:0:0:
256,192,135835,12,4,136643,2:0:0:0:
256,192,136758,12,4,137566,3:2:0:0:
