osu file format v14

[General]
AudioFilename: Ninjari_Bang_bang_x_Monogatari_Series[www.MP3Fiber.com].mp3
AudioLeadIn: 0
PreviewTime: 14451
Countdown: 0
SampleSet: None
StackLeniency: 0.7
Mode: 0
LetterboxInBreaks: 0
WidescreenStoryboard: 0

[Editor]
Bookmarks: 19181,40297
DistanceSpacing: 1.2
BeatDivisor: 4
GridSize: 8
TimelineZoom: 1.300001

[Metadata]
Title:Ninjya Re Bang Bang
TitleUnicode:にんじゃりばんばん(au TVCM ソング)
Artist:KYARY PAMYU PAMYU
ArtistUnicode:きゃりーぱみゅぱみゅ
Creator:Peachtrees
Version:Easy
Source:
Tags:Kiriko Takemura Caroline Charonplop Full Control Tokyo
BeatmapID:705327
BeatmapSetID:316573

[Difficulty]
HPDrainRate:2
CircleSize:2
OverallDifficulty:2
ApproachRate:3
SliderMultiplier:0.8
SliderTickRate:2

[Events]
//Background and Video events
0,0,"ff.jpg",0,0
//Break Periods
2,45458,51203
//Storyboard Layer 0 (Background)
//Storyboard Layer 1 (Fail)
//Storyboard Layer 2 (Pass)
//Storyboard Layer 3 (Foreground)
//Storyboard Sound Samples

[TimingPoints]
951,461.538461538462,4,3,0,60,1,0
15720,-100,4,3,0,70,0,1
45258,-100,4,3,0,70,0,0
60027,-100,4,3,0,50,0,0
74797,-100,4,3,0,60,0,0
82181,-100,4,3,0,50,0,0
85412,-100,4,3,0,40,0,0
89566,-100,4,3,0,70,0,1
119104,-100,4,3,0,70,0,0
133874,-100,4,3,0,60,0,0
134797,-100,4,3,0,50,0,0
135720,-100,4,3,0,40,0,0
136643,-100,4,3,0,30,0,0

[Colours]
Combo1 : 255,128,0
Combo2 : 255,0,0
Combo3 : 128,128,255
Combo4 : 128,255,0

[HitObjects]
117,333,951,6,0,P|70:269|69:190,1,160,2|2,2:0|2:0,0:0:0:0:
113,104,2335,1,8,1:0:0:0:
204,74,2797,2,0,L|365:80,1,160,2|2,2:0|2:0,0:0:0:0:
432,147,4181,1,8,1:0:0:0:
412,241,4643,6,0,L|252:235,1,160,2|2,2:0|2:0,0:0:0:0:
156,237,6027,1,8,1:0:0:0:
64,207,6489,2,0,P|67:272|146:334,1,160,2|2,2:0|2:0,0:0:0:0:
230,340,7874,1,8,1:0:0:0:
309,286,8335,6,0,P|325:328|319:373,2,80,4|8|2,0:0|1:0|2:0,0:0:0:0:
246,213,9720,1,8,1:0:0:0:
309,140,10181,2,0,P|325:98|319:53,2,80,2|8|2,2:0|1:0|2:0,0:0:0:0:
246,213,11566,1,8,1:0:0:0:
152,192,12027,6,0,P|108:152|94:57,2,160,2|2|4,2:0|2:0|0:0,0:0:0:0:
319,285,14797,1,2,2:0:0:0:
411,308,15258,1,8,1:0:0:0:
485,247,15720,6,0,P|499:204|492:155,1,80,4|8,0:2|1:0,0:0:0:0:
465,78,16643,1,2,0:0:0:0:
374,46,17104,1,8,1:0:0:0:
280,66,17566,2,0,L|260:158,1,80,2|8,0:0|1:0,0:0:0:0:
240,238,18489,1,2,0:0:0:0:
157,188,18951,1,8,1:0:0:0:
65,161,19412,6,0,P|61:200|75:238,2,80,2|8|2,0:0|1:0|0:0,0:0:0:0:
133,93,20797,1,8,1:0:0:0:
227,110,21258,2,0,P|258:181|225:267,1,160,2|2,0:0|0:0,0:0:0:0:
164,323,22643,1,8,1:0:0:0:
256,349,23104,6,0,L|343:343,1,80,2|8,0:0|1:0,0:0:0:0:
410,283,24027,2,0,P|429:318|430:358,2,80,2|8|2,0:0|1:0|0:0,0:0:0:0:
330,230,25412,1,8,1:0:0:0:
233,226,25874,2,0,P|213:191|213:151,1,80,2|8,0:0|1:0,0:0:0:0:
248,62,26797,5,2,0:0:0:0:
339,33,27258,1,8,1:0:0:0:
431,58,27720,1,2,0:0:0:0:
479,140,28181,2,0,L|470:224,1,80,8|2,1:0|0:0,0:0:0:0:
374,228,29104,2,0,L|383:312,1,80,8|2,1:0|0:0,0:0:0:0:
287,323,30027,1,8,1:0:0:0:
204,273,30489,6,0,P|160:282|126:314,2,80,4|8|2,0:2|1:0|0:0,0:0:0:0:
287,323,31874,1,8,1:0:0:0:
382,323,32335,1,2,0:0:0:0:
460,268,32797,2,0,L|452:177,1,80,8|2,1:0|0:0,0:0:0:0:
407,103,33720,1,8,1:0:0:0:
358,186,34181,6,0,P|322:190|218:112,1,160,2|2,0:0|0:0,0:0:0:0:
144,71,35566,1,8,1:0:0:0:
57,113,36027,2,0,P|50:151|59:192,2,80,2|8|2,0:0|1:0|0:0,0:0:0:0:
144,71,37412,1,8,1:0:0:0:
223,125,37874,6,0,P|268:114|300:85,1,80,2|8,0:0|1:0,0:0:0:0:
376,143,38797,2,0,P|389:100|384:62,2,80,2|8|2,0:0|1:0|0:0,0:0:0:0:
318,219,40181,1,8,1:0:0:0:
223,237,40643,2,0,L|133:229,1,80,2|8,0:0|1:0,0:0:0:0:
57,185,41566,6,0,P|51:262|104:320,1,160,2|2,0:0|0:0,0:0:0:0:
195,347,42951,1,8,1:0:0:0:
286,319,43412,2,0,P|321:316|370:333,2,80,2|8|2,0:0|1:0|0:0,0:0:0:0:
165,169,45258,1,4,0:2:0:0:
43,130,52643,6,0,P|114:99|185:131,1,160,4|2,0:2|0:0,0:0:0:0:
257,193,54027,1,8,1:0:0:0:
330,130,54489,2,0,L|335:50,2,80,2|8|2,0:0|1:0|0:0,0:0:0:0:
257,193,55874,1,8,1:0:0:0:
327,258,56335,6,0,P|256:289|185:257,1,160,2|2,0:0|0:0,0:0:0:0:
143,171,57720,1,8,1:0:0:0:
172,79,58181,2,0,P|204:69|251:73,2,80,2|8|2,0:0|1:0|0:0,0:0:0:0:
57,232,60027,5,2,2:0:0:0:
118,305,60489,1,8,1:0:0:0:
209,332,60951,2,0,L|303:322,1,80,2|8,2:0|1:0,0:0:0:0:
382,344,61874,2,0,L|476:334,1,80,2|8,2:0|1:0,0:0:0:0:
507,251,62797,1,2,2:0:0:0:
510,155,63258,1,8,1:0:0:0:
465,69,63720,6,0,P|386:73|320:115,1,160,4|2,0:0|2:0,0:0:0:0:
283,204,65104,1,8,1:0:0:0:
321,291,65566,2,0,P|365:285|400:262,2,80,2|4|2,2:0|3:0|2:0,0:0:0:0:
236,336,66951,1,4,3:0:0:0:
152,288,67412,6,0,L|155:128,1,160,2|2,2:0|2:0,0:0:0:0:
236,76,68797,1,8,1:0:0:0:
316,128,69258,2,0,P|353:134|402:117,2,80,2|8|2,2:0|1:0|2:0,0:0:0:0:
236,76,70643,1,8,1:0:0:0:
155,128,71104,6,0,P|95:136|33:109,2,120,4|2|8,3:0|2:0|1:0,0:0:0:0:
236,76,72951,1,2,2:0:0:0:
331,76,73412,1,4,0:0:0:0:
407,133,73874,2,0,L|393:225,1,80,2|8,2:0|1:0,0:0:0:0:
444,294,74797,6,0,P|476:266|488:226,2,80,4|8|2,0:2|1:0|2:0,0:0:0:0:
356,332,76181,1,8,1:0:0:0:
260,320,76643,2,0,L|179:307,1,80,2|8,2:0|1:0,0:0:0:0:
86,323,77566,2,0,L|5:310,1,80,2|8,2:0|1:0,0:0:0:0:
0,212,78489,5,4,0:0:0:0:
43,126,78951,1,8,1:0:0:0:
134,98,79412,1,2,2:0:0:0:
226,122,79874,1,8,1:0:0:0:
277,203,80335,2,0,L|267:294,2,80,2|8|2,2:0|1:0|2:0,0:0:0:0:
351,142,81720,1,8,1:0:0:0:
421,207,82181,6,0,L|406:336,2,120,2|2|8,2:0|2:0|1:0,0:0:0:0:
351,142,84027,2,0,P|284:139|205:202,1,160,2|2,2:0|2:0,0:0:0:0:
256,192,85874,12,4,87720,3:2:0:0:
44,217,89566,6,0,L|48:126,1,80,4|8,0:2|1:0,0:0:0:0:
99,55,90489,1,2,0:0:0:0:
193,40,90951,1,8,1:0:0:0:
279,82,91412,2,0,P|282:132|267:167,1,80,2|8,0:0|1:0,0:0:0:0:
182,195,92335,2,0,P|179:245|194:280,1,80,2|8,0:0|1:0,0:0:0:0:
249,347,93258,5,2,0:0:0:0:
343,364,93720,1,8,1:0:0:0:
435,337,94181,1,2,0:0:0:0:
482,253,94643,2,0,L|466:168,1,80,8|2,1:0|0:0,0:0:0:0:
404,101,95566,1,8,1:0:0:0:
309,116,96027,2,0,L|294:194,1,80,2|8,0:0|1:0,0:0:0:0:
245,278,96951,5,2,0:0:0:0:
151,290,97412,1,8,1:0:0:0:
72,235,97874,2,0,P|58:197|62:158,2,80,2|8|2,0:0|1:0|0:0,0:0:0:0:
151,290,99258,1,8,1:0:0:0:
247,278,99720,2,0,P|286:288|319:323,1,80,2|8,0:0|1:0,0:0:0:0:
393,259,100643,6,0,P|410:307|402:348,2,80,2|8|2,0:0|1:0|0:0,0:0:0:0:
313,205,102027,1,8,1:0:0:0:
247,278,102489,2,0,P|164:269|114:203,1,160,2|2,0:0|0:0,0:0:0:0:
95,119,103874,1,8,1:0:0:0:
126,28,104335,6,0,L|213:26,1,80,4|8,0:2|1:0,0:0:0:0:
291,69,105258,2,0,L|378:67,1,80,2|8,0:0|1:0,0:0:0:0:
458,105,106181,1,2,0:0:0:0:
482,197,106643,2,0,P|470:237|433:268,2,80,8|2|8,1:0|0:0|1:0,0:0:0:0:
458,105,108027,6,0,L|296:110,1,160,2|2,0:0|0:0,0:0:0:0:
213,155,109412,1,8,1:0:0:0:
295,205,109874,2,0,L|380:203,2,80,2|8|2,0:0|1:0|0:0,0:0:0:0:
212,254,111258,1,8,1:0:0:0:
129,204,111720,6,0,P|114:167|117:127,1,80,2|8,0:0|1:0,0:0:0:0:
174,50,112643,1,2,0:0:0:0:
268,33,113104,1,8,1:0:0:0:
352,77,113566,2,0,P|367:114|364:154,1,80,2|8,0:0|1:0,0:0:0:0:
299,224,114489,2,0,P|296:263|311:300,1,80,2|8,0:0|1:0,0:0:0:0:
402,331,115412,5,2,0:0:0:0:
490,292,115874,1,8,1:0:0:0:
499,196,116335,1,2,0:0:0:0:
433,126,116797,2,0,L|353:116,1,80,8|2,1:0|0:0,0:0:0:0:
257,108,117720,1,8,1:0:0:0:
161,116,118181,2,0,L|81:125,1,80,2|8,0:0|1:0,0:0:0:0:
45,214,119104,6,0,P|59:255|96:284,2,80,4|8|2,0:2|1:0|0:0,0:0:0:0:
81,125,120489,1,8,1:0:0:0:
137,203,120951,2,0,P|165:214|223:207,1,80,2|8,0:0|1:0,0:0:0:0:
302,172,121874,1,2,0:0:0:0:
359,94,122335,1,8,1:0:0:0:
399,180,122797,6,0,L|406:272,1,80,2|8,0:0|1:0,0:0:0:0:
308,251,123720,2,0,L|301:171,1,80,2|8,0:0|1:0,0:0:0:0:
249,90,124643,1,2,0:0:0:0:
153,82,125104,1,8,1:0:0:0:
77,141,125566,1,2,0:0:0:0:
74,236,126027,1,8,1:0:0:0:
137,308,126489,6,0,L|225:306,1,80,4|8,0:2|1:0,0:0:0:0:
307,338,127412,2,0,L|395:336,1,80,2|8,0:0|1:0,0:0:0:0:
472,291,128335,2,0,P|469:245|446:208,2,80,2|8|2,0:0|1:0|0:0,0:0:0:0:
386,336,129720,1,8,1:0:0:0:
301,291,130181,6,0,P|304:245|327:208,1,80,2|8,0:0|1:0,0:0:0:0:
386,145,131104,2,0,P|384:106|367:70,1,80,2|8,0:0|1:0,0:0:0:0:
278,31,132027,1,2,0:0:0:0:
185,57,132489,1,8,1:0:0:0:
256,192,132951,12,4,137566,3:2:0:0:
