osu file format v13

[General]
AudioFilename: Ur-Style.mp3
AudioLeadIn: 0
PreviewTime: 179740
Countdown: 0
SampleSet: Soft
StackLeniency: 0.5
Mode: 0
LetterboxInBreaks: 0
EpilepsyWarning: 1
WidescreenStoryboard: 0

[Editor]
DistanceSpacing: 1.3
BeatDivisor: 4
GridSize: 4
TimelineZoom: 1.6

[Metadata]
Title:Ur-Style
TitleUnicode:Ur-Style
Artist:K:Te
ArtistUnicode:K:Te
Creator:tutuhaha
Version:Hard
Source:
Tags:Vocaloid DATAKEN Kagamine Rin Nico Nico Douga
BeatmapID:190135
BeatmapSetID:63426

[Difficulty]
HPDrainRate:5
CircleSize:3.5
OverallDifficulty:5
ApproachRate:6.5
SliderMultiplier:1.4
SliderTickRate:1

[Events]
//Background and Video events
0,0,"ur-style.jpg",0,0
Video,0,"Ur-Style.flv"
//Break Periods
2,82120,96690
2,162315,169065
//Storyboard Layer 0 (Background)
//Storyboard Layer 1 (Fail)
//Storyboard Layer 2 (Pass)
//Storyboard Layer 3 (Foreground)
//Storyboard Sound Samples

[TimingPoints]
10115,500,4,2,1,60,1,0
20115,-100,4,2,0,40,0,0
20240,-100,4,2,1,60,0,0
24115,-100,4,2,0,40,0,0
24240,-100,4,2,1,60,0,0
28115,-100,4,2,0,40,0,0
28240,-100,4,2,1,60,0,0
32115,-100,4,2,0,40,0,0
32240,-100,4,2,1,60,0,0
34115,-100,4,2,1,40,0,0
42115,-100,4,2,0,30,0,0
42240,-100,4,2,1,50,0,0
50115,-100,4,2,2,30,0,0
58115,-100,4,2,0,30,0,0
58240,-100,4,2,1,50,0,0
62115,-100,4,2,0,30,0,0
62240,-100,4,2,1,50,0,0
64115,-100,4,2,1,30,0,0
65490,-100,4,2,1,50,0,0
66115,-100,4,2,1,60,0,0
68115,-100,4,2,0,40,0,0
68240,-100,4,2,1,60,0,0
72115,-100,4,2,0,40,0,0
72240,-100,4,2,1,60,0,0
76115,-100,4,2,0,40,0,0
76240,-100,4,2,1,60,0,0
80115,-100,4,2,0,40,0,0
80240,-100,4,2,1,60,0,0
97740,-100,4,2,1,50,0,0
98115,-100,4,2,1,40,0,0
112115,-100,4,2,1,30,0,0
114115,-100,4,2,1,40,0,0
122115,-100,4,2,0,30,0,0
122240,-100,4,2,1,50,0,0
126115,-100,4,2,0,30,0,0
126240,-100,4,2,1,50,0,0
128115,-100,4,2,1,30,0,0
129490,-100,4,2,1,50,0,0
130115,-100,4,2,1,60,0,0
132115,-100,4,2,0,40,0,0
132240,-100,4,2,1,60,0,0
136115,-100,4,2,0,40,0,0
136240,-100,4,2,1,60,0,0
140115,-100,4,2,0,40,0,0
140240,-100,4,2,1,60,0,0
144115,-100,4,2,0,40,0,0
144240,-100,4,2,1,60,0,0
146115,-100,4,2,2,40,0,0
160115,-100,4,2,1,40,0,0
160240,-100,4,2,1,30,0,0
170115,-100,4,2,2,30,0,0
179615,-133.333333333333,4,2,2,50,0,0
180115,-100,4,2,1,60,0,0
182115,-100,4,2,0,40,0,0
182240,-100,4,2,1,60,0,0
186115,-100,4,2,0,40,0,0
186240,-100,4,2,1,60,0,0
190115,-100,4,2,0,40,0,0
190240,-100,4,2,1,60,0,0
194115,-100,4,2,0,40,0,0
194240,-100,4,2,1,60,0,0
198115,-100,4,2,0,40,0,0
198240,-100,4,2,1,60,0,0
202115,-100,4,2,0,40,0,0
202240,-100,4,2,1,60,0,0
206115,-100,4,2,0,40,0,0
206240,-100,4,2,1,60,0,0
210115,-100,4,2,0,40,0,0
210240,-100,4,2,1,60,0,0
212115,-100,4,2,1,55,0,0
227115,-100,4,2,1,30,0,0

[Colours]
Combo1 : 163,171,177
Combo2 : 255,235,170
Combo3 : 172,203,253
SliderBorder : 255,255,255

[HitObjects]
72,48,10115,5,4,0:0:0:0:
192,188,10615,1,2,0:0:0:0:
192,188,10865,1,0,0:0:0:0:
268,140,11115,2,0,L|356:140,1,70
372,224,11615,2,0,L|280:224,1,70,2|0,0:0|0:0,0:0:0:0:
188,100,12115,6,0,L|112:100,2,70,0|0|2,0:0|0:0|0:0,0:0:0:0:
268,56,12865,1,0,0:0:0:0:
302,224,13115,2,0,L|372:224,2,70,0|0|2,0:0|0:0|0:0,0:0:0:0:
224,272,13865,1,0,0:0:0:0:
132,260,14115,6,0,P|148:220|180:188,1,70
180,108,14615,2,0,P|137:114|93:102,1,70,2|0,0:0|0:0,0:0:0:0:
24,140,15115,2,0,P|50:173|62:217,2,70,0|0|2,0:0|0:0|0:0,0:0:0:0:
40,48,15865,1,0,0:0:0:0:
128,32,16115,6,0,L|208:32,1,70,0|2,0:0|0:0,0:0:0:0:
322,104,16615,2,0,L|252:104,1,70,0|2,0:0|0:0,0:0:0:0:
176,152,17115,1,0,0:0:0:0:
104,268,17490,1,0,0:0:0:0:
104,268,17615,2,0,L|104:200,1,46.6666666666667
88,60,18115,6,0,P|44:76|8:128,2,105,4|2|0,0:0|0:0|0:0,0:0:0:0:
100,152,19115,2,0,P|168:160|212:96,1,140,0|2,0:0|0:0,0:0:0:0:
264,36,19865,1,0,0:0:0:0:
264,36,20115,6,0,L|396:128,1,140,4|2,0:0|0:0,0:0:0:0:
392,208,20865,1,0,0:0:0:0:
392,208,21115,2,0,P|356:168|380:76,1,140,0|2,0:0|0:0,0:0:0:0:
444,136,21865,1,0,0:0:0:0:
444,136,22115,6,0,P|476:172|480:232,2,105,4|2|0,0:0|0:0|0:0,0:0:0:0:
392,208,23115,2,0,L|260:256,1,140,0|2,0:0|0:0,0:0:0:0:
176,292,23865,1,0,0:0:0:0:
104,348,24115,6,0,P|84:292|124:212,1,140,4|2,0:0|0:0,0:0:0:0:
188,172,24865,1,0,0:0:0:0:
248,104,25115,6,0,P|240:84|216:64,1,46.6666666666667
196,52,25365,2,0,L|96:52,2,70,0|2|0,0:0|0:0|0:0,0:0:0:0:
264,192,26115,6,0,P|316:164|336:124,2,105,4|2|0,0:0|0:0|0:0,0:0:0:0:
248,104,27115,2,0,P|192:132|172:212,1,140,0|2,0:0|0:0,0:0:0:0:
200,288,27865,1,0,0:0:0:0:
200,288,28115,6,0,L|68:208,1,140,4|2,0:0|0:0,0:0:0:0:
80,124,28865,1,0,0:0:0:0:
80,124,29115,2,0,P|156:116|192:44,1,140,0|2,0:0|0:0,0:0:0:0:
104,36,29865,1,0,0:0:0:0:
104,36,30115,6,0,P|48:36|8:68,2,105,4|2|0,0:0|0:0|0:0,0:0:0:0:
80,124,31115,2,0,L|128:276,1,140,0|2,0:0|0:0,0:0:0:0:
152,344,31865,1,0,0:0:0:0:
212,276,32115,6,0,P|244:216|332:208,1,140,4|2,0:0|0:0,0:0:0:0:
380,256,32865,2,0,P|408:256|440:236,1,46.6666666666667
452,232,33115,2,0,P|468:212|508:204,1,46.6666666666667,0|0,0:0|0:0,0:0:0:0:
512,188,33365,1,0,0:0:0:0:
416,140,33615,2,0,L|472:80,1,70,2|0,0:0|0:0,0:0:0:0:
212,36,34115,6,0,P|136:32|88:96,1,140,4|0,0:0|0:0,0:0:0:0:
80,164,34865,1,0,0:0:0:0:
164,200,35115,2,0,P|196:180|220:148,1,70
276,88,35615,2,0,P|304:68|348:56,1,70
380,36,35990,1,0,0:0:0:0:
424,32,36115,6,0,P|412:88|464:152,1,140,4|0,0:0|0:0,0:0:0:0:
504,72,36865,1,0,0:0:0:0:
404,220,37115,2,0,P|372:196|352:168,1,70
504,72,37615,2,0,P|508:52|504:20,2,35
420,244,38115,6,0,P|360:252|336:328,1,140,4|0,0:0|0:0,0:0:0:0:
248,348,38865,2,0,L|140:244,1,140
56,240,39615,2,0,P|68:204|100:180,1,70
124,152,39990,1,0,0:0:0:0:
160,124,40115,6,0,P|196:100|208:68,1,70,4|0,0:0|0:0,0:0:0:0:
284,24,40615,1,0,0:0:0:0:
284,24,40865,2,0,L|376:140,1,140
420,212,41615,1,0,0:0:0:0:
420,212,41740,2,0,P|364:188|312:216,1,105,0|4,0:0|0:0,0:0:0:0:
280,280,42365,5,0,0:0:0:0:
212,340,42615,2,0,P|172:328|144:300,1,70,2|0,0:0|0:0,0:0:0:0:
68,276,43115,2,0,P|92:244|120:224,1,70
200,192,43615,2,0,P|224:164|240:128,1,70,2|0,0:0|0:0,0:0:0:0:
176,32,44115,6,0,P|244:56|304:8,1,140,0|2,0:0|0:0,0:0:0:0:
416,80,44865,1,0,0:0:0:0:
332,112,45115,2,0,P|300:148|296:180,1,70
316,256,45615,2,0,L|352:304,2,35,2|0|0,0:0|0:0|0:0,0:0:0:0:
160,344,46115,6,0,P|144:272|204:216,1,140,4|2,0:0|0:0,0:0:0:0:
112,168,46865,2,0,P|164:176|224:108,1,140
300,72,47615,2,0,P|272:44|240:32,1,70,2|0,0:0|0:0,0:0:0:0:
112,168,48115,6,0,L|48:216,1,70,0|0,0:0|0:0,0:0:0:0:
116,280,48615,2,0,L|60:322,2,70,2|0|0,0:0|0:0|0:0,0:0:0:0:
244,244,49365,1,0,0:0:0:0:
244,244,49490,2,0,P|296:224|316:176,1,105,4|0,0:0|0:0,0:0:0:0:
164,64,50115,6,0,P|176:128|236:164,1,140,8|0,0:0|0:0,0:0:0:0:
376,68,50865,2,0,P|316:52|228:96,1,140,8|0,0:0|0:0,0:0:0:0:
184,144,51615,2,0,P|140:152|104:144,1,70,0|8,0:0|0:0,0:0:0:0:
36,256,52115,6,0,P|88:260|144:244,2,105,8|8|8,0:0|0:0|0:0,0:0:0:0:
64,168,53115,2,0,P|56:140|36:100,1,70,8|0,0:0|0:0,0:0:0:0:
32,56,53490,2,0,P|88:60|140:24,1,105,0|0,0:0|0:0,0:0:0:0:
224,128,54115,6,0,P|264:68|336:64,1,140,8|0,0:0|0:0,0:0:0:0:
384,236,54865,2,0,P|380:196|296:136,1,140,8|0,0:0|0:0,0:0:0:0:
256,60,55615,2,0,P|216:44|188:20,1,70,0|8,0:0|0:0,0:0:0:0:
72,64,56115,6,0,P|108:104|176:120,2,105,8|8|8,0:0|0:0|0:0,0:0:0:0:
20,140,57115,2,0,P|12:176|16:212,1,70,8|0,0:0|0:0,0:0:0:0:
20,256,57490,2,0,P|68:252|128:284,1,105,0|0,0:0|0:0,0:0:0:0:
308,272,58115,6,0,P|260:268|220:252,2,70,4|0|2,0:0|0:0|0:0,0:0:0:0:
392,240,58865,1,0,0:0:0:0:
424,156,59115,2,0,P|388:128|364:100,1,70
340,76,59490,1,0,0:0:0:0:
300,52,59615,2,0,P|260:36|208:28,1,70,2|0,0:0|0:0,0:0:0:0:
144,44,60115,5,4,0:0:0:0:
80,112,60365,1,0,0:0:0:0:
56,200,60615,2,0,P|44:248|20:284,1,70,2|0,0:0|0:0,0:0:0:0:
96,332,61115,2,0,P|140:332|180:312,1,70
208,316,61490,2,0,P|212:272|268:216,1,105,2|0,0:0|0:0,0:0:0:0:
368,228,62115,6,0,P|400:228|440:212,1,70,4|0,0:0|0:0,0:0:0:0:
416,124,62615,2,0,P|384:124|344:140,1,70,2|0,0:0|0:0,0:0:0:0:
308,116,62990,2,0,P|260:124|200:104,1,105
116,28,63615,2,0,P|124:64|120:104,1,70,2|0,0:0|0:0,0:0:0:0:
112,188,64115,6,0,P|112:268|180:308,1,140,4|0,0:0|3:0,0:0:0:0:
357,303,65115,2,0,P|405:255|400:188,1,140,0|0,0:0|3:0,0:0:0:0:
368,156,65781,1,0,0:0:0:0:
72,68,66115,6,0,P|64:120|96:172,2,105,4|2|0,0:0|0:0|0:0,0:0:0:0:
156,104,67115,2,0,P|205:84|234:31,2,105,0|2|0,0:0|0:0|0:0,0:0:0:0:
168,196,68115,6,0,P|224:184|316:172,1,140,4|2,0:0|0:0,0:0:0:0:
396,160,68865,1,0,0:0:0:0:
488,160,69115,2,0,P|476:108|380:72,1,140,0|2,0:0|0:0,0:0:0:0:
312,56,69865,1,0,0:0:0:0:
396,160,70115,6,0,P|408:212|460:248,2,105,4|2|0,0:0|0:0|0:0,0:0:0:0:
304,160,71115,2,0,P|248:152|184:132,2,105,0|2|0,0:0|0:0|0:0,0:0:0:0:
284,248,72115,6,0,P|228:240|132:204,1,140,4|2,0:0|0:0,0:0:0:0:
72,168,72865,2,0,P|56:144|28:120,1,46.6666666666667
28,108,73115,2,0,P|8:88|0:60,1,46.6666666666667,0|0,0:0|0:0,0:0:0:0:
0,40,73365,1,0,0:0:0:0:
92,44,73615,1,2,0:0:0:0:
164,100,73865,1,0,0:0:0:0:
136,260,74115,6,0,P|200:284|252:276,2,105,4|2|0,0:0|0:0|0:0,0:0:0:0:
204,200,75115,2,0,P|268:188|336:200,2,105,0|2|0,0:0|0:0|0:0,0:0:0:0:
140,132,76115,6,0,P|220:104|296:104,1,140,4|2,0:0|0:0,0:0:0:0:
344,40,76865,1,0,0:0:0:0:
344,40,77115,2,0,P|392:80|488:96,1,140,0|2,0:0|0:0,0:0:0:0:
508,16,77865,1,0,0:0:0:0:
496,184,78115,6,0,L|460:312,2,105,4|2|0,0:0|0:0|0:0,0:0:0:0:
404,180,79115,2,0,L|368:308,2,105,0|2|0,0:0|0:0|0:0,0:0:0:0:
316,156,80115,6,0,P|280:124|180:100,1,140,4|2,0:0|0:0,0:0:0:0:
108,136,80865,1,0,0:0:0:0:
40,196,81115,2,0,L|64:256,1,46.6666666666667
72,268,81365,2,0,P|116:272|148:288,1,70,0|2,0:0|0:0,0:0:0:0:
104,116,97740,5,0,0:0:0:0:
104,116,97865,1,0,0:0:0:0:
104,116,97990,1,0,0:0:0:0:
104,116,98115,2,0,P|80:152|80:216,2,105,4|0|0,0:0|0:0|0:0,0:0:0:0:
164,184,99115,2,0,L|256:192,1,70
252,280,99615,2,0,L|182:273,1,70
332,228,100115,6,0,P|368:220|388:212,2,35,4|0|0,0:0|0:0|0:0,0:0:0:0:
320,184,100490,2,0,P|344:124|328:68,1,105
260,40,101115,1,0,0:0:0:0:
168,32,101365,1,0,0:0:0:0:
84,72,101615,2,0,L|48:56,1,35
8,68,101865,6,0,P|44:112|52:148,1,70,0|4,0:0|0:0,0:0:0:0:
24,212,102365,1,0,0:0:0:0:
84,280,102615,2,0,P|128:288|192:264,1,105
256,216,103240,1,0,0:0:0:0:
320,280,103490,1,0,0:0:0:0:
320,280,103615,2,0,L|412:288,1,70
460,232,104115,5,4,0:0:0:0:
476,144,104365,1,0,0:0:0:0:
384,148,104615,1,0,0:0:0:0:
400,60,104865,1,0,0:0:0:0:
256,168,105365,1,0,0:0:0:0:
192,104,105615,1,0,0:0:0:0:
192,104,105740,2,0,P|164:144|176:208,1,105,0|4,0:0|0:0,0:0:0:0:
108,268,106365,5,0,0:0:0:0:
108,268,106490,2,0,P|136:308|124:372,1,105,0|0,0:0|0:0,0:0:0:0:
48,328,107115,2,0,P|28:292|28:236,1,70
52,176,107615,2,0,P|76:144|84:104,1,70
108,28,108115,6,0,P|88:24|64:24,2,35,4|0|0,0:0|0:0|0:0,0:0:0:0:
152,32,108490,2,0,P|188:64|268:64,1,105
332,80,109115,2,0,P|368:52|408:40,1,70
476,72,109615,2,0,P|504:68|520:60,2,35,0|0|0,0:0|0:0|0:0,0:0:0:0:
316,164,110115,5,4,0:0:0:0:
316,164,110240,2,0,P|320:216|288:272,1,105
208,284,110865,1,0,0:0:0:0:
208,284,110990,2,0,P|200:236|184:208,1,70
112,168,111490,1,0,0:0:0:0:
112,168,111615,2,0,P|100:204|100:244,1,70
52,312,112115,5,0,0:0:0:0:
136,348,112365,1,0,0:0:0:0:
224,320,112615,1,0,0:0:0:0:
312,344,112865,1,0,0:0:0:0:
396,308,113115,1,0,0:0:0:0:
480,344,113365,1,0,0:0:0:0:
480,344,113490,1,0,0:0:0:0:
364,224,113740,2,0,P|352:208|332:192,2,35,0|0|0,0:0|0:0|0:0,0:0:0:0:
364,224,114115,6,0,P|408:200|476:216,2,105,4|0|0,0:0|0:0|0:0,0:0:0:0:
324,248,114990,2,0,P|276:252|200:208,1,105
52,48,115865,1,0,0:0:0:0:
52,48,116115,6,0,P|56:108|104:152,2,105,4|0|0,0:0|0:0|0:0,0:0:0:0:
140,68,117115,2,0,L|260:56,2,105,0|0|0,0:0|0:0|0:0,0:0:0:0:
332,48,118115,6,0,P|324:100|260:144,2,105,4|0|0,0:0|0:0|0:0,0:0:0:0:
376,32,118990,2,0,L|496:24,1,105
436,256,119865,1,0,0:0:0:0:
436,256,120115,6,0,L|331:262,2,105,4|0|0,0:0|0:0|0:0,0:0:0:0:
428,164,121115,2,0,P|472:168|520:212,2,105,0|0|0,0:0|0:0|0:0,0:0:0:0:
408,296,122115,6,0,L|252:304,1,140,4|2,0:0|0:0,0:0:0:0:
188,256,122865,1,0,0:0:0:0:
120,196,123115,2,0,P|164:168|200:168,1,70
268,196,123615,2,0,P|316:204|360:192,1,70,2|0,0:0|0:0,0:0:0:0:
408,40,124115,6,0,P|348:52|310:132,1,140,4|2,0:0|0:0,0:0:0:0:
400,132,124865,1,0,0:0:0:0:
424,220,125115,2,0,P|424:256|408:292,1,70
324,260,125615,2,0,P|288:228|248:220,1,70,2|0,0:0|0:0,0:0:0:0:
156,384,126115,6,0,P|216:372|254:292,1,140,4|2,0:0|0:0,0:0:0:0:
164,292,126865,1,0,0:0:0:0:
100,228,127115,2,0,P|92:188|92:156,1,70
164,100,127615,2,0,P|176:56|176:8,1,70,2|0,0:0|0:0,0:0:0:0:
88,28,128115,5,0,0:0:0:0:
256,260,128615,1,0,0:0:0:0:
424,28,129115,1,0,0:0:0:0:
256,236,129490,1,0,0:0:0:0:
256,212,129615,2,0,L|256:148,1,46.6666666666667
160,100,130115,6,0,P|136:52|72:28,2,105,4|2|0,0:0|0:0|0:0,0:0:0:0:
72,120,131115,2,0,P|60:172|100:260,1,140,0|2,0:0|0:0,0:0:0:0:
156,316,131865,1,0,0:0:0:0:
156,316,132115,6,0,L|320:296,1,140,4|2,0:0|0:0,0:0:0:0:
352,228,132865,1,0,0:0:0:0:
352,228,133115,2,0,P|383:278|350:374,1,140,0|2,0:0|0:0,0:0:0:0:
294,299,133865,1,0,0:0:0:0:
260,216,134115,6,0,P|284:164|336:136,2,105,4|2|0,0:0|0:0|0:0,0:0:0:0:
352,228,135115,2,0,L|488:192,1,140,0|2,0:0|0:0,0:0:0:0:
436,120,135865,1,0,0:0:0:0:
436,120,136115,6,0,P|372:120|312:40,1,140,4|2,0:0|0:0,0:0:0:0:
404,36,136865,1,0,0:0:0:0:
404,36,137115,2,0,L|464:32,1,46.6666666666667,0|0,0:0|0:0,0:0:0:0:
480,28,137365,1,0,0:0:0:0:
264,140,137615,2,0,L|176:148,1,70,2|0,0:0|0:0,0:0:0:0:
372,236,138115,6,0,L|484:224,2,105,4|2|0,0:0|0:0|0:0,0:0:0:0:
340,320,139115,2,0,P|296:284|288:200,1,140,0|2,0:0|0:0,0:0:0:0:
323,119,139865,1,0,0:0:0:0:
323,119,140115,6,0,P|371:167|372:236,1,140,4|2,0:0|0:0,0:0:0:0:
236,136,140865,1,0,0:0:0:0:
236,136,141115,2,0,P|248:68|328:32,1,140,0|2,0:0|0:0,0:0:0:0:
396,36,141865,1,0,0:0:0:0:
416,124,142115,6,0,P|400:176|344:208,2,105,4|2|0,0:0|0:0|0:0,0:0:0:0:
323,119,143115,2,0,L|168:64,1,140,0|2,0:0|0:0,0:0:0:0:
104,44,143865,1,0,0:0:0:0:
104,44,144115,6,0,P|48:64|24:160,1,140,4|2,0:0|0:0,0:0:0:0:
48,220,144865,2,0,P|60:240|68:272,1,46.6666666666667
84,292,145115,2,0,P|92:320|116:348,1,46.6666666666667,0|0,0:0|0:0,0:0:0:0:
124,356,145365,1,0,0:0:0:0:
240,280,145615,2,0,L|156:280,1,70,2|0,0:0|0:0,0:0:0:0:
340,116,146115,5,8,0:0:0:0:
340,116,146365,1,0,0:0:0:0:
404,180,146615,2,0,L|504:180,1,70,2|8,0:0|0:0,0:0:0:0:
256,36,147365,1,0,0:0:0:0:
248,128,147615,2,0,P|214:118|164:26,1,140,2|8,0:0|0:0,0:0:0:0:
72,32,148365,5,0,0:0:0:0:
72,124,148615,2,0,L|72:204,1,70,2|8,0:0|0:0,0:0:0:0:
72,284,149115,2,0,P|100:320|172:344,2,105,0|2|0,0:0|0:0|0:0,0:0:0:0:
272,192,150115,6,0,P|236:232|140:248,1,140,8|2,0:0|0:0,0:0:0:0:
260,104,150865,2,0,P|312:112|360:188,1,140,8|0,0:0|0:0,0:0:0:0:
360,272,151615,1,2,0:0:0:0:
360,272,152115,6,0,L|448:272,1,70,8|0,0:0|0:0,0:0:0:0:
256,216,152615,2,0,L|172:216,1,70,2|0,0:0|0:0,0:0:0:0:
360,156,153115,2,0,L|444:156,1,70,0|0,0:0|0:0,0:0:0:0:
256,92,153615,1,10,0:0:0:0:
256,92,153865,1,0,0:0:0:0:
256,304,154115,6,0,P|304:292|332:268,1,70,8|0,0:0|0:0,0:0:0:0:
256,216,154615,2,0,L|172:216,1,70,0|8,0:0|0:0,0:0:0:0:
186,216,155365,1,0,0:0:0:0:
96,216,155615,1,0,0:0:0:0:
96,124,155865,1,0,0:0:0:0:
188,124,156115,6,0,L|188:44,1,70,8|0,0:0|0:0,0:0:0:0:
186,216,156615,2,0,L|186:286,1,70,0|8,0:0|0:0,0:0:0:0:
272,172,157115,2,0,L|380:172,2,105,0|0|0,0:0|0:0|0:0,0:0:0:0:
96,172,158115,6,0,P|72:120|92:12,1,140,8|0,0:0|0:0,0:0:0:0:
292,40,158865,2,0,P|300:108|273:172,1,140,8|0,0:0|0:0,0:0:0:0:
188,200,159615,1,0,0:0:0:0:
188,108,159865,1,0,0:0:0:0:
108,248,160115,6,0,L|108:340,1,70,4|0,0:0|0:0,0:0:0:0:
256,272,160615,2,0,L|256:364,1,70
404,248,161115,2,0,L|404:340,1,70
256,164,161615,1,0,0:0:0:0:
256,56,161865,1,0,0:0:0:0:
256,44,161990,1,0,0:0:0:0:
256,32,162115,1,4,0:0:0:0:
56,148,170115,5,8,0:0:0:0:
228,84,170615,1,8,0:0:0:0:
296,252,171115,1,8,0:0:0:0:
124,316,171615,1,8,0:0:0:0:
228,84,172115,5,8,0:0:0:0:
296,252,172615,1,8,0:0:0:0:
464,184,173115,1,8,0:0:0:0:
396,16,173615,1,8,0:0:0:0:
228,84,174115,6,0,L|136:84,1,70,8|2,0:0|0:0,0:0:0:0:
16,172,174615,2,0,L|86:172,1,70,8|2,0:0|0:0,0:0:0:0:
228,260,175115,2,0,L|136:260,1,70,8|2,0:0|0:0,0:0:0:0:
16,348,175615,2,0,L|86:348,1,70,8|2,0:0|0:0,0:0:0:0:
256,192,176115,12,0,178115,0:0:0:0:
344,56,179615,5,0,0:0:0:0:
332,68,179740,1,0,0:0:0:0:
320,80,179865,1,0,0:0:0:0:
308,92,179990,1,0,0:0:0:0:
296,104,180115,6,0,P|248:76|176:76,1,105,4|2,0:0|0:0,0:0:0:0:
160,52,180615,2,0,L|72:48,1,70
48,128,181115,2,0,P|136:152|180:208,1,140,0|2,0:0|0:0,0:0:0:0:
208,268,181865,1,0,0:0:0:0:
208,268,182115,6,0,P|260:260|328:288,2,105,4|2|0,0:0|0:0|0:0,0:0:0:0:
248,348,183115,2,0,P|184:356|120:292,1,140,0|2,0:0|0:0,0:0:0:0:
108,224,183865,1,0,0:0:0:0:
164,76,184115,6,0,P|188:116|176:204,2,105,4|2|0,0:0|0:0|0:0,0:0:0:0:
104,144,185115,2,0,L|-4:136,2,105,0|2|0,0:0|0:0|0:0,0:0:0:0:
128,232,186115,6,0,P|160:276|252:296,1,140,4|2,0:0|0:0,0:0:0:0:
308,236,186865,1,0,0:0:0:0:
376,172,187115,2,0,P|408:160|432:160,1,46.6666666666667
424,128,187365,2,0,P|360:112|336:92,1,70,0|2,0:0|0:0,0:0:0:0:
292,48,187865,1,0,0:0:0:0:
508,32,188115,6,0,L|512:152,2,105,4|2|0,0:0|0:0|0:0,0:0:0:0:
428,80,189115,2,0,L|432:200,2,105,0|2|0,0:0|0:0|0:0,0:0:0:0:
340,64,190115,6,0,P|296:72|208:16,1,140,4|2,0:0|0:0,0:0:0:0:
124,28,190865,1,0,0:0:0:0:
124,28,191115,2,0,L|124:176,1,140,0|2,0:0|0:0,0:0:0:0:
124,260,191865,1,0,0:0:0:0:
208,152,192115,6,0,P|232:104|296:64,2,105,4|2|0,0:0|0:0|0:0,0:0:0:0:
260,228,193115,2,0,P|236:276|172:316,2,105,0|2|0,0:0|0:0|0:0,0:0:0:0:
168,216,194115,6,0,P|108:196|56:116,1,140,4|2,0:0|0:0,0:0:0:0:
80,48,194865,2,0,P|104:40|128:28,1,35
160,44,195115,2,0,P|200:32|224:32,1,46.6666666666667,0|0,0:0|0:0,0:0:0:0:
236,32,195365,1,0,0:0:0:0:
212,120,195615,1,2,0:0:0:0:
300,100,195865,1,0,0:0:0:0:
148,196,196115,6,0,P|104:192|48:152,2,105,4|2|0,0:0|0:0|0:0,0:0:0:0:
216,256,197115,2,0,P|260:260|316:300,2,105,0|2|0,0:0|0:0|0:0,0:0:0:0:
120,152,198115,6,0,P|124:108|164:52,2,105,4|2|0,0:0|0:0|0:0,0:0:0:0:
216,256,199115,2,0,P|212:300|172:356,2,105,0|2|0,0:0|0:0|0:0,0:0:0:0:
176,108,200115,6,0,L|124:-16,2,105,4|2|0,0:0|0:0|0:0,0:0:0:0:
288,192,201115,2,0,L|412:140,2,105,0|2|0,0:0|0:0|0:0,0:0:0:0:
160,248,202115,6,0,L|36:300,2,105,4|2|0,0:0|0:0|0:0,0:0:0:0:
272,332,203115,2,0,L|296:384,1,46.6666666666667,0|0,0:0|0:0,0:0:0:0:
316,356,203365,2,0,L|288:276,1,70
408,160,203865,1,0,0:0:0:0:
456,308,204115,6,0,P|408:292|372:228,2,105,4|2|0,0:0|0:0|0:0,0:0:0:0:
432,136,205115,2,0,L|320:136,2,105,0|2|0,0:0|0:0|0:0,0:0:0:0:
236,32,206115,6,0,L|364:32,2,105,4|2|0,0:0|0:0|0:0,0:0:0:0:
276,224,207115,2,0,L|171:224,2,105,0|2|0,0:0|0:0|0:0,0:0:0:0:
428,144,208115,6,0,P|404:92|332:64,2,105,4|2|0,0:0|0:0|0:0,0:0:0:0:
360,268,209115,2,0,L|380:356,1,70
264,172,209615,2,0,L|279:103,1,70,2|0,0:0|0:0,0:0:0:0:
168,212,210115,6,0,P|196:256|252:276,1,105,4|2,0:0|0:0,0:0:0:0:
288,276,210615,1,0,0:0:0:0:
364,224,210865,2,0,P|372:188|368:164,1,46.6666666666667
368,148,211115,2,0,P|352:116|328:96,1,46.6666666666667,0|0,0:0|0:0,0:0:0:0:
320,92,211365,1,0,0:0:0:0:
148,104,211615,1,2,0:0:0:0:
264,172,211865,1,0,0:0:0:0:
260,40,212115,6,0,L|412:32,1,140,4|2,0:0|0:0,0:0:0:0:
396,124,212865,1,0,0:0:0:0:
396,124,213115,2,0,P|380:176|420:252,1,140,0|2,0:0|0:0,0:0:0:0:
472,176,213865,1,0,0:0:0:0:
476,84,214115,6,0,P|448:52|336:56,1,140,4|2,0:0|0:0,0:0:0:0:
288,104,214865,1,0,0:0:0:0:
288,104,215115,2,0,L|128:88,1,140,0|2,0:0|0:0,0:0:0:0:
56,84,215865,1,0,0:0:0:0:
204,188,216115,6,0,L|343:201,1,140,4|2,0:0|0:0,0:0:0:0:
436,212,216865,1,0,0:0:0:0:
436,212,217115,2,0,P|448:272|388:340,1,140,0|2,0:0|0:0,0:0:0:0:
312,332,217865,1,0,0:0:0:0:
356,252,218115,6,0,L|216:238,1,140,4|2,0:0|0:0,0:0:0:0:
124,228,218865,2,0,P|104:216|64:212,1,46.6666666666667
52,192,219115,2,0,P|36:192|-4:168,1,46.6666666666667,0|0,0:0|0:0,0:0:0:0:
8,148,219365,1,0,0:0:0:0:
96,128,219615,1,2,0:0:0:0:
64,44,219865,1,0,0:0:0:0:
212,176,220115,6,0,P|232:124|324:88,1,140,4|2,0:0|0:0,0:0:0:0:
396,100,220865,1,0,0:0:0:0:
396,100,221115,2,0,L|408:248,1,140,0|2,0:0|0:0,0:0:0:0:
328,288,221865,1,0,0:0:0:0:
328,288,222115,6,0,L|316:140,1,140,4|2,0:0|0:0,0:0:0:0:
256,80,222865,1,0,0:0:0:0:
256,80,223115,2,0,P|200:100|116:56,1,140,0|2,0:0|0:0,0:0:0:0:
56,16,223865,1,0,0:0:0:0:
116,168,224115,6,0,P|172:200|196:268,1,140,4|2,0:0|0:0,0:0:0:0:
104,264,224865,1,0,0:0:0:0:
36,204,225115,2,0,P|28:148|84:84,1,140,0|2,0:0|0:0,0:0:0:0:
156,40,225865,1,0,0:0:0:0:
248,32,226115,6,0,L|372:24,2,105,4|2|0,0:0|0:0|0:0,0:0:0:0:
68,48,227115,1,4,0:0:0:0:
