osu file format v5

[General]
AudioFilename: Crash Course -Koi no Tokubetsu LESSON-.mp3
AudioLeadIn: 0
PreviewTime: -1
Countdown: 0
SampleSet: Normal
StackLeniency: 0.7
Mode: 0
LetterboxInBreaks: 1

[Metadata]
Title:Crash Course -Koi no Tokubetsu LESSON-
Artist:KOTOKO and Utatsuki Kaori
Creator:James
Version:Easy-ish Normal
Source:
Tags:

[Difficulty]
HPDrainRate:2
CircleSize:3
OverallDifficulty:4
SliderMultiplier:1.4
SliderTickRate:1

[Events]
//Background and Video events
//Break Periods
2,49265,59900
2,84902,94676
2,118431,128559
2,154079,175147
//Storyboard Layer 0 (Background)
//Storyboard Layer 1 (Failing)
//Storyboard Layer 2 (Passing)
//Storyboard Layer 3 (Foreground)
//Storyboard Sound Samples
//Background Colour Transformations
3,100,255,255,255

[TimingPoints]
2820,352.941176470588,4,1,0,100,1

[Colours]
Combo1 : 255,255,0
Combo2 : 5,240,5
Combo3 : 5,5,240
Combo4 : 240,5,5

[HitObjects]
40,40,26819,1,0
112,80,27172,1,0
48,136,27525,1,0
120,168,27878,1,0
64,232,28231,2,0,C|80:312|160:320,2,140
120,168,29290,5,2
200,200,29643,5,0
272,240,29996,1,0
344,280,30349,1,0
424,256,30702,1,0
384,176,31055,2,0,C|352:112|376:40,2,140
424,256,32114,5,2
360,200,32467,5,0
280,168,32819,1,0
192,160,33172,1,0
112,176,33525,1,0
32,208,33878,2,0,C|62:275|144:264,2,140
72,128,34937,5,2
144,80,35290,6,0,C|288:80,1,140,0|0
328,152,35996,2,0,C|176:152,1,140
136,216,36702,2,0,C|296:216,1,140
328,280,37408,2,0,C|168:280,1,140,0|4
248,336,38114,5,2
200,264,38467,1,2
256,200,38819,1,2
200,136,39172,1,2
200,136,39349,1,0
200,136,39525,1,2
240,64,39878,1,2
240,64,40055,1,0
240,64,40231,1,2
312,96,40584,5,4
384,136,40937,5,2
456,176,41290,1,2
400,240,41643,1,2
344,304,41996,1,2
344,304,42172,1,0
344,304,42349,1,2
288,368,42702,1,2
288,368,42878,1,0
288,368,43055,1,2
208,336,43408,5,4
128,304,43761,5,2
128,216,44114,1,2
128,128,44467,1,2
208,96,44819,1,2
208,96,44996,1,0
208,96,45172,1,2
288,72,45525,1,2
288,72,45702,1,0
288,72,45878,1,2
368,96,46231,5,4
440,136,46584,6,0,C|440:304,1,140
368,232,47290,2,0,C|208:232,1,140
280,168,47996,2,0,C|280:24,1,140
216,80,48702,2,4,C|72:80,1,140
416,88,60702,5,2
328,88,61055,1,0
240,88,61408,1,2
152,88,61761,1,2
96,152,62114,1,0
160,208,62467,1,2
88,256,62819,1,0
144,312,63172,5,4
224,296,63525,5,2
304,280,63878,1,2
384,264,64231,1,0
464,248,64584,1,2
432,168,64937,1,0
400,88,65290,1,2
320,104,65643,1,0
240,136,65996,5,4
160,160,66349,6,2,C|160:304,1,140
232,248,67055,2,2,C|232:80,1,140
304,152,67761,2,2,C|304:320,3,140
376,248,69172,5,0
296,208,69525,1,2
216,176,69878,1,0
216,176,70055,1,2
136,144,70408,1,0
136,144,70584,1,2
104,224,70937,1,2
72,304,71290,2,4,C|216:304,1,140
296,304,71996,5,2
248,232,72349,1,2
192,168,72702,1,2
264,120,73055,1,2
336,80,73408,1,0
368,152,73761,1,2
392,232,74114,2,2,C|224:232,1,140
168,232,74819,5,2
80,232,75172,1,2
128,160,75525,1,2
176,88,75878,1,2
256,88,76231,2,0,C|416:88,3,140,0|2|0|2
440,160,77643,5,2
384,224,77996,1,2
440,288,78349,1,2
376,344,78702,1,2
288,344,79055,2,0,C|144:344,1,140,0|2
152,344,79761,1,0
184,264,80114,2,0,C|328:264,9,140,4|0|0|0|0|0|0|0|0|0
256,192,83467,12,4,84702
472,344,95996,1,0
400,304,96349,1,0
464,248,96702,1,0
392,216,97055,1,0
448,152,97408,2,0,C|432:72|352:64,2,140
392,216,98467,5,2
312,184,98820,5,0
240,144,99173,1,0
168,104,99526,1,0
88,128,99879,1,0
128,208,100232,2,0,C|160:272|136:344,2,140
88,128,101291,5,2
152,184,101644,5,0
232,216,101996,1,0
320,224,102349,1,0
400,208,102702,1,0
480,176,103055,2,0,C|450:109|368:120,2,140
440,256,104114,5,2
368,304,104467,6,0,C|224:304,1,140,0|0
184,232,105173,2,0,C|336:232,1,140
376,168,105879,2,0,C|216:168,1,140
184,104,106585,2,0,C|344:104,1,140,0|4
264,48,107291,5,2
312,120,107644,1,2
256,184,107996,1,2
312,248,108349,1,2
312,248,108526,1,0
312,248,108702,1,2
272,320,109055,1,2
272,320,109232,1,0
272,320,109408,1,2
200,288,109761,5,4
128,248,110114,5,2
56,208,110467,1,2
112,144,110820,1,2
168,80,111173,1,2
168,80,111349,1,0
168,80,111526,1,2
224,16,111879,1,2
224,16,112055,1,0
224,16,112232,1,2
304,48,112585,5,4
384,80,112938,5,2
384,168,113291,1,2
384,256,113644,1,2
304,288,113996,1,2
304,288,114173,1,0
304,288,114349,1,2
224,312,114702,1,2
224,312,114879,1,0
224,312,115055,1,2
144,288,115408,5,4
72,248,115761,6,0,C|72:80,1,140
144,152,116467,2,0,C|304:152,1,140
232,216,117173,2,0,C|232:360,1,140
296,304,117879,2,4,C|440:304,1,140
96,296,129879,5,2
184,296,130232,1,0
272,296,130585,1,2
360,296,130938,1,2
416,232,131291,1,0
352,176,131644,1,2
424,128,131996,1,0
368,72,132349,5,4
288,88,132702,5,2
208,104,133055,1,2
128,120,133408,1,0
48,136,133761,1,2
80,216,134114,1,0
112,296,134467,1,2
192,280,134820,1,0
272,248,135173,5,4
352,224,135526,6,2,C|352:80,1,140
280,136,136232,2,2,C|280:304,1,140
208,232,136938,2,2,C|208:64,3,140
136,136,138349,5,0
216,176,138702,1,2
296,208,139055,1,0
296,208,139232,1,2
376,240,139585,1,0
376,240,139761,1,2
408,160,140114,1,2
440,80,140467,2,4,C|296:80,1,140
216,80,141173,5,2
264,152,141526,1,2
320,216,141879,1,2
248,264,142232,1,2
176,304,142585,1,0
144,232,142938,1,2
120,152,143291,2,2,C|288:152,1,140
344,152,143996,5,2
432,152,144349,1,2
384,224,144702,1,2
336,296,145055,1,2
256,296,145408,2,0,C|96:296,3,140,0|2|0|2
72,224,146820,5,2
128,160,147173,1,2
72,96,147526,1,2
136,40,147879,1,2
224,40,148232,2,0,C|368:40,1,140,0|2
360,40,148938,1,0
328,120,149291,2,0,C|184:120,9,140,4|0|0|0|0|0|0|0|0|0
256,192,152644,12,4,153879
144,120,176467,2,0,C|296:120,1,140,0|2
328,192,177172,2,0,C|176:192,1,140,0|2
224,264,177878,2,0,C|392:264,3,140,0|2|2|2
304,328,179290,5,0
232,280,179643,1,2
280,208,179996,1,0
208,168,180349,1,2
248,96,180702,1,0
176,56,181055,1,2
112,112,181408,2,0,C|88:256,1,140,2|2
72,336,182114,5,0
72,336,182467,1,2
152,336,182819,1,0
152,336,183172,1,2
232,336,183525,1,0
232,336,183878,1,2
312,336,184231,1,2
312,336,184584,1,2
360,272,184937,6,4,C|200:272,1,140
272,208,185643,2,4,C|112:208,1,140
176,136,186349,2,4,C|336:136,1,140
256,72,187055,2,4,C|408:72,1,140
396,72,187761,5,0
320,224,188467,1,0
168,152,189172,1,0
168,152,189525,1,0
168,152,189878,1,2
80,296,190584,5,0
56,128,191290,1,0
208,48,191996,1,0
208,48,192349,1,0
208,48,192702,1,2
256,208,193408,5,0
400,296,194114,1,0
496,152,194819,1,0
496,152,195172,1,0
496,152,195525,1,2
256,48,196231,5,0
192,96,196584,1,2
240,160,196937,1,0
168,208,197290,1,2
152,288,197643,2,0,C|144:360|232:360,1,140,0|2
288,352,198349,2,0,C|288:296|192:296,1,140,2|6
120,296,199055,5,0
160,224,199408,1,2
200,152,199761,2,0,C|360:152,1,140,0|2
424,152,200467,1,0
384,224,200819,1,2
344,296,201172,2,2,C|184:296,1,140
120,296,201878,5,0
64,232,202231,2,0,C|64:80,1,140,2|0
136,48,202937,1,2
216,72,203290,2,0,C|216:224,3,140,0|2|2|2
280,264,204702,5,0
360,240,205055,1,2
440,216,205408,1,0
424,136,205761,1,2
392,56,206114,2,0,C|248:56,1,140,0|2
288,136,206819,1,2
248,208,207172,2,0,C|192:352,8,140,2|0|2|0|2|0|2|2|2
256,192,210525,12,0,211761
