osu file format v5

[General]
AudioFilename: Otomegokoro Nekomimi.mp3
AudioLeadIn: 2011
PreviewTime: -1
Countdown: 1
SampleSet: Normal
EditorBookmarks: 32297

[Metadata]
Title:Otomegokoro Nekomimi
Artist:KOTOKO and Shimamiya Eiko
Creator:James
Version:Hard

[Difficulty]
HPDrainRate:5
CircleSize:5
OverallDifficulty:7
SliderMultiplier:1.5
SliderTickRate:1

[Events]
//Background and Video events
//Break Periods
2,19062,31769
2,108596,120855
//Storyboard Layer 0 (Background)
//Storyboard Layer 1 (Failing)
//Storyboard Layer 2 (Passing)
//Storyboard Layer 3 (Foreground)
//Storyboard Sound Samples
//Background Colour Transformations
3,100,236,154,248

[TimingPoints]
920,447.819035999998,4,1,0,100
108410,447.819035999998,4,1,0,100
150267,447.819035999999,4,2,0,100
156648,447.819035999999,4,1,0,100

[Colours]
Combo1 : 227,34,169
Combo2 : 255,0,255
Combo3 : 255,113,184
Combo4 : 241,129,254

[HitObjects]
40,88,248,1,0
104,64,472,1,0
168,40,696,2,2,B|219:19|275:6|329:23|384:56,1,225
320,128,1703,2,2,B|200:128,1,112.5
144,128,2263,1,0
88,160,2487,2,2,B|22:215|48:304,1,150
56,360,3159,1,0
120,360,3383,1,2
120,224,3830,5,0
176,264,4054,1,0
232,304,4278,2,2,B|281:336|343:354|402:340|472:288,1,225
448,208,5286,1,0
448,208,5398,1,0
384,208,5622,1,0
320,208,5846,1,0
256,208,6069,1,0
192,208,6293,5,2
192,72,6741,1,2
328,72,7189,1,2
328,208,7637,1,2
464,208,8085,5,0
408,168,8309,1,0
352,128,8532,1,0
288,96,8756,2,2,B|239:72|187:66|128:88,1,150
80,104,9428,1,0
112,160,9652,2,2,B|144:198|197:219|256:200,2,150
32,272,10995,1,0
48,208,11219,1,2
112,88,11667,5,0
168,56,11891,1,0
232,40,12115,1,0
296,40,12339,2,2,B|348:41|406:65|440:104,1,150
480,136,13011,1,0
418,150,13235,2,2,B|380:154|314:170|280:208,1,150
235,248,13906,1,0
192,296,14130,1,2
328,288,14578,5,0
384,256,14802,1,0
416,200,15026,1,0
360,160,15250,2,2,B|324:138|254:120|193:133|120:176,1,225
88,192,16145,1,0
224,192,16593,5,2
256,192,17041,12,0,18832
464,72,32939,5,0
464,72,33051,1,0
464,72,33162,2,2,B|404:68|352:75|308:110|278:159|264:200,1,225
248,232,34058,1,0
192,272,34282,1,2
128,280,34506,1,0
64,256,34730,2,2,B|87:212|135:181|192:176,1,150
248,168,35402,1,0
312,168,35625,1,2
312,168,35737,1,2
312,168,35849,1,2
40,144,36521,5,0
40,144,36633,1,0
40,144,36745,2,2,B|95:116|160:99|215:115|256:144,1,225
312,176,37641,1,0
360,216,37865,1,2
392,272,38088,1,0
328,288,38312,2,2,B|267:292|223:256|216:200,1,150
208,144,38984,1,0
216,80,39208,1,2
272,120,39432,5,2
416,48,39880,1,2
480,32,40104,6,0,B|480:80|461:139|416:195|340:217|272:216,1,300
216,216,41223,1,2
152,216,41447,1,0
152,80,41895,1,0
216,88,42119,1,2
280,112,42343,1,0
360,216,42791,1,2
280,320,43238,5,0
216,296,43462,1,2
168,248,43686,1,0
144,184,43910,1,2
136,48,44358,1,0
200,48,44582,1,2
336,48,45030,2,2,B|440:48,2,75
336,112,45701,5,2
200,112,46149,1,2
264,224,46597,1,2
400,224,47045,1,2
464,336,47269,5,0
464,336,47381,1,0
464,336,47493,2,2,B|383:344|300:299|264:224,1,225
248,176,48388,1,0
224,112,48612,1,2
176,64,48836,1,0
112,48,49060,1,2
184,160,49508,1,0
240,128,49732,1,2
272,72,49956,1,0
256,344,50851,5,0
322,350,51075,2,2,B|324:313|304:273|267:262|226:263|191:288|187:319|192:368,1,225
120,352,51971,1,0
128,288,52195,1,2
168,232,52419,1,0
232,208,52643,2,2,B|274:196|339:211|368:264,1,150
364,258,53314,1,0
392,320,53538,1,2
456,320,53762,5,0
456,184,54210,1,2
456,48,54658,1,0
320,48,55106,1,2
184,48,55553,1,0
48,48,56001,1,2
48,184,56449,1,0
184,184,56897,1,2
320,184,57345,1,0
456,184,57793,1,2
456,248,58016,5,0
456,248,58128,1,0
456,248,58240,1,0
392,248,58464,1,2
240,248,59024,1,0
240,248,59136,1,0
176,248,59360,1,2
56,248,59808,1,0
56,248,59920,1,0
56,248,60032,1,0
120,248,60256,1,2
288,248,60815,1,0
288,248,60927,1,0
352,248,61151,1,2
416,248,61375,1,2
416,312,61599,5,2
360,280,61823,2,0,B|304:260|284:204|304:144,1,150
256,112,62495,2,0,B|219:72|160:64|104:80,2,150
144,160,63838,1,0
208,176,64062,1,0
240,232,64286,1,0
240,296,64510,5,2
376,296,64958,1,2
440,296,65182,5,0
440,232,65405,2,0,B|444:176|396:146|346:147|312:200,2,150
440,296,66525,1,0
384,264,66749,1,0
328,232,66973,1,0
224,296,67421,1,0
168,264,67645,1,0
112,232,67869,1,0
320,48,68764,5,0
384,72,68988,1,0
424,120,69212,2,2,B|400:194|296:192,2,150
432,256,70555,1,2
368,256,70779,1,0
304,256,71003,1,2
240,256,71227,1,0
176,256,71451,1,2
368,112,72347,5,0
304,112,72571,1,0
232,208,73018,1,0
232,208,73242,2,0,B|392:208,2,150
232,328,74586,5,2
296,328,74810,1,6
432,320,75257,6,0,B|450:236|466:176|452:112|387:53|325:28|264:13|152:12|24:40,1,600
56,104,77273,2,0,B|51:210|100:288|192:308|312:275|392:200,1,450
248,192,79064,2,0,B|161:202|153:96|242:50|328:64|372:137|378:197|363:264|313:320|222:321|157:282|127:239|102:204|120:144,1,600
120,112,81079,2,0,B|154:24|258:-12|382:22|416:176,1,375
104,296,83318,5,0
168,296,83542,1,2
232,296,83766,1,0
296,296,83990,1,2
296,160,84438,1,0
360,160,84662,1,2
424,160,84886,1,0
224,160,85557,1,0
160,160,85781,1,2
160,40,86229,1,2
296,40,86677,1,0
360,40,86901,1,2
256,192,87572,12,4,89588
64,272,89812,1,0
120,304,90035,1,0
176,336,90259,2,2,B|234:360|280:368|323:360|367:348|416:312,1,225
480,280,91267,1,2
480,280,91379,1,2
432,240,91603,1,0
376,216,91827,1,2
312,208,92051,1,0
192,200,92498,1,0
128,192,92722,1,2
80,152,92946,1,0
32,40,93394,5,0
96,48,93618,1,0
160,64,93842,2,2,B|232:72|307:120|360:192,1,225
408,256,94850,1,2
408,256,94961,1,2
352,288,95185,1,0
286,288,95409,1,2
224,264,95633,1,0
166,228,95857,5,2
166,92,96305,1,2
302,92,96753,1,2
302,228,97201,1,2
230,228,97425,6,0,B|126:228,1,75
150,164,97872,2,0,B|254:164,1,75
225,164,98320,1,0
225,43,98768,2,0,B|145:43,2,75
342,44,99664,2,0,B|502:44,2,150
278,44,100783,1,0
280,176,101231,5,0
280,240,101455,1,2
280,304,101679,1,0
280,368,101903,1,2
216,248,102351,1,0
280,248,102574,1,2
344,248,102798,1,0
344,112,103246,1,0
280,112,103469,1,2
216,112,103693,1,0
256,192,104142,12,4,108396
464,80,122068,2,0,B|464:152|464:168|416:184|368:192,1,150
328,200,122740,2,0,B|250:214|248:288,2,112.5
360,144,123636,2,0,B|328:96|286:61|205:55|156:90|120:139|120:200,1,300
96,264,124867,1,0
192,248,125203,1,0
232,200,125427,1,0
232,96,125763,5,0
312,40,126099,1,0
376,56,126323,1,0
416,112,126547,1,0
416,112,126659,1,0
416,112,126771,1,0
448,168,126995,1,0
456,232,127218,1,0
320,232,127666,1,0
256,232,127890,1,0
192,232,128114,1,0
416,48,129234,6,0,B|232:48,1,150
200,48,129905,2,0,B|72:48,1,112.5
96,280,131025,1,0
128,224,131249,2,0,B|160:176|200:144|280:120|320:120|360:152|352:224|344:288|312:320,1,375
224,328,132704,2,0,B|241:312|244:295|240:272|216:263|197:272|183:279|168:312,1,112.5
112,296,133264,5,0
112,296,133376,1,0
112,296,133488,1,0
112,232,133712,1,0
256,136,134272,1,0
256,136,134384,1,0
256,200,134607,1,0
392,200,135055,1,0
392,200,135167,1,0
392,200,135279,1,0
392,264,135503,1,0
224,264,136063,1,0
224,264,136175,1,0
160,264,136399,1,0
96,264,136623,1,0
96,328,136847,5,0
160,328,137070,2,0,B|216:328|262:292|264:224,1,150
288,179,137742,2,0,B|360:128|440:187,1,150
352,272,138638,2,0,B|290:328|213:328|144:272,1,225
148,275,139533,1,0
176,216,139757,5,2
288,168,140205,1,2
328,120,140430,5,0
392,128,140653,2,2,B|396:72|348:42|298:43|264:96,2,150
392,192,141773,1,0
392,256,141997,1,2
328,256,142221,1,0
192,256,142669,1,0
192,192,142893,1,2
128,192,143117,1,0
128,128,143339,5,0
248,48,143787,1,0
320,48,144012,5,0
384,72,144236,1,0
424,120,144460,2,2,B|400:194|296:192,2,150
328,216,145803,1,2
264,216,146027,2,2,B|160:216,2,75
328,216,146699,1,2
224,24,147595,5,0
288,24,147819,1,0
256,152,148266,1,0
192,178,148490,2,0,B|212:211|259:236|307:208|316:183|320:160,2,150
224,304,149834,5,2
288,304,150058,1,6
352,184,150491,5,0
288,184,150715,1,0
224,184,150939,1,0
160,184,151163,1,2
224,80,151611,1,0
288,80,151835,1,2
368,144,152170,5,0
368,144,152282,1,0
304,144,152506,1,0
240,144,152730,1,2
176,144,152954,1,0
72,232,153401,1,0
136,232,153626,1,2
240,232,153962,5,0
240,232,154074,1,0
304,232,154298,1,0
368,232,154521,1,2
432,232,154745,1,0
432,96,155193,1,0
368,96,155417,1,2
280,96,155753,5,0
280,96,155865,1,0
216,96,156089,1,0
152,96,156313,1,2
88,96,156537,1,0
88,152,156761,2,0,B|88:184,11,37.5
117,182,158103,2,0,B|117:166,8,18.75
240,192,158999,5,0
376,192,159447,1,0
376,328,159894,1,0
240,328,160343,1,0
104,328,160791,1,0
104,192,161239,1,0
240,192,161687,1,0
376,192,162133,1,0
376,128,162358,5,0
312,128,162582,1,0
312,192,162806,1,0
248,192,163030,1,0
248,256,163254,1,0
248,256,163366,1,0
248,256,163478,1,0
184,256,163702,5,0
184,192,163926,1,0
120,192,164150,1,0
120,128,164373,1,0
56,128,164597,1,0
56,128,164709,1,0
56,128,164821,1,0
56,64,165045,1,0
120,64,165269,5,0
184,72,165493,2,0,B|262:78|332:129|336:216,1,225
248,216,166501,1,0
248,216,166613,1,0
184,216,166836,2,0,B|188:269|160:310|88:312,2,150
184,152,167956,1,0
184,88,168180,1,0
320,88,168628,5,0
384,88,168852,1,0
432,128,169076,2,0,B|426:219|290:218|270:123,1,225
176,144,170083,1,0
176,144,170195,1,0
120,184,170419,1,0
136,248,170643,1,0
200,264,170866,1,0
264,272,171091,2,2,B|352:291|424:240,3,150
464,208,172658,5,2
464,208,172770,1,2
464,208,172883,1,2
416,168,173107,1,0
360,136,173330,1,0
304,104,173554,2,2,B|255:80|203:74|144:96,1,150
96,112,174226,1,0
144,160,174450,2,2,B|176:198|229:219|288:200,1,150
408,176,175345,1,2
288,144,175793,1,0
224,144,176017,1,2
112,88,176465,5,0
168,56,176689,1,0
232,40,176913,1,0
296,40,177137,2,2,B|348:41|406:65|440:104,1,150
480,136,177809,1,0
418,150,178033,2,2,B|380:154|314:170|280:208,1,150
235,248,178704,1,0
192,296,178928,1,2
328,288,179376,5,0
384,256,179600,1,0
415,196,179824,1,0
360,160,180048,2,2,B|324:138|254:120|193:133|120:176,1,225
88,192,180943,1,4
256,192,181390,12,4,183629
