osu file format v5

[General]
AudioFilename: prime.mp3
AudioLeadIn: 0
PreviewTime: -1
Countdown: 0
SampleSet: Normal
StackLeniency: 0.7
Mode: 0

[Metadata]
Title:prime
Artist:KOTOKO TO AKI
Creator:xxcz111
Version:Easy
Source:
Tags:

[Difficulty]
HPDrainRate:7
CircleSize:5
OverallDifficulty:5
SliderMultiplier:1.5
SliderTickRate:3

[Events]
//Background and Video events
//Break Periods
2,22025,33975
2,89600,98850
2,149975,162675
//Storyboard Layer 0 (Background)
//Storyboard Layer 1 (Failing)
//Storyboard Layer 2 (Passing)
//Storyboard Layer 3 (Foreground)
//Storyboard Sound Samples
//Background Colour Transformations
3,100,163,162,255

[TimingPoints]
600,600,4,1,0,100
192150,600,4,2,0,100
203850,600,4,1,0,100

[Colours]
Combo1 : 209,209,209
Combo2 : 255,255,106
Combo3 : 0,128,64
Combo4 : 255,0,128
Combo5 : 128,64,64

[HitObjects]
256,192,16500,1,0
256,192,17250,1,0
256,192,18000,12,0,21825
192,128,35175,5,0
192,128,35400,5,0
192,128,35625,5,0
384,128,36525,5,0
224,32,37425,1,0
64,64,38325,1,0
160,192,39150,1,0
64,320,40050,1,0
224,224,40950,1,0
256,192,42450,1,6
256,192,42675,1,6
256,64,43650,5,0
352,96,44475,1,0
448,160,45375,1,0
384,256,46275,1,0
288,224,47175,1,0
192,160,48075,1,0
64,96,49575,1,0
64,96,49800,1,0
160,96,50025,1,0
64,96,50250,1,6
384,96,51150,6,2,B|448:256|416:288|384:320,1,225
320,288,52500,1,6
288,288,52950,1,6
256,288,53400,1,6
192,288,53850,2,2,B|64:192|64:96|96:96,1,225
160,96,55425,6,6,B|224:32|288:128,1,150
352,96,56475,1,0
256,96,56925,1,0
288,128,57375,1,0
256,32,58275,5,4
128,352,59175,1,4
448,128,60075,1,4
64,128,60975,1,4
384,352,61875,1,4
192,192,62775,6,2,B|256:224|320:192,1,131.25
318,192,63600,1,6
32,288,64050,5,2
96,256,64275,1,0
160,288,64500,1,0
192,320,64650,1,0
224,352,64950,1,0
256,320,65100,2,2,B|288:288|320:320|256:256|320:224,1,112.5
307,231,65775,1,0
288,192,66000,1,4
320,160,66225,1,4
384,64,66675,1,0
352,32,66900,1,4
224,64,67575,5,0
224,96,67800,1,0
224,128,68025,1,0
64,96,69150,5,0
96,128,69375,1,0
192,160,69975,1,0
224,128,70200,2,2,B|256:64|320:64,1,112.5
448,128,71100,6,0,B|448:192|416:224|384:256|352:256|320:192|320:160|320:96|288:64|256:64|224:64|192:160,1,431.25
192,160,73350,1,0
64,160,74700,6,0,B|128:64|256:32,1,225
416,64,76275,2,2,B|480:64|480:64|384:192,1,206.25
394,177,77325,5,6
288,192,77850,1,2
256,128,78150,2,2,B|256:160|224:160|192:160|224:192,1,75
224,192,78675,1,2
96,224,80475,5,0
224,352,81150,1,0
256,320,81375,1,6
192,128,82275,5,2
256,96,82575,1,0
256,96,82875,1,0
320,128,83175,1,0
256,192,84000,1,2
256,192,84900,1,6
256,192,85350,1,6
256,192,85800,12,2,89400
256,160,100050,1,0
352,128,100875,1,0
448,256,101775,1,0
288,320,102675,1,0
32,192,103575,5,0
64,160,104025,1,0
96,128,104475,1,0
128,96,104925,1,0
160,64,105300,2,0,B|224:160|288:160|320:192|256:288,1,281.25
256,288,106650,1,0
96,192,107550,5,2
128,160,108450,1,2
160,128,109350,1,2
192,96,110250,1,2
224,64,110625,1,0
256,64,111150,2,0,B|320:64|352:96|352:128,1,112.5
256,160,112050,1,0
288,192,112425,2,0,B|320:224|352:224|384:224|416:192,1,131.25
416,256,113775,5,0
416,224,114225,2,2,B|416:160|416:160|256:128,1,225
160,96,115950,1,0
256,96,116850,1,0
416,224,117750,2,0,B|416:288|416:288|256:320,1,225
224,288,119550,6,2,B|160:224|160:160|256:96,1,225
256,192,121275,12,0,127575
256,192,127950,1,2
352,192,128400,1,0
352,96,128850,2,0,B|96:96|96:96|192:288,1,450
96,256,131550,5,2
128,256,132000,2,2,B|192:288|352:320|448:192|416:192,1,318.75
416,160,133650,2,2,B|384:96|352:64|288:64|192:64,1,243.75
96,192,135525,6,0,B|96:352|96:352|256:192|256:192|416:352|416:352|416:160,1,787.5
448,96,139050,5,0
384,64,139500,2,0,B|320:32|224:32|160:32|96:32|64:128,1,356.25
192,160,141300,1,0
192,160,141750,2,0,B|224:224|192:256|160:288|128:288,1,168.75
128,288,142650,1,2
192,128,144450,5,0
320,128,145275,1,2
256,160,146175,5,2
160,192,146550,1,6
160,192,146850,1,6
224,256,147075,5,2
160,288,147375,1,6
160,288,147675,1,6
96,320,147975,5,2
416,320,148650,1,2
256,192,149775,1,6
96,160,163875,5,2
192,96,164400,1,0
192,96,164625,1,0
256,160,165075,1,0
288,160,165525,1,0
288,160,165750,5,2
320,288,166125,1,0
320,288,166350,1,0
256,288,166875,1,0
192,288,167250,1,0
192,288,167475,5,0
96,256,167925,1,0
96,256,168150,1,0
256,96,169275,5,2
416,320,170175,5,2
96,320,171075,5,2
160,256,171450,1,0
160,256,171675,1,0
192,224,172200,1,0
256,224,172575,1,0
256,224,172800,1,0
320,160,173250,1,0
320,160,173475,1,0
256,96,174600,5,2
96,320,175500,5,2
416,320,176400,5,2
288,128,177225,5,4
256,96,177450,1,4
224,128,177675,1,4
192,160,177900,1,4
224,192,178125,1,4
320,192,179025,6,2,B|384:224|384:288|384:320|352:352|288:384,1,243.75
192,192,180825,2,2,B|128:128|128:64|160:32|224:0,1,225
352,96,182625,1,2
352,192,183450,1,2
352,192,184350,1,2
352,192,184575,1,2
256,192,185325,12,0,191400
96,192,192375,2,0,B|128:128|192:128|256:128,1,168.75
256,128,193425,1,0
288,128,193650,2,0,B|352:160|352:256|256:320|224:288,1,243.75
224,288,194850,1,0
96,128,195975,5,0
128,96,197025,2,0,B|192:64|256:64|320:96|352:128|448:64,1,318.75
448,64,198600,1,0
448,128,198975,5,0
416,160,199200,1,0
384,192,199425,1,0
352,224,199650,1,0
320,256,199875,1,0
288,288,200100,1,0
160,320,200550,5,0
128,288,201000,1,0
128,288,201225,2,0,B|128:224|160:192|192:192|224:160,1,168.75
256,128,203025,1,0
256,192,203925,5,0
256,192,204150,1,0
256,192,204375,1,0
256,192,204600,1,0
256,192,204825,1,0
256,192,205050,1,0
256,192,205275,1,0
256,192,205725,1,0
