osu file format v12

[General]
AudioFilename: unfinished.mp3
AudioLeadIn: 1000
PreviewTime: 41537
Countdown: 0
SampleSet: Soft
StackLeniency: 0.7
Mode: 3
LetterboxInBreaks: 0
SpecialStyle: 0

[Editor]
DistanceSpacing: 1.1
BeatDivisor: 4
GridSize: 4

[Metadata]
Title:unfinished (TV Size)
TitleUnicode:unfinished (TV Size)
Artist:KOTOKO
ArtistUnicode:KOTOKO
Creator:ljqandylee
Version:4K Accel
Source:Accel World
Tags:fripside ending
BeatmapID:270939
BeatmapSetID:102519

[Difficulty]
HPDrainRate:8
CircleSize:4
OverallDifficulty:8
ApproachRate:5
SliderMultiplier:1.4
SliderTickRate:1

[Events]
//Background and Video events
0,0,"BG.jpg",0,0
//Break Periods
//Storyboard Layer 0 (Background)
//Storyboard Layer 1 (Fail)
//Storyboard Layer 2 (Pass)
//Storyboard Layer 3 (Foreground)
//Storyboard Sound Samples
//Background Colour Transformations
3,100,163,162,255

[TimingPoints]
853,410.958904109589,4,2,0,30,1,0
41948,-100,4,2,0,30,0,1
73592,-100,4,2,0,30,0,0

[HitObjects]
64,192,853,1,0,0:0:0:0:
448,192,853,1,0,0:0:0:0:
320,192,853,1,0,0:0:0:0:
192,192,1058,1,0,0:0:0:0:
320,192,1263,1,0,0:0:0:0:
64,192,1263,1,0,0:0:0:0:
448,192,1469,1,0,0:0:0:0:
64,192,1674,1,0,0:0:0:0:
320,192,1674,1,0,0:0:0:0:
192,192,1777,1,0,0:0:0:0:
448,192,1880,1,0,0:0:0:0:
320,192,2085,1,0,0:0:0:0:
64,192,2085,1,0,0:0:0:0:
320,192,2291,1,0,0:0:0:0:
64,192,2496,1,0,0:0:0:0:
448,192,2496,1,0,0:0:0:0:
320,192,2702,1,0,0:0:0:0:
192,192,2907,1,0,0:0:0:0:
64,192,2907,1,0,0:0:0:0:
448,192,3113,1,0,0:0:0:0:
320,192,3318,1,0,0:0:0:0:
64,192,3318,1,0,0:0:0:0:
448,192,3421,1,0,0:0:0:0:
192,192,3524,1,0,0:0:0:0:
64,192,3729,1,0,0:0:0:0:
320,192,3729,1,0,0:0:0:0:
192,192,3935,1,0,0:0:0:0:
448,192,3935,1,0,0:0:0:0:
320,192,4140,1,0,0:0:0:0:
64,192,4140,1,0,0:0:0:0:
448,192,4140,1,0,0:0:0:0:
192,192,4346,1,0,0:0:0:0:
320,192,4551,1,0,0:0:0:0:
64,192,4551,1,0,0:0:0:0:
448,192,4757,1,0,0:0:0:0:
192,192,4962,1,0,0:0:0:0:
64,192,4962,1,0,0:0:0:0:
448,192,5065,1,0,0:0:0:0:
320,192,5168,1,0,0:0:0:0:
64,192,5373,1,0,0:0:0:0:
448,192,5373,1,0,0:0:0:0:
192,192,5579,1,0,0:0:0:0:
64,192,5784,1,0,0:0:0:0:
448,192,5784,1,0,0:0:0:0:
192,192,5989,1,0,0:0:0:0:
448,192,5989,1,0,0:0:0:0:
320,192,6092,1,0,0:0:0:0:
64,192,6195,1,0,0:0:0:0:
448,192,6195,1,0,0:0:0:0:
320,192,6400,1,0,0:0:0:0:
64,192,6606,1,0,0:0:0:0:
448,192,6606,1,0,0:0:0:0:
192,192,6709,1,0,0:0:0:0:
320,192,6811,1,0,0:0:0:0:
448,192,6914,1,0,0:0:0:0:
64,192,6914,1,0,0:0:0:0:
320,192,7017,1,0,0:0:0:0:
192,192,7120,1,0,0:0:0:0:
448,192,7222,1,0,0:0:0:0:
64,192,7222,1,0,0:0:0:0:
320,192,7325,1,0,0:0:0:0:
192,192,7428,1,0,0:0:0:0:
448,192,7428,1,0,0:0:0:0:
320,192,7633,1,0,0:0:0:0:
448,192,7839,1,0,0:0:0:0:
64,192,7839,1,0,0:0:0:0:
192,192,8044,1,0,0:0:0:0:
320,192,8250,1,0,0:0:0:0:
64,192,8250,1,0,0:0:0:0:
192,192,8353,1,0,0:0:0:0:
320,192,8455,1,0,0:0:0:0:
448,192,8558,1,0,0:0:0:0:
64,192,8661,1,0,0:0:0:0:
448,192,8763,1,0,0:0:0:0:
192,192,8866,1,0,0:0:0:0:
64,192,8969,1,0,0:0:0:0:
192,192,9072,1,0,0:0:0:0:
448,192,9072,1,0,0:0:0:0:
320,192,9277,1,0,0:0:0:0:
64,192,9483,1,0,0:0:0:0:
448,192,9483,1,0,0:0:0:0:
192,192,9688,1,0,0:0:0:0:
64,192,9894,1,0,0:0:0:0:
320,192,9894,1,0,0:0:0:0:
448,192,9894,1,0,0:0:0:0:
192,192,10099,1,0,0:0:0:0:
64,192,10305,1,0,0:0:0:0:
448,192,10305,1,0,0:0:0:0:
192,192,10510,1,0,0:0:0:0:
448,192,10510,1,0,0:0:0:0:
320,192,10716,1,0,0:0:0:0:
448,192,10716,1,0,0:0:0:0:
64,192,11024,1,0,0:0:0:0:
320,192,11024,1,0,0:0:0:0:
448,192,11024,1,0,0:0:0:0:
192,192,11332,1,0,0:0:0:0:
448,192,11332,1,0,0:0:0:0:
64,192,11332,1,0,0:0:0:0:
320,192,11640,1,0,0:0:0:0:
192,192,11640,1,0,0:0:0:0:
448,192,11640,1,0,0:0:0:0:
64,192,11948,1,0,0:0:0:0:
448,192,11948,1,0,0:0:0:0:
192,192,12154,1,0,0:0:0:0:
448,192,12154,1,0,0:0:0:0:
320,192,12359,1,0,0:0:0:0:
64,192,12359,1,0,0:0:0:0:
192,192,12462,1,0,0:0:0:0:
320,192,12565,1,0,0:0:0:0:
192,192,12668,1,0,0:0:0:0:
64,192,12770,1,0,0:0:0:0:
448,192,12770,1,0,0:0:0:0:
64,192,12976,1,0,0:0:0:0:
448,192,12976,1,0,0:0:0:0:
320,192,13079,1,0,0:0:0:0:
192,192,13181,1,0,0:0:0:0:
320,192,13284,1,0,0:0:0:0:
448,192,13387,1,0,0:0:0:0:
192,192,13387,1,0,0:0:0:0:
64,192,13592,1,0,0:0:0:0:
320,192,13592,1,0,0:0:0:0:
192,192,13798,1,0,0:0:0:0:
320,192,14003,1,0,0:0:0:0:
448,192,14003,1,0,0:0:0:0:
64,192,14003,1,0,0:0:0:0:
192,192,14209,1,0,0:0:0:0:
320,192,14414,1,0,0:0:0:0:
448,192,14620,1,0,0:0:0:0:
64,192,14825,1,0,0:0:0:0:
192,192,15031,1,0,0:0:0:0:
320,192,15236,1,0,0:0:0:0:
448,192,15442,1,0,0:0:0:0:
64,192,15647,1,0,0:0:0:0:
320,192,15647,1,0,0:0:0:0:
320,192,16880,1,0,0:0:0:0:
448,192,16880,1,0,0:0:0:0:
192,192,17291,1,0,0:0:0:0:
448,192,17291,1,0,0:0:0:0:
64,192,17496,1,0,0:0:0:0:
192,192,17702,1,0,0:0:0:0:
320,192,17907,1,0,0:0:0:0:
64,192,18113,1,0,0:0:0:0:
448,192,18113,1,0,0:0:0:0:
192,192,18318,1,0,0:0:0:0:
320,192,18524,1,0,0:0:0:0:
192,192,18729,1,0,0:0:0:0:
448,192,18935,1,0,0:0:0:0:
64,192,18935,1,0,0:0:0:0:
192,192,19757,1,0,0:0:0:0:
320,192,19962,1,0,0:0:0:0:
448,192,19962,1,0,0:0:0:0:
64,192,20065,1,0,0:0:0:0:
448,192,20168,1,0,0:0:0:0:
320,192,20168,1,0,0:0:0:0:
192,192,20270,1,0,0:0:0:0:
64,192,20373,1,0,0:0:0:0:
448,192,20373,1,0,0:0:0:0:
320,192,20579,1,0,0:0:0:0:
448,192,20579,1,0,0:0:0:0:
64,192,20579,1,0,0:0:0:0:
192,192,20784,1,0,0:0:0:0:
320,192,20989,1,0,0:0:0:0:
448,192,21195,1,0,0:0:0:0:
64,192,21195,1,0,0:0:0:0:
320,192,21400,1,0,0:0:0:0:
448,192,21606,1,0,0:0:0:0:
64,192,21606,1,0,0:0:0:0:
192,192,21811,1,0,0:0:0:0:
64,192,22017,1,0,0:0:0:0:
448,192,22017,1,0,0:0:0:0:
64,192,22222,1,0,0:0:0:0:
448,192,22222,1,0,0:0:0:0:
192,192,22428,1,0,0:0:0:0:
448,192,22428,1,0,0:0:0:0:
320,192,22633,1,0,0:0:0:0:
192,192,22839,1,0,0:0:0:0:
448,192,22839,1,0,0:0:0:0:
64,192,23044,1,0,0:0:0:0:
192,192,23250,1,0,0:0:0:0:
448,192,23250,1,0,0:0:0:0:
320,192,23455,1,0,0:0:0:0:
64,192,23661,1,0,0:0:0:0:
448,192,23661,1,0,0:0:0:0:
320,192,23866,1,0,0:0:0:0:
448,192,23866,1,0,0:0:0:0:
64,192,23866,1,0,0:0:0:0:
192,192,24174,1,0,0:0:0:0:
64,192,24174,1,0,0:0:0:0:
448,192,24174,1,0,0:0:0:0:
320,192,24483,1,0,0:0:0:0:
64,192,24483,1,0,0:0:0:0:
192,192,24483,1,0,0:0:0:0:
192,192,24791,1,0,0:0:0:0:
448,192,24791,1,0,0:0:0:0:
320,192,24791,1,0,0:0:0:0:
64,192,25099,1,0,0:0:0:0:
320,192,25099,1,0,0:0:0:0:
192,192,25202,1,0,0:0:0:0:
448,192,25305,1,0,0:0:0:0:
320,192,25407,1,0,0:0:0:0:
64,192,25510,1,0,0:0:0:0:
448,192,25510,1,0,0:0:0:0:
192,192,25613,1,0,0:0:0:0:
448,192,25716,1,0,0:0:0:0:
64,192,25716,1,0,0:0:0:0:
320,192,25818,1,0,0:0:0:0:
64,192,25921,1,0,0:0:0:0:
448,192,25921,1,0,0:0:0:0:
192,192,25921,1,0,0:0:0:0:
320,192,26126,1,0,0:0:0:0:
64,192,26126,1,0,0:0:0:0:
448,192,26229,1,0,0:0:0:0:
192,192,26332,1,0,0:0:0:0:
64,192,26332,1,0,0:0:0:0:
448,192,26537,1,0,0:0:0:0:
192,192,26537,1,0,0:0:0:0:
320,192,26743,1,0,0:0:0:0:
64,192,26743,1,0,0:0:0:0:
448,192,26948,1,0,0:0:0:0:
192,192,26948,1,0,0:0:0:0:
320,192,27154,1,0,0:0:0:0:
448,192,27154,1,0,0:0:0:0:
64,192,27154,1,0,0:0:0:0:
192,192,27359,1,0,0:0:0:0:
64,192,27565,1,0,0:0:0:0:
448,192,27565,1,0,0:0:0:0:
320,192,27770,1,0,0:0:0:0:
320,192,27976,1,0,0:0:0:0:
64,192,27976,1,0,0:0:0:0:
192,192,28181,1,0,0:0:0:0:
320,192,28387,1,0,0:0:0:0:
448,192,28387,1,0,0:0:0:0:
192,192,28592,1,0,0:0:0:0:
64,192,28798,1,0,0:0:0:0:
448,192,28798,1,0,0:0:0:0:
320,192,29003,1,0,0:0:0:0:
64,192,29003,1,0,0:0:0:0:
192,192,29209,1,0,0:0:0:0:
448,192,29209,1,0,0:0:0:0:
320,192,29414,1,0,0:0:0:0:
64,192,29620,1,0,0:0:0:0:
320,192,29620,1,0,0:0:0:0:
448,192,29825,1,0,0:0:0:0:
192,192,30031,1,0,0:0:0:0:
448,192,30031,1,0,0:0:0:0:
320,192,30236,1,0,0:0:0:0:
64,192,30236,1,0,0:0:0:0:
192,192,30442,1,0,0:0:0:0:
448,192,30442,1,0,0:0:0:0:
320,192,30442,1,0,0:0:0:0:
192,192,30647,1,0,0:0:0:0:
64,192,30853,1,0,0:0:0:0:
448,192,30853,1,0,0:0:0:0:
320,192,31058,1,0,0:0:0:0:
448,192,31263,1,0,0:0:0:0:
64,192,31263,1,0,0:0:0:0:
192,192,31469,1,0,0:0:0:0:
448,192,31674,1,0,0:0:0:0:
64,192,31674,1,0,0:0:0:0:
320,192,31880,1,0,0:0:0:0:
192,192,32085,1,0,0:0:0:0:
64,192,32085,1,0,0:0:0:0:
320,192,32188,1,0,0:0:0:0:
64,192,32291,1,0,0:0:0:0:
320,192,32394,1,0,0:0:0:0:
64,192,32496,1,0,0:0:0:0:
192,192,32702,1,0,0:0:0:0:
448,192,32702,1,0,0:0:0:0:
64,192,32805,1,0,0:0:0:0:
448,192,32907,1,0,0:0:0:0:
64,192,33010,1,0,0:0:0:0:
448,192,33113,1,0,0:0:0:0:
320,192,33216,1,0,0:0:0:0:
192,192,33318,1,0,0:0:0:0:
64,192,33421,1,0,0:0:0:0:
192,192,33524,1,0,0:0:0:0:
320,192,33626,1,0,0:0:0:0:
64,192,33729,1,0,0:0:0:0:
448,192,33729,1,0,0:0:0:0:
192,192,33832,1,0,0:0:0:0:
320,192,33935,1,0,0:0:0:0:
64,192,34037,1,0,0:0:0:0:
448,192,34140,1,0,0:0:0:0:
320,192,34140,1,0,0:0:0:0:
192,192,34243,1,0,0:0:0:0:
448,192,34346,1,0,0:0:0:0:
320,192,34448,1,0,0:0:0:0:
448,192,34551,1,0,0:0:0:0:
64,192,34551,1,0,0:0:0:0:
192,192,34654,1,0,0:0:0:0:
448,192,34757,1,0,0:0:0:0:
64,192,34859,1,0,0:0:0:0:
192,192,34962,1,0,0:0:0:0:
448,192,34962,1,0,0:0:0:0:
320,192,35065,1,0,0:0:0:0:
64,192,35168,1,0,0:0:0:0:
320,192,35270,1,0,0:0:0:0:
448,192,35373,1,0,0:0:0:0:
192,192,35373,1,0,0:0:0:0:
64,192,35476,1,0,0:0:0:0:
320,192,35579,1,0,0:0:0:0:
192,192,35681,1,0,0:0:0:0:
320,192,35784,1,0,0:0:0:0:
64,192,35784,1,0,0:0:0:0:
448,192,35887,1,0,0:0:0:0:
64,192,35989,1,0,0:0:0:0:
192,192,36092,1,0,0:0:0:0:
448,192,36195,1,0,0:0:0:0:
320,192,36195,1,0,0:0:0:0:
192,192,36298,1,0,0:0:0:0:
64,192,36400,1,0,0:0:0:0:
192,192,36503,1,0,0:0:0:0:
320,192,36606,1,0,0:0:0:0:
448,192,36606,1,0,0:0:0:0:
192,192,36709,1,0,0:0:0:0:
320,192,36811,1,0,0:0:0:0:
448,192,36914,1,0,0:0:0:0:
320,192,37017,1,0,0:0:0:0:
64,192,37017,1,0,0:0:0:0:
192,192,37017,1,0,0:0:0:0:
192,192,37325,1,0,0:0:0:0:
320,192,37325,1,0,0:0:0:0:
448,192,37325,1,0,0:0:0:0:
64,192,37633,1,0,0:0:0:0:
320,192,37633,1,0,0:0:0:0:
448,192,37633,1,0,0:0:0:0:
64,192,37942,1,0,0:0:0:0:
192,192,37942,1,0,0:0:0:0:
448,192,37942,1,0,0:0:0:0:
64,192,38250,1,0,0:0:0:0:
320,192,38250,1,0,0:0:0:0:
448,192,38250,1,0,0:0:0:0:
448,192,38455,1,0,0:0:0:0:
192,192,38455,1,0,0:0:0:0:
64,192,38661,1,0,0:0:0:0:
448,192,38661,1,0,0:0:0:0:
64,192,38866,1,0,0:0:0:0:
320,192,38866,1,0,0:0:0:0:
192,192,39072,1,0,0:0:0:0:
320,192,39072,1,0,0:0:0:0:
448,192,39277,1,0,0:0:0:0:
192,192,39277,1,0,0:0:0:0:
192,192,39483,1,0,0:0:0:0:
64,192,39483,1,0,0:0:0:0:
320,192,39585,1,0,0:0:0:0:
448,192,39585,1,0,0:0:0:0:
64,192,39688,1,0,0:0:0:0:
192,192,39688,1,0,0:0:0:0:
320,192,39791,1,0,0:0:0:0:
448,192,39791,1,0,0:0:0:0:
64,192,39894,1,0,0:0:0:0:
192,192,39894,1,0,0:0:0:0:
320,192,39996,1,0,0:0:0:0:
448,192,39996,1,0,0:0:0:0:
64,192,40099,1,0,0:0:0:0:
192,192,40099,1,0,0:0:0:0:
320,192,40202,1,0,0:0:0:0:
448,192,40202,1,0,0:0:0:0:
64,192,40305,1,0,0:0:0:0:
192,192,40305,1,0,0:0:0:0:
320,192,40510,1,0,0:0:0:0:
448,192,40613,1,0,0:0:0:0:
320,192,40716,1,0,0:0:0:0:
64,192,40716,1,0,0:0:0:0:
192,192,40921,1,0,0:0:0:0:
320,192,41024,1,0,0:0:0:0:
64,192,41126,1,0,0:0:0:0:
192,192,41229,1,0,0:0:0:0:
320,192,41332,1,0,0:0:0:0:
64,192,41332,1,0,0:0:0:0:
192,192,41537,1,0,0:0:0:0:
320,192,41743,1,0,0:0:0:0:
448,192,41948,1,0,0:0:0:0:
192,192,41948,1,0,0:0:0:0:
64,192,41948,1,0,0:0:0:0:
192,192,42154,1,0,0:0:0:0:
320,192,42359,1,0,0:0:0:0:
448,192,42359,1,0,0:0:0:0:
64,192,42359,1,0,0:0:0:0:
448,192,42565,1,0,0:0:0:0:
320,192,42770,1,0,0:0:0:0:
64,192,42770,1,0,0:0:0:0:
192,192,42770,1,0,0:0:0:0:
320,192,42976,1,0,0:0:0:0:
320,192,43181,1,0,0:0:0:0:
448,192,43181,1,0,0:0:0:0:
64,192,43181,1,0,0:0:0:0:
192,192,43387,1,0,0:0:0:0:
448,192,43592,1,0,0:0:0:0:
320,192,43592,1,0,0:0:0:0:
64,192,43592,1,0,0:0:0:0:
448,192,43798,1,0,0:0:0:0:
320,192,44003,1,0,0:0:0:0:
64,192,44003,1,0,0:0:0:0:
192,192,44003,1,0,0:0:0:0:
448,192,44209,1,0,0:0:0:0:
320,192,44414,1,0,0:0:0:0:
192,192,44414,1,0,0:0:0:0:
448,192,44414,1,0,0:0:0:0:
192,192,44620,1,0,0:0:0:0:
320,192,44825,1,0,0:0:0:0:
64,192,44825,1,0,0:0:0:0:
64,192,45031,1,0,0:0:0:0:
448,192,45031,1,0,0:0:0:0:
320,192,45236,1,0,0:0:0:0:
64,192,45236,1,0,0:0:0:0:
192,192,45442,1,0,0:0:0:0:
320,192,45647,1,0,0:0:0:0:
448,192,45647,1,0,0:0:0:0:
64,192,45647,1,0,0:0:0:0:
192,192,45852,1,0,0:0:0:0:
320,192,46058,1,0,0:0:0:0:
448,192,46058,1,0,0:0:0:0:
64,192,46058,1,0,0:0:0:0:
320,192,46263,1,0,0:0:0:0:
448,192,46469,1,0,0:0:0:0:
192,192,46469,1,0,0:0:0:0:
64,192,46469,1,0,0:0:0:0:
320,192,46674,1,0,0:0:0:0:
64,192,46880,1,0,0:0:0:0:
448,192,46880,1,0,0:0:0:0:
192,192,46983,1,0,0:0:0:0:
448,192,47085,1,0,0:0:0:0:
320,192,47188,1,0,0:0:0:0:
64,192,47291,1,0,0:0:0:0:
192,192,47291,1,0,0:0:0:0:
448,192,47394,1,0,0:0:0:0:
320,192,47496,1,0,0:0:0:0:
192,192,47599,1,0,0:0:0:0:
320,192,47702,1,0,0:0:0:0:
64,192,47702,1,0,0:0:0:0:
448,192,47805,1,0,0:0:0:0:
192,192,47907,1,0,0:0:0:0:
320,192,48010,1,0,0:0:0:0:
64,192,48113,1,0,0:0:0:0:
448,192,48113,1,0,0:0:0:0:
192,192,48113,1,0,0:0:0:0:
320,192,48318,1,0,0:0:0:0:
448,192,48318,1,0,0:0:0:0:
192,192,48318,1,0,0:0:0:0:
320,192,48524,1,0,0:0:0:0:
64,192,48524,1,0,0:0:0:0:
448,192,48524,1,0,0:0:0:0:
192,192,48729,1,0,0:0:0:0:
320,192,48935,1,0,0:0:0:0:
448,192,48935,1,0,0:0:0:0:
64,192,48935,1,0,0:0:0:0:
448,192,49140,1,0,0:0:0:0:
320,192,49346,1,0,0:0:0:0:
192,192,49346,1,0,0:0:0:0:
64,192,49346,1,0,0:0:0:0:
64,192,49551,1,0,0:0:0:0:
192,192,49757,1,0,0:0:0:0:
320,192,49757,1,0,0:0:0:0:
448,192,49757,1,0,0:0:0:0:
64,192,49962,1,0,0:0:0:0:
192,192,50168,1,0,0:0:0:0:
320,192,50168,1,0,0:0:0:0:
448,192,50168,1,0,0:0:0:0:
320,192,50373,1,0,0:0:0:0:
64,192,50579,1,0,0:0:0:0:
192,192,50579,1,0,0:0:0:0:
448,192,50579,1,0,0:0:0:0:
448,192,50784,1,0,0:0:0:0:
320,192,50989,1,0,0:0:0:0:
64,192,50989,1,0,0:0:0:0:
192,192,50989,1,0,0:0:0:0:
448,192,51195,1,0,0:0:0:0:
320,192,51400,1,0,0:0:0:0:
448,192,51400,1,0,0:0:0:0:
64,192,51400,1,0,0:0:0:0:
192,192,51606,1,0,0:0:0:0:
320,192,51811,1,0,0:0:0:0:
64,192,51811,1,0,0:0:0:0:
192,192,52017,1,0,0:0:0:0:
320,192,52017,1,0,0:0:0:0:
64,192,52120,1,0,0:0:0:0:
448,192,52120,1,0,0:0:0:0:
64,192,52428,1,0,0:0:0:0:
320,192,52428,1,0,0:0:0:0:
448,192,52428,1,0,0:0:0:0:
192,192,52736,1,0,0:0:0:0:
448,192,52736,1,0,0:0:0:0:
64,192,52736,1,0,0:0:0:0:
320,192,53044,1,0,0:0:0:0:
448,192,53044,1,0,0:0:0:0:
64,192,53044,1,0,0:0:0:0:
192,192,53250,1,0,0:0:0:0:
448,192,53250,1,0,0:0:0:0:
320,192,53455,1,0,0:0:0:0:
64,192,53455,1,0,0:0:0:0:
192,192,53455,1,0,0:0:0:0:
448,192,53558,1,0,0:0:0:0:
192,192,53661,1,0,0:0:0:0:
64,192,53661,1,0,0:0:0:0:
448,192,53763,1,0,0:0:0:0:
320,192,53866,1,0,0:0:0:0:
64,192,53866,1,0,0:0:0:0:
192,192,54072,1,0,0:0:0:0:
448,192,54174,1,0,0:0:0:0:
64,192,54277,1,0,0:0:0:0:
320,192,54277,1,0,0:0:0:0:
192,192,54380,1,0,0:0:0:0:
320,192,54483,1,0,0:0:0:0:
448,192,54585,1,0,0:0:0:0:
320,192,54688,1,0,0:0:0:0:
64,192,54688,1,0,0:0:0:0:
192,192,54791,1,0,0:0:0:0:
320,192,54894,1,0,0:0:0:0:
448,192,54996,1,0,0:0:0:0:
320,192,55099,1,0,0:0:0:0:
64,192,55099,1,0,0:0:0:0:
192,192,55099,1,0,0:0:0:0:
448,192,55202,1,0,0:0:0:0:
192,192,55305,1,0,0:0:0:0:
320,192,55407,1,0,0:0:0:0:
448,192,55510,1,0,0:0:0:0:
64,192,55510,1,0,0:0:0:0:
192,192,55613,1,0,0:0:0:0:
448,192,55716,1,0,0:0:0:0:
320,192,55818,1,0,0:0:0:0:
192,192,55921,1,0,0:0:0:0:
448,192,55921,1,0,0:0:0:0:
64,192,56024,1,0,0:0:0:0:
320,192,56126,1,0,0:0:0:0:
192,192,56229,1,0,0:0:0:0:
64,192,56332,1,0,0:0:0:0:
320,192,56332,1,0,0:0:0:0:
448,192,56435,1,0,0:0:0:0:
192,192,56537,1,0,0:0:0:0:
320,192,56640,1,0,0:0:0:0:
64,192,56743,1,0,0:0:0:0:
448,192,56743,1,0,0:0:0:0:
192,192,56846,1,0,0:0:0:0:
320,192,56948,1,0,0:0:0:0:
448,192,57051,1,0,0:0:0:0:
192,192,57154,1,0,0:0:0:0:
64,192,57154,1,0,0:0:0:0:
448,192,57257,1,0,0:0:0:0:
320,192,57359,1,0,0:0:0:0:
192,192,57462,1,0,0:0:0:0:
320,192,57565,1,0,0:0:0:0:
64,192,57565,1,0,0:0:0:0:
448,192,57668,1,0,0:0:0:0:
192,192,57770,1,0,0:0:0:0:
320,192,57873,1,0,0:0:0:0:
192,192,57976,1,0,0:0:0:0:
64,192,57976,1,0,0:0:0:0:
320,192,58079,1,0,0:0:0:0:
64,192,58181,1,0,0:0:0:0:
192,192,58181,1,0,0:0:0:0:
320,192,58284,1,0,0:0:0:0:
64,192,58387,1,0,0:0:0:0:
192,192,58387,1,0,0:0:0:0:
448,192,58387,1,0,0:0:0:0:
320,192,58489,1,0,0:0:0:0:
192,192,58592,1,0,0:0:0:0:
448,192,58695,1,0,0:0:0:0:
320,192,58798,1,0,0:0:0:0:
64,192,58798,1,0,0:0:0:0:
192,192,58900,1,0,0:0:0:0:
64,192,59003,1,0,0:0:0:0:
320,192,59106,1,0,0:0:0:0:
192,192,59209,1,0,0:0:0:0:
448,192,59209,1,0,0:0:0:0:
64,192,59311,1,0,0:0:0:0:
320,192,59414,1,0,0:0:0:0:
192,192,59517,1,0,0:0:0:0:
64,192,59620,1,0,0:0:0:0:
448,192,59620,1,0,0:0:0:0:
320,192,59722,1,0,0:0:0:0:
64,192,59825,1,0,0:0:0:0:
192,192,59928,1,0,0:0:0:0:
320,192,60031,1,0,0:0:0:0:
448,192,60031,1,0,0:0:0:0:
64,192,60031,1,0,0:0:0:0:
192,192,60133,1,0,0:0:0:0:
448,192,60236,1,0,0:0:0:0:
320,192,60339,1,0,0:0:0:0:
192,192,60442,1,0,0:0:0:0:
64,192,60442,1,0,0:0:0:0:
448,192,60544,1,0,0:0:0:0:
320,192,60647,1,0,0:0:0:0:
192,192,60750,1,0,0:0:0:0:
448,192,60852,1,0,0:0:0:0:
64,192,60852,1,0,0:0:0:0:
320,192,60955,1,0,0:0:0:0:
192,192,61058,1,0,0:0:0:0:
320,192,61161,1,0,0:0:0:0:
64,192,61263,1,0,0:0:0:0:
448,192,61263,1,0,0:0:0:0:
192,192,61263,1,0,0:0:0:0:
64,192,61469,1,0,0:0:0:0:
320,192,61469,1,0,0:0:0:0:
448,192,61469,1,0,0:0:0:0:
192,192,61674,1,0,0:0:0:0:
320,192,61674,1,0,0:0:0:0:
448,192,61674,1,0,0:0:0:0:
64,192,61777,1,0,0:0:0:0:
320,192,61880,1,0,0:0:0:0:
448,192,61983,1,0,0:0:0:0:
320,192,62085,1,0,0:0:0:0:
64,192,62085,1,0,0:0:0:0:
192,192,62188,1,0,0:0:0:0:
448,192,62291,1,0,0:0:0:0:
320,192,62394,1,0,0:0:0:0:
448,192,62496,1,0,0:0:0:0:
64,192,62496,1,0,0:0:0:0:
192,192,62599,1,0,0:0:0:0:
320,192,62702,1,0,0:0:0:0:
64,192,62805,1,0,0:0:0:0:
320,192,62907,1,0,0:0:0:0:
448,192,62907,1,0,0:0:0:0:
192,192,62907,1,0,0:0:0:0:
320,192,63113,1,0,0:0:0:0:
448,192,63113,1,0,0:0:0:0:
192,192,63113,1,0,0:0:0:0:
64,192,63318,1,0,0:0:0:0:
448,192,63318,1,0,0:0:0:0:
320,192,63318,1,0,0:0:0:0:
192,192,63421,1,0,0:0:0:0:
448,192,63524,1,0,0:0:0:0:
320,192,63626,1,0,0:0:0:0:
448,192,63729,1,0,0:0:0:0:
64,192,63729,1,0,0:0:0:0:
320,192,63832,1,0,0:0:0:0:
64,192,63935,1,0,0:0:0:0:
192,192,64037,1,0,0:0:0:0:
320,192,64140,1,0,0:0:0:0:
448,192,64140,1,0,0:0:0:0:
64,192,64243,1,0,0:0:0:0:
320,192,64346,1,0,0:0:0:0:
192,192,64448,1,0,0:0:0:0:
320,192,64551,1,0,0:0:0:0:
64,192,64551,1,0,0:0:0:0:
448,192,64551,1,0,0:0:0:0:
192,192,64757,1,0,0:0:0:0:
320,192,64757,1,0,0:0:0:0:
448,192,64757,1,0,0:0:0:0:
64,192,64962,1,0,0:0:0:0:
192,192,64962,1,0,0:0:0:0:
448,192,64962,1,0,0:0:0:0:
192,192,65168,1,0,0:0:0:0:
64,192,65168,1,0,0:0:0:0:
320,192,65270,1,0,0:0:0:0:
448,192,65270,1,0,0:0:0:0:
192,192,65579,1,0,0:0:0:0:
64,192,65579,1,0,0:0:0:0:
448,192,65579,1,0,0:0:0:0:
320,192,65887,1,0,0:0:0:0:
448,192,65887,1,0,0:0:0:0:
64,192,65887,1,0,0:0:0:0:
64,192,66195,1,0,0:0:0:0:
192,192,66195,1,0,0:0:0:0:
320,192,66195,1,0,0:0:0:0:
448,192,66400,1,0,0:0:0:0:
64,192,66400,1,0,0:0:0:0:
192,192,66400,1,0,0:0:0:0:
64,192,66606,1,0,0:0:0:0:
448,192,66606,1,0,0:0:0:0:
192,192,66709,1,0,0:0:0:0:
448,192,66811,1,0,0:0:0:0:
320,192,66914,1,0,0:0:0:0:
448,192,67017,1,0,0:0:0:0:
192,192,67017,1,0,0:0:0:0:
64,192,67017,1,0,0:0:0:0:
320,192,67120,1,0,0:0:0:0:
192,192,67222,1,0,0:0:0:0:
64,192,67222,1,0,0:0:0:0:
448,192,67325,1,0,0:0:0:0:
192,192,67428,1,0,0:0:0:0:
320,192,67531,1,0,0:0:0:0:
64,192,67633,1,0,0:0:0:0:
192,192,67633,1,0,0:0:0:0:
448,192,67633,1,0,0:0:0:0:
192,192,67839,1,0,0:0:0:0:
448,192,67839,1,0,0:0:0:0:
320,192,68044,1,0,0:0:0:0:
448,192,68044,1,0,0:0:0:0:
448,192,68250,1,0,0:0:0:0:
64,192,68250,1,0,0:0:0:0:
192,192,68250,1,0,0:0:0:0:
64,192,68455,1,0,0:0:0:0:
320,192,68455,1,0,0:0:0:0:
192,192,68558,1,0,0:0:0:0:
448,192,68558,1,0,0:0:0:0:
320,192,68866,1,0,0:0:0:0:
64,192,68866,1,0,0:0:0:0:
448,192,69072,1,0,0:0:0:0:
64,192,69072,1,0,0:0:0:0:
320,192,69380,1,0,0:0:0:0:
192,192,69380,1,0,0:0:0:0:
448,192,69688,1,0,0:0:0:0:
64,192,69688,1,0,0:0:0:0:
320,192,69894,1,0,0:0:0:0:
448,192,69894,1,0,0:0:0:0:
64,192,69894,1,0,0:0:0:0:
192,192,69996,1,0,0:0:0:0:
320,192,70099,1,0,0:0:0:0:
448,192,70202,1,0,0:0:0:0:
320,192,70305,1,0,0:0:0:0:
64,192,70305,1,0,0:0:0:0:
448,192,70407,1,0,0:0:0:0:
192,192,70510,1,0,0:0:0:0:
320,192,70613,1,0,0:0:0:0:
448,192,70716,1,0,0:0:0:0:
64,192,70716,1,0,0:0:0:0:
320,192,70818,1,0,0:0:0:0:
64,192,70921,1,0,0:0:0:0:
448,192,70921,1,0,0:0:0:0:
320,192,71024,1,0,0:0:0:0:
64,192,71126,1,0,0:0:0:0:
448,192,71126,1,0,0:0:0:0:
192,192,71229,1,0,0:0:0:0:
320,192,71332,1,0,0:0:0:0:
448,192,71435,1,0,0:0:0:0:
64,192,71537,1,0,0:0:0:0:
320,192,71537,1,0,0:0:0:0:
192,192,71537,1,0,0:0:0:0:
448,192,71640,1,0,0:0:0:0:
320,192,71743,1,0,0:0:0:0:
192,192,71846,1,0,0:0:0:0:
64,192,71948,1,0,0:0:0:0:
448,192,71948,1,0,0:0:0:0:
192,192,72051,1,0,0:0:0:0:
320,192,72154,1,0,0:0:0:0:
448,192,72257,1,0,0:0:0:0:
192,192,72359,1,0,0:0:0:0:
64,192,72462,1,0,0:0:0:0:
448,192,72565,1,0,0:0:0:0:
320,192,72668,1,0,0:0:0:0:
192,192,72770,1,0,0:0:0:0:
64,192,72770,1,0,0:0:0:0:
448,192,72873,1,0,0:0:0:0:
192,192,72976,1,0,0:0:0:0:
320,192,73079,1,0,0:0:0:0:
64,192,73181,1,0,0:0:0:0:
192,192,73250,1,0,0:0:0:0:
320,192,73318,1,0,0:0:0:0:
448,192,73387,1,0,0:0:0:0:
320,192,73455,1,0,0:0:0:0:
192,192,73524,1,0,0:0:0:0:
64,192,73592,1,0,0:0:0:0:
448,192,73592,1,0,0:0:0:0:
