osu file format v9

[General]
AudioFilename: Kotoko - Unfinished.mp3
AudioLeadIn: 500
PreviewTime: 42000
Countdown: 0
SampleSet: Normal
StackLeniency: 0.7
Mode: 0
LetterboxInBreaks: 0

[Editor]
DistanceSpacing: 0
BeatDivisor: 4
GridSize: 4

[Metadata]
Title:unfinished (TV Size)
Artist:KOTOKO
Creator:Miya
Version:S.S
Source:Accel World
Tags:ending Yasora-chan Star Stream Kuroyukihime

[Difficulty]
HPDrainRate:7
CircleSize:4
OverallDifficulty:7
ApproachRate:8
SliderMultiplier:2.5
SliderTickRate:2

[Events]
//Background and Video events
0,0,"Accel-World-1024x768.jpg"
Video,850,"a.avi"
//Break Periods
//Storyboard Layer 0 (Background)
//Storyboard Layer 1 (Fail)
//Storyboard Layer 2 (Pass)
//Storyboard Layer 3 (Foreground)
//Storyboard Sound Samples
//Background Colour Transformations
3,100,163,162,255

[TimingPoints]
1610,410.958904109589,4,1,2,60,1,0
14760,-125,4,2,0,80,0,0
21438,-125,4,2,0,100,0,0
24623,-100,4,1,2,60,0,0
41267,-100,4,2,0,60,0,0
42705,-83.3333333333333,4,1,2,60,0,1
54212,-83.3333333333333,4,1,2,60,0,0
55856,-83.3333333333333,4,1,2,60,0,1
67363,-83.3333333333333,4,1,2,60,0,0
72705,-125,4,1,2,60,0,0
74349,-125,4,1,2,100,0,0
74452,-125,4,1,2,60,0,0
78048,-125,4,1,2,50,0,0
78459,-125,4,1,2,40,0,0
78870,-125,4,1,2,30,0,0
79281,-125,4,1,2,20,0,0
79486,-125,4,1,2,5,0,0

[Colours]
Combo1 : 128,128,255
Combo2 : 255,128,192
Combo3 : 0,64,128
Combo4 : 200,38,38

[HitObjects]
116,172,1610,2,0,B|176:88|288:104,1,187.5,4|0
320,132,2020,2,0,B|448:132,1,125,8|0
400,224,2431,1,0
400,224,2534,1,0
364,316,2740,1,0
364,316,2842,2,0,B|308:276|232:292,1,125,8|0
152,324,3253,6,0,B|52:296|32:192,1,187.5
64,152,3664,2,0,B|192:128,1,125,8|0
272,76,4075,1,0
272,76,4178,1,8
372,68,4383,1,0
372,68,4486,1,8
448,132,4692,1,0
448,132,4794,1,0
448,132,4897,6,0,B|448:208|448:208|456:228|456:228|456:320,1,187.5,4|0
416,352,5308,2,0,B|356:308|288:308,1,125,8|0
204,340,5719,1,0
204,340,5822,1,0
204,340,5925,1,0
68,232,6130,2,0,B|196:232,1,125,8|0
56,340,6541,6,0,B|4:300|-12:236,1,125
20,196,6849,2,0,B|72:156|88:92,1,125
128,68,7157,1,0
324,40,7363,1,0
324,40,7466,1,0
276,128,7671,1,0
276,128,7774,1,8
372,160,7979,1,0
372,160,8082,1,0
372,160,8185,6,0,B|472:136|496:32,1,187.5,4|0
452,12,8596,2,0,B|428:116|328:140,1,187.5,8|0
276,128,9007,1,0
56,76,9315,1,0
56,300,9623,1,0
200,344,9829,6,0,B|260:260|364:248,1,187.5,4|0
336,296,10240,2,0,B|252:236|240:132,1,187.5,8|0
236,92,10651,1,0
452,32,10959,1,0
508,248,11267,2,0,B|404:324,1,125,0|4
256,240,11781,5,0
104,321,12089,1,0
104,62,12397,1,0
256,144,12705,1,0
140,192,12911,1,0
40,268,13116,6,0,B|-8:152,1,125,4|0
84,188,13527,2,0,B|132:72,1,125
224,36,13938,1,0
248,36,14041,1,0
272,36,14144,1,0
296,36,14246,1,0
320,36,14349,1,0
344,36,14452,1,0
368,36,14555,1,0
392,36,14657,1,0
416,36,14760,6,0,B|444:84|496:88,2,100,0|0|0
360,100,15377,2,0,B|344:208|244:260,1,200
180,212,15993,1,0
108,268,16199,1,0
56,328,16404,2,0,B|0:304|0:240|80:168|80:168|156:108|228:108|252:172,2,400,2|0|0
132,352,18253,5,0
204,320,18459,1,0
284,328,18664,1,0
364,344,18870,2,0,B|384:244|476:176,1,200
324,116,19692,2,0,B|232:136|160:80|160:80|72:192|72:192|120:216|124:264,1,400,2|0
100,332,20719,1,0
140,332,20822,1,0
180,332,20925,1,0
220,332,21027,1,0
260,332,21130,1,0
368,272,21336,6,0,B|384:320|444:336,2,100,4|2|0
300,228,21952,1,2
224,256,22157,2,0,B|136:204,1,100,0|2
104,132,22568,2,0,B|192:80,1,100,0|2
264,48,22979,6,0,B|280:112|356:120,1,100,0|2
392,168,23390,1,0
468,140,23596,2,0,B|512:112,2,50,2|0|0
465,252,24007,2,0,B|517:250,2,50,2|0|0
407,349,24418,2,0,B|453:373,2,50,2|0|4
212,236,24931,5,0
4,320,25240,1,0
36,96,25548,1,0
256,136,25856,1,0
380,52,26062,1,0
512,124,26267,6,0,B|524:184,3,62.5
508,204,26678,2,0,B|496:264,3,62.5
488,288,27089,1,0
464,292,27192,1,0
440,300,27294,1,0
416,308,27397,1,0
396,324,27500,1,0
372,328,27603,1,0
348,332,27705,1,0
324,336,27808,1,0
300,340,27911,6,0,B|232:256|140:244,1,187.5,4|0
100,268,28322,2,0,B|20:156,1,125,8|0
64,72,28733,1,0
160,104,28938,1,0
320,32,29144,1,8
416,64,29349,1,0
460,156,29555,6,0,B|520:260|520:260|496:304|456:308|412:272,2,250,0|8|0
416,64,30582,1,0
344,224,30788,1,8
300,132,30993,1,0
212,84,31199,6,0,B|204:216|148:272,1,187.5,4|0
116,288,31610,2,0,B|116:156,1,125,8|0
28,24,32020,2,0,B|28:156,1,125
28,360,32431,2,0,B|28:228,1,125,8|0
116,192,32842,5,0
188,120,33048,1,0
256,280,33253,1,8
328,208,33459,1,0
428,220,33664,1,0
456,180,33767,1,8
476,136,33870,1,0
484,88,33973,1,0
488,40,34075,2,0,B|356:28,1,125,8|0
264,32,34486,6,0,B|256:136|172:208,1,187.5,4|0
136,192,34897,2,0,B|116:64,1,125,8|0
48,144,35308,1,0
136,192,35514,1,0
296,124,35719,1,8
384,172,35925,1,0
444,252,36130,6,0,B|336:264|268:344,1,187.5,4|0
236,360,36541,2,0,B|112:360,1,125,8|0
52,280,36952,2,0,B|-4:312,2,62.5
112,200,37363,1,8
156,176,37466,1,0
200,156,37568,1,0
244,132,37671,1,0
288,108,37774,5,4
496,192,38082,1,0
288,276,38390,1,0
496,192,38699,1,0
272,192,39007,1,0
160,292,39212,1,0
48,192,39418,6,0,B|48:68,1,125
140,24,39829,1,8
228,68,40034,1,0
316,20,40240,1,8
340,24,40342,1,0
364,32,40445,1,0
388,40,40548,1,0
412,48,40651,1,8
436,56,40753,1,0
460,64,40856,1,0
484,72,40959,1,0
508,80,41062,5,0
376,196,41267,1,0
376,196,41370,1,0
376,196,41473,1,0
448,356,41678,2,0,B|376:356,1,62.5
360,356,41883,1,0
336,356,41986,1,0
312,356,42089,1,0
288,356,42192,1,0
264,356,42294,2,0,B|216:312|148:288,1,125
36,84,42705,6,0,B|36:236,1,150.000003576279,6|0
148,188,43116,1,8
328,80,43322,1,0
276,188,43527,2,0,B|332:244|424:252,1,150.000003576279,2|0
500,172,43938,1,8
408,96,44144,1,0
500,24,44349,6,0,B|500:176,1,150.000003576279,2|0
436,360,44760,2,0,B|436:208,1,150.000003576279,10|0
408,96,45171,1,0
376,96,45274,1,2
344,96,45377,1,0
316,96,45479,1,0
284,96,45582,2,0,B|120:96,1,150.000003576279,10|0
32,156,45993,5,6
32,156,46096,1,0
32,156,46199,2,0,B|116:168|168:252,2,150.000003576279,0|8|0
88,264,46815,1,2
88,264,46918,1,0
88,264,47020,2,0,B|127:198|211:186,2,150.000003576279,0|8|0
4,352,47637,5,6
64,352,47842,1,0
124,352,48048,1,10
184,352,48253,1,0
244,352,48459,1,0
276,352,48562,1,10
304,352,48664,1,0
336,352,48767,1,0
368,352,48870,2,0,B|520:352,1,150.000003576279,10|0
440,260,49281,6,0,B|332:216|280:108,1,225.000005364418,6|0
300,52,49692,2,0,B|132:52,1,150.000003576279,8|0
32,68,50103,2,0,B|140:112|192:220,1,225.000005364418,2|0
172,276,50514,2,0,B|340:276,1,150.000003576279,8|0
432,320,50925,6,0,B|432:212|432:212|472:160,1,150.000003576279,6|0
484,38,51336,2,0,B|484:146|484:146|458:179,1,150.000003576279,10|0
336,168,51746,2,0,B|260:136|240:80|240:80|68:68,1,300.000007152558,2|8
4,168,52363,1,0
74,68,52568,5,6
74,68,52671,1,0
196,204,52877,1,2
196,204,52979,1,0
324,76,53185,1,2
324,76,53288,1,0
472,180,53493,1,2
472,180,53596,1,0
384,336,53801,1,2
384,336,53904,1,0
384,336,54007,1,0
268,364,54212,5,6
176,288,54418,1,0
84,364,54623,1,2
84,364,54726,1,0
84,364,54829,1,0
228,288,55034,1,2
260,288,55137,1,0
292,288,55240,1,0
320,288,55342,1,0
348,300,55445,1,2
380,300,55548,1,0
412,300,55651,1,0
444,300,55753,1,0
476,300,55856,6,0,B|476:148,1,150.000003576279,6|0
364,196,56267,1,8
184,304,56473,1,0
236,196,56678,2,0,B|180:140|88:132,1,150.000003576279,2|0
12,212,57089,1,8
104,288,57294,1,0
12,360,57500,6,0,B|12:208,1,150.000003576279,2|0
76,24,57911,2,0,B|76:176,1,150.000003576279,10|0
104,288,58322,1,0
136,288,58425,1,10
168,288,58527,1,0
196,288,58630,1,0
228,288,58733,2,0,B|392:288,1,150.000003576279,10|0
480,228,59144,5,6
480,228,59246,1,0
480,228,59349,2,0,B|396:216|344:132,2,150.000003576279,0|8|0
424,120,59966,1,6
424,120,60068,1,0
424,120,60171,2,0,B|385:186|301:198,2,150.000003576279,0|8|0
508,32,60788,5,6
448,32,60993,1,0
388,32,61199,1,10
328,32,61404,1,0
268,32,61609,1,0
236,32,61712,1,10
208,32,61815,1,0
176,32,61918,1,0
144,32,62020,2,0,B|-8:32,1,150.000003576279,10|0
72,124,62431,6,0,B|180:168|232:276,1,225.000005364418,6|0
212,332,62842,2,0,B|380:332,1,150.000003576279,8|0
480,316,63253,2,0,B|372:272|320:164,1,225.000005364418,2|0
340,108,63664,2,0,B|172:108,1,150.000003576279,8|0
80,64,64075,6,0,B|80:172|80:172|40:224,1,150.000003576279,6|0
28,346,64486,2,0,B|28:238|28:238|54:205,1,150.000003576279,10|0
176,216,64897,2,0,B|252:248|272:304|272:304|444:316,1,300.000007152558,2|8
508,216,65514,1,0
438,316,65719,5,6
438,316,65822,1,0
316,180,66027,1,2
316,180,66130,1,0
188,308,66336,1,2
188,308,66438,1,0
40,204,66644,1,2
40,204,66746,1,0
128,48,66952,1,2
128,48,67055,1,0
128,48,67157,1,0
244,20,67363,5,6
336,96,67568,1,0
428,20,67774,1,2
428,20,67877,1,0
428,20,67979,1,0
284,96,68185,1,6
252,96,68288,1,0
220,96,68390,1,0
192,96,68493,1,0
164,84,68596,1,6
132,84,68699,1,0
100,84,68801,1,0
68,84,68904,1,0
36,84,69007,6,0,B|-16:204|16:308,2,225.000005364418,6|0|0
144,32,69829,1,6
224,120,70034,1,0
428,76,70240,1,0
348,164,70445,1,0
428,252,70651,5,2
340,332,70856,1,0
240,268,71062,1,0
212,260,71164,1,0
184,252,71267,1,0
156,244,71370,1,0
128,248,71473,1,2
110,223,71575,1,0
94,199,71678,1,0
78,175,71781,1,0
52,164,71883,1,0
54,133,71986,1,0
57,104,72089,1,0
60,75,72192,1,0
64,44,72294,5,2
180,52,72500,1,0
288,128,72705,2,0,B|360:128,3,50
256,100,73116,2,0,B|256:16,3,50,2|0|0|0
224,128,73527,2,0,B|148:128,3,50
256,168,73938,6,0,B|256:372,1,200,0|4
256,192,74452,12,0,79486
