osu file format v9

[General]
AudioFilename: Kotoko - Unfinished.mp3
AudioLeadIn: 500
PreviewTime: 42000
Countdown: 0
SampleSet: Normal
StackLeniency: 0.7
Mode: 0
LetterboxInBreaks: 0

[Editor]
DistanceSpacing: 1
BeatDivisor: 4
GridSize: 4

[Metadata]
Title:unfinished (TV Size)
Artist:KOTOKO
Creator:Miya
Version:Hard
Source:Accel World
Tags:ending Yasora-chan Star Stream Kuroyukihime

[Difficulty]
HPDrainRate:5
CircleSize:4
OverallDifficulty:5
ApproachRate:7
SliderMultiplier:1.7
SliderTickRate:1

[Events]
//Background and Video events
Video,850,"a.avi"
0,0,"accel_world_01.jpg"
//Break Periods
//Storyboard Layer 0 (Background)
//Storyboard Layer 1 (Fail)
//Storyboard Layer 2 (Pass)
//Storyboard Layer 3 (Foreground)
//Storyboard Sound Samples
//Background Colour Transformations
3,100,163,162,255

[TimingPoints]
1610,410.958904109589,4,1,2,60,1,0
14555,-100,4,2,0,90,0,0
14760,-100,4,1,2,60,0,0
14966,-100,4,2,0,60,0,0
20514,-100,4,1,2,60,0,0
21438,-100,4,2,0,60,0,0
24623,-100,4,1,2,60,0,0
41267,-100,4,2,0,60,0,0
41986,-100,4,1,2,60,0,0
42294,-100,4,1,2,50,0,0
42705,-100,4,1,2,65,0,1
54212,-100,4,1,2,60,0,0
55856,-100,4,1,2,65,0,1
67363,-100,4,1,2,60,0,0
71062,-100,4,1,2,60,0,0
73938,-100,4,2,0,30,0,0
74041,-100,4,2,0,40,0,0
74144,-100,4,2,0,50,0,0
74246,-100,4,2,0,55,0,0
74349,-100,4,1,2,60,0,0
75582,-100,4,1,2,50,0,0
76815,-100,4,1,2,40,0,0
78048,-100,4,1,2,30,0,0
78870,-100,4,1,2,15,0,0
79486,-100,4,2,0,5,0,0

[Colours]
Combo1 : 128,128,255
Combo2 : 255,128,192
Combo3 : 0,64,128
Combo4 : 200,38,38

[HitObjects]
256,316,1610,2,0,B|256:140,1,170,4|8
256,60,2226,1,0
256,60,2329,1,0
256,60,2431,1,0
172,60,2637,1,0
96,96,2842,2,0,B|40:176|96:260,1,170,8|0
256,296,3664,5,8
320,356,3870,1,0
380,296,4075,1,0
464,296,4281,2,0,B|504:264|504:208,1,85,0|8
484,140,4692,1,0
484,140,4794,1,0
484,140,4897,6,0,B|448:56|352:48,1,170,4|8
268,48,5514,1,0
228,56,5616,1,0
200,88,5719,1,0
144,152,5925,1,0
200,216,6130,1,8
348,136,6541,6,0,B|400:216|348:296,1,170,0|8
284,352,7157,2,0,B|244:380|204:352,1,85,0|0
124,328,7568,2,0,B|68:304|68:248,1,85,0|8
52,184,7979,1,0
52,184,8185,1,4
164,56,8596,6,0,B|256:56|236:124|316:124,1,170,8|0
472,192,9418,1,8
500,272,9623,1,0
472,352,9829,1,4
324,272,10240,6,0,B|240:272|240:272|176:212,1,170,8|0
160,44,11062,1,8
76,52,11267,1,0
32,124,11473,5,4
112,280,11781,1,0
256,200,12089,1,0
400,280,12397,1,0
256,200,12705,5,0
256,88,12911,1,0
164,148,13116,2,0,B|68:148,2,85,4|0|0
164,232,13733,2,0,B|164:280,10,42.5,0|0|0|0|0|0|0|0|0|0|4
328,184,15171,6,0,B|508:184,1,170,0|2
480,268,15788,1,0
424,332,15993,2,0,B|240:332,1,170,0|2
72,192,17637,6,0,B|128:124|128:124|228:124,1,170,0|2
256,196,18253,1,0
302,124,18459,2,0,B|384:124|384:124|440:192,1,170,0|2
348,336,19281,1,0
176,336,19692,1,2
256,88,20514,5,0
212,188,20719,1,0
256,188,20822,1,0
300,188,20925,1,0
256,288,21130,2,0,B|256:380,1,85
112,280,21746,6,0,B|20:244|8:136,1,170,0|2
44,72,22363,1,0
128,72,22568,2,0,B|208:128|292:72,1,170,0|2
412,192,23390,1,0
412,192,23801,1,2
256,260,24212,6,0,B|256:344,2,85,0|0|4
204,192,24829,2,0,B|120:220|120:220|44:188,1,170
76,108,25445,1,0
140,52,25651,2,0,B|180:36|180:36|220:52,1,85
380,104,26267,5,0
380,104,26473,1,0
380,104,26678,1,0
440,164,26883,1,0
380,224,27089,1,0
336,224,27192,1,0
292,224,27294,1,0
248,224,27397,1,0
204,224,27500,2,0,B|144:224,4,42.5,0|0|0|0|4
144,64,28322,5,8
68,96,28527,2,0,B|28:128|24:184,1,85
24,252,28938,1,0
104,284,29144,1,8
256,212,29555,6,0,B|336:268|416:212,1,170,0|8
332,64,30377,1,0
256,100,30582,1,0
180,64,30788,2,0,B|100:100|76:200,1,170,8|4
224,280,31610,6,0,B|293:280|293:280|317:332|373:332,1,170,8|0
372,248,32226,1,0
456,252,32431,2,0,B|456:196|408:168|408:168|408:100,1,170,8|0
212,120,33253,6,0,B|116:120,2,85,8|0|0
212,204,33870,1,0
196,244,33973,1,0
212,284,34075,1,8
288,244,34281,2,0,B|332:244|364:212,1,85,0|4
408,140,34692,5,0
492,140,34897,1,8
348,52,35308,1,0
308,36,35411,1,0
268,52,35514,1,0
184,52,35719,2,0,B|112:104|96:200,1,170,8|4
176,344,36541,5,8
256,192,36952,1,0
300,192,37055,1,0
344,192,37157,1,0
416,240,37363,2,0,B|448:192|416:144|416:144|416:64,1,170,8|4
292,40,38082,5,0
128,40,38390,1,0
28,172,38699,1,0
116,312,39007,1,0
200,244,39212,1,0
288,312,39418,1,0
400,312,39623,2,0,B|440:292|452:244,1,85
452,164,40034,5,0
444,124,40137,1,0
416,92,40240,1,0
380,72,40342,1,0
340,60,40445,1,0
300,72,40548,1,0
264,96,40651,2,0,B|236:136,4,42.5
308,168,41267,5,0
268,244,41473,2,0,B|312:268|348:244,2,85
104,192,42294,2,0,B|44:192,4,42.5,0|0|0|0|4
256,112,43116,5,8
332,72,43322,1,0
404,112,43527,1,0
336,268,43938,1,8
256,304,44144,1,0
180,268,44349,1,0
36,356,44760,2,0,B|-12:272|44:196,1,170,8|0
172,92,45582,6,0,B|132:92|104:136,2,85,8|0|4
344,92,46404,2,0,B|384:92|412:136,2,85,8|0|4
256,236,47226,2,0,B|180:288|96:236,1,170,8|4
24,192,47842,6,0,B|56:148|100:148,1,85,0|8
160,96,48253,1,0
160,96,48356,1,0
160,96,48459,1,0
244,96,48664,1,0
244,96,48767,1,0
244,96,48870,1,8
328,76,49075,2,0,B|372:100|384:148,1,85,0|4
336,304,49692,5,8
260,340,49897,1,0
184,304,50103,1,0
56,192,50514,1,8
20,116,50719,1,0
56,40,50925,1,4
208,116,51336,5,8
280,156,51541,1,0
280,72,51746,1,0
444,116,52157,2,0,B|528:116,2,85,8|0|0
360,116,52774,5,0
360,116,52877,1,0
360,116,52979,1,8
400,192,53185,2,0,B|400:280,1,85
440,352,53596,2,0,B|404:384|360:352,1,85,0|8
300,296,54007,2,0,B|208:296,1,85,0|4
128,300,54418,5,0
128,300,54623,1,8
64,244,54829,1,0
128,188,55034,1,0
172,188,55137,1,0
216,188,55240,1,0
260,188,55342,1,0
304,188,55445,2,0,B|356:188,4,42.5,8|0|0|0|4
416,60,56267,6,0,B|460:60|460:60|496:84,2,85,8|0|0
244,60,57089,2,0,B|200:60|200:60|164:36,2,85,8|0|0
332,208,57911,1,8
332,208,58116,1,0
332,208,58322,1,0
184,288,58733,6,0,B|136:288|112:328,2,85,8|0|4
184,116,59555,2,0,B|136:116|112:76,2,85,8|0|4
332,208,60377,2,0,B|416:208|416:208|440:168|492:164,1,170,8|4
492,256,60993,5,0
432,316,61199,1,8
356,352,61404,1,0
356,352,61507,1,0
356,352,61609,1,0
280,316,61815,1,0
280,316,61918,1,0
280,316,62020,1,8
220,256,62226,2,0,B|220:168,1,85,0|4
116,36,62842,5,8
44,84,63048,1,0
32,168,63253,1,0
200,192,63664,1,8
256,256,63870,1,0
312,192,64075,1,4
396,36,64486,5,8
468,84,64692,1,0
480,168,64897,1,0
436,332,65308,2,0,B|384:332|364:288,1,85,8|0
304,232,65719,5,4
220,232,65925,2,0,B|172:232,1,42.5
52,260,66336,2,0,B|0:292,1,42.5
52,204,66644,2,0,B|12:184,1,42.5
92,156,66952,2,0,B|92:64,2,85,8|0|4
168,192,67568,5,0
168,192,67774,1,8
220,260,67979,1,0
268,192,68185,1,0
312,192,68288,1,0
356,192,68390,1,0
400,192,68493,1,0
444,192,68596,2,0,B|496:192,4,42.5,8|0|0|0|4
256,364,69623,5,0
256,364,69829,1,0
176,336,70034,1,0
176,336,70137,1,0
176,336,70240,1,8
116,276,70445,2,0,B|76:296|32:276,1,85
76,204,70856,5,8
76,120,71062,1,8
232,52,71473,1,0
232,52,71678,1,0
288,116,71883,1,8
288,116,72089,1,0
344,52,72294,2,0,B|420:100|436:192,1,170,0|8
328,324,73116,5,0
256,372,73322,1,0
184,324,73527,1,0
80,192,73938,2,0,B|44:192,8,21.25,0|0|0|0|0|0|0|0|4
256,192,74452,12,0,79486
