osu file format v11

[General]
AudioFilename: unfinished.mp3
AudioLeadIn: 1500
PreviewTime: 41537
Countdown: 0
SampleSet: Normal
StackLeniency: 0.7
Mode: 0
LetterboxInBreaks: 0

[Editor]
DistanceSpacing: 1.1
BeatDivisor: 4
GridSize: 4

[Metadata]
Title:unfinished (TV Size)
TitleUnicode:→unfinished→ (TV Size)
Artist:KOTOKO
ArtistUnicode:KOTOKO
Creator:-kevincela-
Version:Normal
Source:Accel World
Tags:Sunrise opening
BeatmapID:196685
BeatmapSetID:63564

[Difficulty]
HPDrainRate:4
CircleSize:3
OverallDifficulty:4
ApproachRate:5
SliderMultiplier:1.4
SliderTickRate:2

[Events]
//Background and Video events
Video,-500,"video.avi"
0,0,"bg.jpg"
//Break Periods
//Storyboard Layer 0 (Background)
//Storyboard Layer 1 (Fail)
//Storyboard Layer 2 (Pass)
//Storyboard Layer 3 (Foreground)
//Storyboard Sound Samples
//Background Colour Transformations
3,100,163,162,255

[TimingPoints]
853,410.958904109589,4,1,1,70,1,0
11024,-100,4,1,2,70,0,0
11229,-100,4,1,1,70,0,0
14003,-100,4,2,0,60,0,0
19757,-100,4,1,1,60,0,0
20168,-100,4,1,0,60,0,0
20579,-100,4,2,0,60,0,0
22017,-100,4,1,0,60,0,0
22428,-100,4,2,0,60,0,0
23661,-100,4,1,0,60,0,0
27154,-100,4,1,1,70,0,0
40305,-100,4,2,0,70,0,0
41948,-100,4,1,1,80,0,1
54688,-100,4,1,1,80,0,0
55099,-100,4,1,1,80,0,1
66914,-100,4,1,2,80,0,1
67120,-100,4,1,1,80,0,1
68455,-100,4,2,0,80,0,1
68866,-100,4,1,1,80,0,1
69894,-100,4,1,1,80,0,0

[Colours]
Combo1 : 204,0,5
Combo2 : 255,128,64
Combo3 : 128,128,255
Combo4 : 255,128,192
Combo5 : 155,0,155

[HitObjects]
136,144,853,2,0,P|136:96|168:44,2,105,6|8|0,0:0|0:0|0:0,0:0:0
156,220,1674,1,2,0:0:0
256,336,2085,1,8,0:0:0
356,219,2496,2,0,P|396:181|482:199,1,140,2|8,0:0|0:0,0:0:0
428,256,3113,1,0,0:0:0
500,292,3318,2,0,P|459:330|373:312,1,140,2|8,0:0|0:0,0:0:0
244,248,4140,6,0,P|192:232|144:256,2,105,6|8|0,0:0|0:0|0:0,0:0:0
200,312,4962,1,2,0:0:0
352,340,5373,1,8,0:0:0
356,188,5784,6,0,P|364:132|404:100,2,105,2|8|0,0:0|0:0|0:0,0:0:0
432,172,6606,2,0,P|424:228|384:260,2,105,2|2|2,0:0|0:0|0:0,0:0:0
400,101,7428,5,6,0:0:0
256,44,7839,1,8,0:0:0
112,101,8250,2,0,P|80:64|20:53,2,105,2|8|0,0:0|0:0|0:0,0:0:0
140,172,9072,6,0,P|120:328,1,140,6|8,0:0|0:0,0:0:0
260,376,9894,2,0,P|312:368|344:328,2,105,2|8|0,0:0|0:0|0:0,0:0:0
272,300,10716,6,0,P|292:248|360:252|360:252|428:256|444:200,1,210,6|0,0:0|0:0,0:0:0
459,129,11537,2,0,P|400:140|372:172,2,105
442,206,12359,5,6,0:0:0
476,356,12770,1,8,0:0:0
332,300,13181,2,0,P|276:264|256:192,1,140,2|0,0:0|0:0,0:0:0
352,68,14003,6,0,P|256:32|160:68,2,210,4|0|0,0:0|0:0|0:0,0:0:0
452,184,15647,1,2,0:0:0
88,308,16674,6,0,P|64:224,1,70
108,92,17291,6,0,P|68:76|28:84,2,70,2|0|0,0:0|0:0|0:0,0:0:0
172,136,17907,2,0,P|232:164|296:128,1,140,2|0,0:0|0:0,0:0:0
232,84,18524,1,2,0:0:0
348,188,18935,6,0,P|232:240|104:176,1,280,2|2,0:0|0:0,0:0:0
92,20,20168,2,0,P|52:24|24:40,2,70
232,84,20989,5,0,0:0:0
300,124,21195,2,0,P|360:156|424:120,1,140
360,76,21811,2,0,P|336:8,2,70
480,208,22839,6,0,P|448:356,1,140
296,356,23661,1,0,0:0:0
252,292,23866,6,0,P|281:155,1,140,4|0,0:0|0:0,0:0:0
252,84,24483,2,0,P|301:79|348:116,2,105
180,116,25305,2,0,P|112:132|44:96,1,140
12,36,25921,1,0,0:0:0
12,192,26332,6,0,P|28:336,1,140
92,376,26948,2,0,P|120:380|160:364,1,70,0|6,0:0|0:0,0:0:0
256,244,27565,5,8,0:0:0
356,360,27976,1,2,0:0:0
388,208,28387,1,8,0:0:0
320,156,28592,2,0,P|256:132|192:156,1,140
124,208,29209,1,8,0:0:0
256,288,29620,1,2,0:0:0
388,208,30031,2,0,P|404:180|400:132,1,70,8|2,0:0|0:0,0:0:0
328,160,30442,6,0,P|312:228|356:280,1,140,6|8,0:0|0:0,0:0:0
504,312,31263,2,0,P|520:244|476:192,1,140,2|8,0:0|0:0,0:0:0
328,160,32085,2,0,P|280:184|224:168,2,105,2|8|2,0:0|0:0|0:0,0:0:0
272,104,32907,1,2,0:0:0
416,52,33318,1,8,0:0:0
468,196,33729,5,6,0:0:0
320,244,34140,2,0,P|272:260|216:240,2,105,8|2|2,0:0|0:0|0:0,0:0:0
272,180,34962,1,8,0:0:0
424,200,35373,5,6,0:0:0
360,60,35784,2,0,P|404:28|456:24,2,105,8|2|2,0:0|0:0|0:0,0:0:0
356,140,36606,1,8,0:0:0
304,284,37017,6,0,P|276:308|236:308|208:284,3,105,6|2|6|2,0:0|0:0|0:0|0:0,0:0:0
224,168,38250,2,0,P|256:156|288:168,1,70,8|0,0:0|0:0,0:0:0
416,256,38866,6,0,P|468:216|468:140,1,140,6|0,0:0|0:0,0:0:0
408,92,39483,2,0,P|440:68|504:72,2,105,2|8|0,0:0|0:0|0:0,0:0:0
396,176,40305,1,0,0:0:0
256,192,40407,12,0,41537,0:0:0
77,123,41948,6,0,P|109:71|193:59,1,140,6|8,0:0|0:0,0:0:0
257,79,42565,1,0,0:0:0
329,55,42770,2,0,P|403:71|435:123,1,140,2|8,0:0|0:0,0:0:0
408,276,43592,5,2,0:0:0
256,304,44003,2,0,P|256:376,2,70,8|0|2,0:0|0:0|0:0,0:0:0
104,276,44825,1,8,0:0:0
96,124,45236,6,0,P|168:116|208:164,1,140,6|8,0:0|0:0,0:0:0
256,224,45852,1,0,0:0:0
304,164,46058,2,0,P|344:116|416:124,1,140,2|8,0:0|0:0,0:0:0
438,276,46880,6,0,P|398:324|326:320,1,140,2|8,0:0|0:0,0:0:0
365,253,47496,1,0,0:0:0
421,200,47702,2,0,P|472:204|512:248,2,105,2|2|2,0:0|0:0|0:0,0:0:0
364,252,48524,6,0,P|344:192|384:132,1,140,6|8,0:0|0:0,0:0:0
438,276,49346,2,0,P|398:324|326:320,1,140,2|8,0:0|0:0,0:0:0
256,284,49962,1,2,0:0:0
186,320,50168,2,0,P|114:324|74:276,1,140,6|8,0:0|0:0,0:0:0
128,132,50989,2,0,P|168:192|148:252,1,140,2|8,0:0|0:0,0:0:0
88,200,51606,1,2,0:0:0
128,132,51811,6,0,P|164:116|232:124,2,105,6|8|2,0:0|0:0|0:0,0:0:0
88,200,52633,1,2,0:0:0
196,308,53044,1,8,0:0:0
324,224,53455,1,2,0:0:0
256,192,53558,12,8,54688,0:0:0
276,276,55099,6,0,P|334:241|341:174,1,140,6|8,0:0|0:0,0:0:0
308,104,55716,1,0,0:0:0
232,108,55921,2,0,P|173:142|166:209,1,140,2|8,0:0|0:0,0:0:0
224,352,56743,5,2,0:0:0
376,344,57154,2,0,P|412:360|456:356,2,70,8|0|2,0:0|0:0|0:0,0:0:0
284,220,57976,1,8,0:0:0
420,148,58387,6,0,P|400:108|312:76,1,140,6|8,0:0|0:0,0:0:0
256,128,59003,1,0,0:0:0
196,75,59209,2,0,P|112:108|92:148,1,140,6|12,0:0|0:0,0:0:0
124,300,60031,5,6,0:0:0
256,220,60442,1,8,0:0:0
388,300,60852,2,0,P|428:336|480:336,2,105,2|2|2,0:0|0:0|0:0,0:0:0
456,264,61674,6,0,P|444:116,1,140,2|8,0:0|0:0,0:0:0
312,44,62496,2,0,P|324:192,1,140,2|8,0:0|0:0,0:0:0
292,256,63113,1,2,0:0:0
236,308,63318,6,0,P|304:332|358:296,1,140,6|8,0:0|0:0,0:0:0
340,144,64140,2,0,P|272:120|218:156,1,140,2|8,0:0|0:0,0:0:0
284,196,64757,1,2,0:0:0
340,144,64962,6,0,P|352:96|340:36,2,105,6|8|2,0:0|0:0|0:0,0:0:0
284,196,65784,2,0,P|352:220|406:184,1,140,2|8,0:0|0:0,0:0:0
372,36,66606,6,0,P|344:4|280:12|256:64|256:64|232:12|168:4|140:36,1,280,2|2,0:0|0:0,0:0:0
108,188,67839,1,8,0:0:0
208,308,68250,6,0,P|256:328|304:308,2,105
256,248,69072,2,0,P|256:136,2,105,2|8|2,0:0|0:0|0:0,0:0:0
301,310,69894,5,2,0:0:0
256,192,69996,12,4,73592,0:0:0
