osu file format v11

[General]
AudioFilename: unfinished.mp3
AudioLeadIn: 1500
PreviewTime: 41537
Countdown: 0
SampleSet: Soft
StackLeniency: 0.7
Mode: 0
LetterboxInBreaks: 0

[Editor]
DistanceSpacing: 1
BeatDivisor: 4
GridSize: 4

[Metadata]
Title:unfinished (TV Size)
TitleUnicode:→unfinished→ (TV Size)
Artist:KOTOKO
ArtistUnicode:KOTOKO
Creator:-kevincela-
Version:Insane
Source:Accel World
Tags:Sunrise opening
BeatmapID:187730
BeatmapSetID:63564

[Difficulty]
HPDrainRate:7
CircleSize:4
OverallDifficulty:7
ApproachRate:8
SliderMultiplier:1.9
SliderTickRate:2

[Events]
//Background and Video events
Video,-500,"video.avi"
0,0,"bg.jpg"
//Break Periods
//Storyboard Layer 0 (Background)
//Storyboard Layer 1 (Fail)
//Storyboard Layer 2 (Pass)
//Storyboard Layer 3 (Foreground)
//Storyboard Sound Samples
//Background Colour Transformations
3,100,163,162,255

[TimingPoints]
853,410.958904109589,4,1,1,70,1,0
10202,-100,4,1,2,70,0,0
10407,-100,4,1,1,70,0,0
14003,-100,4,2,0,60,0,0
15442,-133.333333333333,4,2,0,60,0,0
16058,-100,4,2,0,60,0,0
19757,-100,4,1,0,60,0,0
20579,-100,4,2,0,60,0,0
22017,-100,4,1,0,60,0,0
22428,-100,4,2,0,60,0,0
23661,-100,4,1,0,60,0,0
27154,-100,4,1,1,70,0,0
40305,-100,4,2,0,40,0,0
41948,-100,4,1,1,80,0,1
54688,-100,4,1,1,80,0,0
55099,-100,4,1,1,80,0,1
68455,-100,4,2,0,80,0,1
68866,-100,4,1,1,80,0,1
69894,-100,4,1,1,80,0,0

[Colours]
Combo1 : 204,0,5
Combo2 : 255,128,64
Combo3 : 128,128,255
Combo4 : 255,128,192
Combo5 : 155,0,155

[HitObjects]
256,80,647,1,0,0:0:0
320,164,853,2,0,B|288:200|224:200|192:164,1,142.5,6|0,0:0|0:0,0:0:0
144,108,1263,2,0,B|92:116|72:164,1,95,8|0,0:0|0:0,0:0:0
76,260,1674,1,2,0:0:0
76,260,1777,1,0,0:0:0
204,200,1983,1,0,0:0:0
204,200,2085,1,8,0:0:0
276,328,2291,1,0,0:0:0
352,372,2496,6,0,B|372:344|372:312|352:284,1,95,2|0,0:0|0:0,0:0:0
304,104,2907,2,0,B|284:132|284:164|304:192,1,95,8|0,0:0|0:0,0:0:0
396,148,3318,1,2,0:0:0
396,148,3421,1,0,0:0:0
396,148,3524,1,0,0:0:0
372,48,3729,2,0,B|351:20|321:10|288:20,1,95,8|0,0:0|0:0,0:0:0
208,88,4140,6,0,B|216:140|164:184|104:168,1,142.5,6|0,0:0|0:0,0:0:0
44,128,4551,2,0,B|24:176|48:220,1,95,8|0,0:0|0:0,0:0:0
160,252,4962,1,2,0:0:0
160,252,5065,1,0,0:0:0
44,128,5270,1,0,0:0:0
44,128,5373,1,8,0:0:0
208,88,5579,1,0,0:0:0
296,140,5784,6,0,B|332:160|364:144|364:144|396:128|432:148,1,142.5,2|0,0:0|0:0,0:0:0
488,208,6195,2,0,B|512:252|488:300,1,95,8|0,0:0|0:0,0:0:0
400,356,6606,1,2,0:0:0
400,356,6709,1,0,0:0:0
288,248,6914,1,0,0:0:0
288,248,7017,1,8,0:0:0
136,264,7222,1,0,0:0:0
80,176,7428,6,0,B|84:60,1,95,6|0,0:0|0:0,0:0:0
136,264,7839,2,0,B|132:380,1,95,8|0,0:0|0:0,0:0:0
188,172,8250,2,0,B|224:140|292:152|312:196,1,142.5,2|0,0:0|0:0,0:0:0
320,280,8661,2,0,B|288:285|255:271|241:240,1,95,8|0,0:0|0:0,0:0:0
384,196,9072,5,6,0:0:0
468,340,9277,1,0,0:0:0
320,280,9483,1,8,0:0:0
476,240,9688,1,0,0:0:0
376,360,9894,2,0,B|332:392|276:388|240:340,2,142.5,2|0|0,0:0|0:0|0:0,0:0:0
320,280,10716,5,6,0:0:0
228,224,10921,2,0,B|204:232|192:260,1,47.5
312,172,11229,2,0,B|304:148|276:136,1,47.5
320,280,11537,1,2,0:0:0
320,280,11640,2,0,B|376:280|400:236,1,95
412,204,11948,2,0,B|456:292,1,95,8|0,0:0|0:0,0:0:0
312,172,12359,6,0,B|256:172|232:216,1,95,6|0,0:0|0:0,0:0:0
156,288,12770,2,0,B|100:288|76:245,1,95,8|0,0:0|0:0,0:0:0
56,144,13181,1,2,0:0:0
60,116,13284,1,0,0:0:0
72,88,13387,1,0,0:0:0
92,68,13489,1,0,0:0:0
116,56,13592,1,8,0:0:0
144,52,13695,1,0,0:0:0
172,60,13798,1,0,0:0:0
196,72,13900,1,0,0:0:0
216,96,14003,6,0,B|244:140|304:132,1,95,4|0,0:0|0:0,0:0:0
376,100,14414,1,0,0:0:0
448,144,14620,2,0,B|432:184|372:208|312:184|296:128,1,190,2|0,0:0|0:0,0:0:0
308,48,15236,1,0,0:0:0
376,100,15442,2,0,B|368:176|368:176|384:240|384:240|376:316,1,213.750008153916,2|0,0:0|0:0,0:0:0
132,268,16469,5,0,0:0:0
80,336,16674,1,0,0:0:0
164,348,16880,1,2,0:0:0
216,280,17085,2,0,B|228:232|204:180|136:164|96:192,1,190
132,268,17702,1,2,0:0:0
216,280,17907,2,0,B|412:280,1,190
456,352,18524,1,2,0:0:0
372,356,18729,2,0,B|328:336|304:280|328:224|372:204,1,190
412,280,19346,1,2,0:0:0
196,152,19757,5,0,0:0:0
136,88,19962,1,0,0:0:0
136,88,20065,1,0,0:0:0
136,88,20168,2,0,B|96:60|40:72,1,95,0|0,0:0|0:0,0:0:0
224,56,20579,6,0,B|264:84|320:72,1,95,4|0,0:0|0:0,0:0:0
392,36,20989,1,0,0:0:0
436,112,21195,2,0,B|420:216,1,95,2|0,0:0|0:0,0:0:0
320,268,21606,2,0,B|336:164,1,95
380,320,22017,5,0,0:0:0
380,320,22222,2,0,B|348:360|284:360|256:316,2,142.5
448,128,23250,5,0,0:0:0
376,172,23455,1,0,0:0:0
452,212,23661,1,0,0:0:0
448,128,23866,6,0,B|420:84|360:76|324:108,1,142.5
308,128,24277,1,0,0:0:0
120,196,24483,6,0,B|148:240|208:248|244:216,1,142.5
260,196,24894,1,0,0:0:0
308,128,25099,1,0,0:0:0
348,204,25304,5,0,0:0:0
348,204,25407,1,0,0:0:0
348,204,25510,2,0,B|364:312,1,95
224,120,25921,2,0,B|208:12,1,95
260,196,26332,5,0,0:0:0
392,132,26537,1,0,0:0:0
300,272,26743,1,0,0:0:0
308,128,26948,1,0,0:0:0
348,204,27154,6,0,B|388:228|432:208|432:208|468:248|468:304,1,190,6|8,0:0|0:0,0:0:0
392,132,27770,1,0,0:0:0
300,116,27976,2,0,B|252:96|208:124,1,95,2|0,0:0|0:0,0:0:0
152,200,28387,1,8,0:0:0
200,280,28592,6,0,B|252:256|264:200|252:152|208:124,1,190
96,124,29209,2,0,B|52:151|40:199|52:255|104:279,1,190,8|2,0:0|0:0,0:0:0
152,200,29825,1,0,0:0:0
248,328,30031,1,8,0:0:0
308,180,30236,1,0,0:0:0
200,184,30442,6,0,B|144:188|120:236,1,95,6|0,0:0|0:0,0:0:0
208,376,30853,2,0,B|264:372|288:324,1,95,8|0,0:0|0:0,0:0:0
200,280,31263,1,2,0:0:0
120,332,31469,1,0,0:0:0
208,376,31674,1,8,0:0:0
286,328,31880,1,0,0:0:0
116,240,32085,6,0,B|72:208,1,47.5,2|0,0:0|0:0,0:0:0
192,180,32394,2,0,B|188:128,1,47.5,0|8,0:0|0:0,0:0:0
280,224,32702,1,0,0:0:0
280,224,32805,1,0,0:0:0
280,224,32907,2,0,B|328:240|372:220,1,95,2|0,0:0|0:0,0:0:0
440,140,33318,1,8,0:0:0
468,240,33524,1,0,0:0:0
368,60,33729,6,0,B|328:87|324:139,1,95,6|0,0:0|0:0,0:0:0
348,288,34140,2,0,B|332:242|283:225,1,95,8|0,0:0|0:0,0:0:0
260,224,34448,2,0,B|240:268|180:292|124:256,1,142.5,2|2,0:0|0:0,0:0:0
80,188,34962,1,8,0:0:0
180,180,35168,1,0,0:0:0
138,264,35373,6,0,B|114:308|122:356,1,95,6|0,0:0|0:0,0:0:0
180,180,35784,1,8,0:0:0
260,128,35989,1,2,0:0:0
260,128,36092,2,0,B|232:88|172:76|128:104,1,142.5,2|2,0:0|0:0,0:0:0
264,220,36606,2,0,B|320:220|344:176,1,95,8|0,0:0|0:0,0:0:0
328,20,37017,5,6,0:0:0
416,112,37222,1,0,0:0:0
260,128,37428,1,8,0:0:0
424,20,37633,1,0,0:0:0
424,20,37736,2,0,B|476:28|496:80,1,95,2|0,0:0|0:0,0:0:0
492,164,38044,2,0,B|462:207|406:203,1,95,2|8,0:0|0:0,0:0:0
416,112,38455,1,0,0:0:0
492,164,38661,5,6,0:0:0
340,56,38866,1,0,0:0:0
412,204,39072,1,8,0:0:0
424,20,39277,1,0,0:0:0
328,144,39483,1,2,0:0:0
308,152,39585,1,0,0:0:0
284,160,39688,1,0,0:0:0
264,168,39791,1,0,0:0:0
240,176,39894,1,8,0:0:0
216,184,39996,1,0,0:0:0
192,192,40099,1,0,0:0:0
168,200,40202,1,0,0:0:0
144,204,40305,6,0,B|128:308,1,95,2|0,0:0|0:0,0:0:0
208,368,40716,1,8,0:0:0
300,284,40921,1,2,0:0:0
300,284,41024,1,0,0:0:0
416,352,41229,1,2,0:0:0
416,352,41332,1,0,0:0:0
432,192,41537,1,8,0:0:0
308,60,41743,1,0,0:0:0
240,120,41948,6,0,B|268:164|336:164|368:128,1,142.5,6|0,0:0|0:0,0:0:0
440,96,42359,2,0,B|492:100|512:148,1,95,8|0,0:0|0:0,0:0:0
488,264,42770,1,2,0:0:0
488,264,42873,1,0,0:0:0
488,264,42976,1,0,0:0:0
388,352,43181,1,8,0:0:0
336,224,43387,1,0,0:0:0
372,136,43592,6,0,B|420:152|428:208,1,95,2|0,0:0|0:0,0:0:0
336,224,44003,1,8,0:0:0
280,144,44209,1,0,0:0:0
320,60,44414,2,0,B|362:30|411:52,1,95,2|0,0:0|0:0,0:0:0
336,224,44825,2,0,B|293:253|244:231,1,95,8|0,0:0|0:0,0:0:0
164,184,45236,6,0,B|116:164|60:196|56:248,1,142.5,6|0,0:0|0:0,0:0:0
76,324,45647,2,0,B|128:312|136:256,1,95,8|0,0:0|0:0,0:0:0
120,80,46058,1,2,0:0:0
120,80,46161,1,0,0:0:0
164,184,46366,1,0,0:0:0
164,184,46469,1,8,0:0:0
280,144,46674,1,0,0:0:0
228,36,46880,5,2,0:0:0
164,184,47085,1,0,0:0:0
280,144,47291,1,8,0:0:0
120,80,47496,1,0,0:0:0
248,236,47702,5,2,0:0:0
200,108,47907,1,0,0:0:0
200,108,48010,1,2,0:0:0
200,108,48113,1,0,0:0:0
68,160,48318,1,2,0:0:0
68,160,48524,6,0,B|48:312,1,142.5,6|0,0:0|0:0,0:0:0
80,380,48935,2,0,B|120:344|168:352,1,95,8|0,0:0|0:0,0:0:0
260,368,49346,1,2,0:0:0
260,368,49448,1,0,0:0:0
392,280,49654,1,0,0:0:0
392,280,49757,1,8,0:0:0
256,208,49962,1,0,0:0:0
376,364,50168,6,0,B|428:376|476:336|476:280,1,142.5,6|0,0:0|0:0,0:0:0
448,212,50579,2,0,B|396:228|392:280,1,95,8|0,0:0|0:0,0:0:0
448,212,50989,2,0,B|440:112,1,95,2|0,0:0|0:0,0:0:0
296,40,51400,2,0,B|304:140,1,95,8|0,0:0|0:0,0:0:0
280,252,51811,5,6,0:0:0
176,312,52017,1,0,0:0:0
176,312,52120,2,0,B|144:340|80:340|52:288,1,142.5,2|2,0:0|0:0,0:0:0
71,95,52633,5,2,0:0:0
124,240,52838,1,0,0:0:0
166,92,53044,1,8,0:0:0
45,186,53249,1,0,0:0:0
198,181,53455,6,0,B|248:164|260:112,1,95,6|0,0:0|0:0,0:0:0
166,92,53866,1,8,0:0:0
124,240,54072,1,0,0:0:0
124,240,54174,1,0,0:0:0
72,96,54380,1,0,0:0:0
72,96,54483,1,0,0:0:0
45,186,54688,2,0,B|16:196,8,23.75,8|0|0|0|0|0|0|0|6,0:0|0:0|0:0|0:0|0:0|0:0|0:0|0:0|0:0,0:0:0
232,216,55510,6,0,B|288:224|312:268,1,95,8|0,0:0|0:0,0:0:0
344,360,55921,1,2,0:0:0
344,360,56024,1,0,0:0:0
344,360,56126,1,0,0:0:0
496,324,56332,1,8,0:0:0
392,208,56537,1,0,0:0:0
304,164,56743,6,0,B|252:168|232:216,1,95,2|0,0:0|0:0,0:0:0
244,312,57154,1,8,0:0:0
320,256,57359,1,0,0:0:0
304,164,57565,2,0,B|280:120|228:104,1,95,2|0,0:0|0:0,0:0:0
392,196,57976,2,0,B|436:172|452:120,1,95,8|0,0:0|0:0,0:0:0
320,256,58387,6,0,B|320:304|368:344|424:324,1,142.5,6|0,0:0|0:0,0:0:0
496,296,58798,2,0,B|504:192,1,95,8|0,0:0|0:0,0:0:0
512,92,59209,1,2,0:0:0
512,92,59311,1,0,0:0:0
392,196,59517,1,0,0:0:0
392,196,59620,1,8,0:0:0
360,48,59825,1,0,0:0:0
424,112,60031,5,2,0:0:0
428,284,60236,1,0,0:0:0
324,136,60442,1,8,0:0:0
484,192,60647,1,0,0:0:0
316,244,60852,1,2,0:0:0
392,196,61058,5,0,0:0:0
392,196,61161,1,0,0:0:0
392,196,61263,1,8,0:0:0
360,48,61469,1,0,0:0:0
236,132,61674,6,0,B|232:184|180:216|128:200,1,142.5,6|0,0:0|0:0,0:0:0
52,168,62085,2,0,B|60:264,1,95,8|0,0:0|0:0,0:0:0
72,364,62496,1,2,0:0:0
72,364,62599,1,0,0:0:0
184,288,62805,1,0,0:0:0
184,288,62907,2,0,B|236:284|276:320,1,95,8|0,0:0|0:0,0:0:0
344,368,63318,6,0,B|404:376|440:336|440:288,1,142.5,6|0,0:0|0:0,0:0:0
412,216,63729,2,0,B|364:236|364:292,1,95,8|0,0:0|0:0,0:0:0
496,228,64140,1,2,0:0:0
368,136,64346,1,0,0:0:0
368,136,64448,1,0,0:0:0
368,136,64551,1,8,0:0:0
364,292,64757,1,0,0:0:0
456,140,64962,6,0,B|460:84|412:56,1,95,6|0,0:0|0:0,0:0:0
332,56,65270,2,0,B|284:72|264:128|288:176,1,142.5,2|2,0:0|0:0,0:0:0
388,276,65784,1,6,0:0:0
368,136,65989,1,0,0:0:0
304,260,66195,1,12,0:0:0
436,200,66400,1,0,0:0:0
288,173,66606,6,0,B|236:180|220:236,1,95,6|0,0:0|0:0,0:0:0
304,260,67017,1,8,0:0:0
368,136,67222,1,0,0:0:0
368,136,67325,1,0,0:0:0
388,276,67531,1,0,0:0:0
388,276,67633,1,0,0:0:0
436,200,67839,2,0,B|480:200,8,23.75,8|0|0|0|0|0|0|0|2,0:0|0:0|0:0|0:0|0:0|0:0|0:0|0:0|0:0,0:0:0
368,136,68455,5,0,0:0:0
368,136,68558,2,0,B|360:80|424:44|480:80,1,142.5
436,200,69072,5,2,0:0:0
336,308,69277,1,0,0:0:0
336,308,69380,1,0,0:0:0
336,308,69483,1,8,0:0:0
284,176,69688,1,0,0:0:0
352,224,69894,5,2,0:0:0
256,192,69996,12,4,73592,0:0:0
