osu file format v11

[General]
AudioFilename: unfinished.mp3
AudioLeadIn: 1500
PreviewTime: 41537
Countdown: 0
SampleSet: Normal
StackLeniency: 0.7
Mode: 0
LetterboxInBreaks: 0

[Editor]
DistanceSpacing: 0.9
BeatDivisor: 4
GridSize: 4

[Metadata]
Title:unfinished (TV Size)
TitleUnicode:→unfinished→ (TV Size)
Artist:KOTOKO
ArtistUnicode:KOTOKO
Creator:-kevincela-
Version:Easy
Source:Accel World
Tags:Sunrise opening
BeatmapID:206655
BeatmapSetID:63564

[Difficulty]
HPDrainRate:2
CircleSize:3
OverallDifficulty:2
ApproachRate:3
SliderMultiplier:1.1
SliderTickRate:2

[Events]
//Background and Video events
Video,-500,"video.avi"
0,0,"bg.jpg"
//Break Periods
//Storyboard Layer 0 (Background)
//Storyboard Layer 1 (Fail)
//Storyboard Layer 2 (Pass)
//Storyboard Layer 3 (Foreground)
//Storyboard Sound Samples
//Background Colour Transformations
3,100,163,162,255

[TimingPoints]
853,410.958904109589,4,1,1,70,1,0
1161,-100,4,1,2,70,0,0
1366,-100,4,1,1,70,0,0
2805,-100,4,1,2,70,0,0
3010,-100,4,1,1,70,0,0
4448,-100,4,1,2,70,0,0
4654,-100,4,1,1,70,0,0
6914,-100,4,1,2,70,0,0
7120,-100,4,1,1,70,0,0
8558,-100,4,1,2,70,0,0
8763,-100,4,1,1,70,0,0
11024,-100,4,1,2,70,0,0
11229,-100,4,1,1,70,0,0
14003,-100,4,2,0,60,0,0
19757,-100,4,1,1,60,0,0
20168,-100,4,1,0,60,0,0
20579,-100,4,2,0,60,0,0
21195,-100,4,2,0,30,0,0
22017,-100,4,1,0,60,0,0
22428,-100,4,2,0,60,0,0
23661,-100,4,1,0,60,0,0
27154,-100,4,1,1,70,0,0
28284,-100,4,1,2,70,0,0
28489,-100,4,1,1,70,0,0
34037,-100,4,1,2,70,0,0
34243,-100,4,1,1,70,0,0
35681,-100,4,1,2,70,0,0
35887,-100,4,1,1,70,0,0
39791,-100,4,1,2,70,0,0
39996,-100,4,1,1,70,0,0
40305,-100,4,2,0,70,0,0
41948,-100,4,1,1,80,0,1
42257,-100,4,1,2,80,0,1
42462,-100,4,1,1,80,0,1
43900,-100,4,1,2,80,0,1
44106,-100,4,1,1,80,0,1
48832,-100,4,1,2,80,0,1
49037,-100,4,1,1,80,0,1
50476,-100,4,1,2,80,0,1
50681,-100,4,1,1,80,0,1
53763,-100,4,1,2,80,0,1
53969,-100,4,1,1,80,0,1
54688,-100,4,1,1,80,0,0
55099,-100,4,1,1,80,0,1
63626,-100,4,1,2,80,0,1
63832,-100,4,1,1,80,0,1
66914,-100,4,1,2,80,0,1
67120,-100,4,1,1,80,0,1
68455,-100,4,2,0,80,0,1
68866,-100,4,1,1,80,0,1
69894,-100,4,1,1,80,0,0

[Colours]
Combo1 : 204,0,5
Combo2 : 255,128,64
Combo3 : 128,128,255
Combo4 : 255,128,192
Combo5 : 155,0,155

[HitObjects]
324,136,853,2,0,P|256:96|188:136,2,165,6|0|8,0:0|0:0|0:0,0:0:0
344,232,2496,2,0,P|256:288|168:232,1,220,2|2,0:0|0:0,0:0:0
256,184,3729,1,8,0:0:0
340,132,4140,6,0,P|408:152|444:240,2,165,2|0|8,0:0|0:0|0:0,0:0:0
256,184,5784,1,2,0:0:0
172,132,6195,1,8,0:0:0
100,200,6606,2,0,P|100:264|188:300,1,165,2|0,0:0|0:0,0:0:0
228,280,7428,6,0,P|280:264|336:280,1,110,2|12,0:0|0:0,0:0:0
400,352,8250,2,0,P|432:296|400:204,2,165,2|0|8,0:0|0:0|0:0,0:0:0
308,312,9894,2,0,P|256:296|204:312,1,110,2|8,0:0|0:0,0:0:0
112,352,10716,6,0,P|80:296|112:204,1,165,6|0,0:0|0:0,0:0:0
132,168,11537,2,0,P|180:180|236:152,1,110,2|8,0:0|0:0,0:0:0
276,64,12359,6,0,P|228:52|172:80,2,110,4|8|2,0:0|0:0|0:0,0:0:0
344,136,13592,1,0,0:0:0
348,236,14003,6,0,P|420:208|444:128,2,165,4|0|0,0:0|0:0|0:0,0:0:0
256,196,15647,1,2,0:0:0
256,196,16880,5,0,0:0:0
164,236,17291,2,0,P|92:208|67:129,2,165,2|0|2,0:0|0:0|0:0,0:0:0
168,136,18935,2,0,P|256:80|344:136,1,220,2|2,0:0|0:0,0:0:0
284,216,20168,2,0,P|256:224|228:216,2,55
204,340,21195,6,0,P|256:356|308:340,2,110,2|2|0,3:0|3:0|0:0,0:0:0
164,312,22222,2,0,P|118:288|118:288|90:315|33:317|8:272,1,165
56,140,23455,1,0,0:0:0
64,40,23866,6,0,P|112:56|156:156,2,165
56,140,25510,2,0,P|28:152|8:172,2,55
157,155,26332,5,0,0:0:0
256,172,26743,1,0,0:0:0
355,155,27154,6,0,P|340:112|280:72,1,110,2|8,0:0|0:0,0:0:0
256,172,27976,2,0,P|288:236|376:256,2,165,2|0|8,0:0|0:0|0:0,0:0:0
284,76,29620,1,2,0:0:0
380,108,30031,2,0,P|412:116|452:116,1,55,8|2,0:0|0:0,0:0:0
476,92,30442,6,0,P|460:144|464:200,1,110,6|8,0:0|0:0,0:0:0
496,292,31263,1,2,0:0:0
420,356,31674,1,8,0:0:0
324,328,32085,2,0,P|268:316|216:328,2,110,2|8|2,0:0|0:0|0:0,0:0:0
420,356,33318,1,8,0:0:0
496,292,33729,6,0,P|520:212|488:136,2,165,6|0|8,0:0|0:0|0:0,0:0:0
420,356,35373,2,0,P|376:373|339:351|339:351|302:329|259:346,2,165,6|0|8,0:0|0:0|0:0,0:0:0
496,292,37017,6,0,P|464:264|404:260,2,82.5,6|2|2,0:0|0:0|0:0,0:0:0
420,356,38044,2,0,P|392:364|364:364,1,55,2|8,0:0|0:0,0:0:0
320,276,38661,5,2,0:0:0
256,352,39072,1,8,0:0:0
192,276,39483,2,0,P|124:240|28:268,1,165,2|0,0:0|0:0,0:0:0
16,300,40305,6,0,P|32:144|192:136,1,330,2|0,0:0|0:0,0:0:0
256,192,41948,6,0,P|348:160|348:48,1,220,6|2,0:0|0:0,0:0:0
256,20,43181,1,8,0:0:0
161,50,43592,2,0,P|164:160|256:192,1,220,2|2,0:0|0:0,0:0:0
344,148,44825,6,0,P|340:80,2,55,8|0|6,0:0|0:0|0:0,0:0:0
412,220,45647,1,8,0:0:0
404,320,46058,2,0,P|456:316|496:272,1,110,2|8,0:0|0:0,0:0:0
412,220,46880,5,2,0:0:0
320,260,47291,2,0,P|292:248|252:252,2,55,8|0|2,0:0|0:0|0:0,0:0:0
404,320,48113,1,8,0:0:0
492,276,48524,6,0,P|504:184|408:120,1,220,2|2,0:0|0:0,0:0:0
412,220,49757,1,8,0:0:0
332,164,50168,2,0,P|320:256|416:320,1,220,2|2,0:0|0:0,0:0:0
412,220,51400,1,8,0:0:0
508,184,51811,6,0,P|491:148|456:123,2,82.5,2|2|2,0:0|0:0|0:0,0:0:0
512,228,52633,2,0,P|512:280|472:324,1,110,2|8,0:0|0:0,0:0:0
384,360,53455,2,0,P|344:384|308:360|300:328|300:328|292:304|256:292|256:292|220:304|212:328|212:328|204:360|168:384|128:360,1,330,0|8,0:0|0:0,0:0:0
36,322,55099,6,0,P|0:280|0:228,1,110,6|8,0:0|0:0,0:0:0
60,148,55921,2,0,P|96:190|96:242,1,110,2|8,0:0|0:0,0:0:0
37,322,56743,5,2,0:0:0
132,344,57154,2,0,P|160:336|180:320,2,55,8|0|2,0:0|0:0|0:0,0:0:0
112,248,57976,1,8,0:0:0
124,148,58387,6,0,P|172:164|208:212,1,110,6|8,0:0|0:0,0:0:0
304,209,59209,2,0,P|340:164|388:148,1,110,2|8,0:0|0:0,0:0:0
488,164,60031,5,6,0:0:0
484,264,60442,2,0,P|492:296|492:320,2,55,8|0|2,0:0|0:0|0:0,0:0:0
388,236,61263,1,8,0:0:0
304,288,61674,6,0,P|344:324|408:328,1,110,6|8,0:0|0:0,0:0:0
388,236,62496,2,0,P|348:200|284:196,1,110,2|8,0:0|0:0,0:0:0
196,212,63318,2,0,P|96:192|64:84,1,220,6|2,0:0|0:0,0:0:0
156,120,64551,1,8,0:0:0
196,212,64962,6,0,P|181:249|184:304,2,82.5,2|2|2,0:0|0:0|0:0,0:0:0
244,196,65784,2,0,P|292:196|340:156,1,110,2|8,0:0|0:0,0:0:0
368,64,66606,6,8,P|492:60|464:232,1,330,2|8,0:0|0:0,0:0:0
400,284,68250,6,0,P|364:316|324:292|324:292|284:268|248:300,1,165,6|0,0:0|0:0,0:0:0
220,340,69072,1,2,0:0:0
124,356,69483,1,8,0:0:0
156,264,69894,1,2,0:0:0
256,192,69996,12,4,73592,0:0:0
