osu file format v9

[General]
AudioFilename: thyme.mp3
AudioLeadIn: 1500
PreviewTime: 67160
Countdown: 0
SampleSet: Normal
StackLeniency: 0.7
Mode: 0
LetterboxInBreaks: 0

[Editor]
DistanceSpacing: 1.2
BeatDivisor: 4
GridSize: 8

[Metadata]
Title:thyme
Artist:KOTOKO
Creator:alacat
Version:Hard
Source:Sucre ~sweet and charming time for you~
Tags:opening giga game DarknessAngel Rare R_a_r_e

[Difficulty]
HPDrainRate:6
CircleSize:4
OverallDifficulty:6
ApproachRate:7
SliderMultiplier:1.4
SliderTickRate:1

[Events]
//Background and Video events
Video,0,"op.flv"
0,0,"Hard.jpg"
//Break Periods
//Storyboard Layer 0 (Background)
//Storyboard Layer 1 (Fail)
//Storyboard Layer 2 (Pass)
//Storyboard Layer 3 (Foreground)
//Storyboard Sound Samples
//Background Colour Transformations
3,100,163,162,255

[TimingPoints]
630,500,4,2,1,70,1,0
630,-133.333333333333,4,2,0,40,0,0
6630,-100,4,2,1,60,0,0
7130,-100,4,2,1,50,0,0
7630,-100,4,2,1,40,0,0
8130,-100,4,2,1,30,0,0
8476,428.449014567267,4,2,1,70,1,0
9333,428.449014567267,4,2,0,70,1,0
9333,-100,4,2,1,70,0,0
15652,-100,4,1,0,60,0,0
15759,-100,4,2,0,60,0,0
16188,-100,4,2,1,70,0,0
22400,-100,4,1,0,40,0,0
23043,-100,4,2,0,60,0,0
24328,-100,4,1,0,40,0,0
24435,-100,4,2,0,60,0,0
26042,-100,4,1,0,40,0,0
26149,-100,4,2,0,60,0,0
27756,-100,4,1,0,40,0,0
27863,-100,4,2,0,60,0,0
29470,-100,4,1,0,40,0,0
29791,-100,4,2,0,60,0,0
31183,-100,4,1,0,40,0,0
31291,-100,4,2,0,60,0,0
32897,-100,4,1,0,40,0,0
33004,-100,4,2,0,60,0,0
34611,-100,4,1,0,40,0,0
34718,-100,4,2,0,60,0,0
36111,-100,4,1,0,50,0,0
36753,-100,4,2,0,60,0,0
37182,-100,4,1,0,40,0,0
37289,-100,4,2,0,60,0,0
38039,-100,4,1,0,60,0,0
38146,-100,4,2,0,60,0,0
38895,-100,4,1,0,40,0,0
39003,-100,4,2,0,60,0,0
39752,-100,4,1,0,40,0,0
39859,-100,4,2,0,60,0,0
40609,-100,4,1,0,40,0,0
40716,-100,4,2,0,60,0,0
41466,-100,4,1,0,40,0,0
41573,-100,4,2,0,60,0,0
42323,-100,4,1,0,40,0,0
42430,-100,4,2,0,60,0,0
43180,-100,4,2,0,40,0,0
43287,-100,4,2,0,60,0,0
44037,-100,4,1,0,40,0,0
44144,-100,4,2,0,60,0,0
44894,-100,4,1,0,40,0,0
45001,-100,4,2,0,60,0,0
45751,-100,4,1,0,40,0,0
45858,-100,4,2,0,60,0,0
46608,-100,4,1,0,40,0,0
46715,-100,4,2,0,60,0,0
47464,-100,4,1,0,40,0,0
47572,-100,4,2,0,60,0,0
47679,-100,4,2,0,50,0,0
48107,-100,4,2,0,60,0,0
48536,-100,4,2,0,70,0,0
49821,-100,4,1,0,40,0,0
50464,-100,4,2,0,60,0,0
53891,-100,4,2,0,40,0,0
53998,-100,4,2,0,60,0,0
57105,-100,4,1,0,40,0,0
57212,-100,4,2,0,60,0,0
65888,-100,4,1,0,70,0,0
66423,-100,4,2,0,60,0,0
67602,-100,4,2,1,80,0,1
69101,-100,4,1,0,40,0,1
69208,-100,4,2,1,80,0,1
74243,-100,4,1,0,40,0,1
74350,-100,4,2,1,80,0,1
77884,-100,4,2,1,60,0,1
78741,-100,4,2,1,70,0,1
79598,-100,4,2,1,80,0,1
81205,-100,4,2,1,80,0,0
81312,-100,4,2,1,80,0,1
82812,-100,4,1,0,40,0,1
82919,-100,4,2,1,80,0,1
84525,-100,4,1,0,40,0,1
84632,-100,4,2,1,80,0,1
86025,-76.9230769230769,4,2,1,80,0,1
86240,-100,4,2,1,85,0,1
87311,-100,4,2,1,70,0,1
93523,-100,4,1,0,50,0,1
94165,-100,4,1,0,40,0,1
95022,-100,4,2,1,60,0,0
107876,-100,4,1,0,40,0,0
108733,-100,4,2,0,60,0,0
110018,-100,4,2,0,50,0,0
111303,-100,4,2,0,40,0,0
112589,-100,4,2,0,30,0,0
113875,-100,4,2,0,20,0,0
115588,-100,4,2,0,5,0,0

[Colours]
Combo1 : 157,206,255
Combo2 : 255,255,179

[HitObjects]
464,340,630,2,0,B|372:340|396:248|280:248,1,210.000008010865,2|2
48,44,2630,2,0,B|140:44|116:136|232:136,1,209.999993741512,2|2
236,228,4630,6,0,B|212:236|204:268|176:276,2,78.7499976530672,2|0|0
288,176,5630,2,0,B|312:168|320:136|348:128,2,78.7499976530672,2|0|0
256,192,6630,12,0,8476
200,324,9333,6,0,B|164:312|140:284,1,70,4|0
180,220,9761,2,0,B|156:192|148:152,1,70,8|0
208,108,10189,1,0
280,76,10404,1,0
356,92,10618,1,8
356,92,10832,2,0,B|408:144|408:220,1,140,0|0
368,284,11475,1,8
368,284,11689,2,0,B|300:312|232:284,1,140
96,180,12332,5,8
96,180,12546,2,0,B|164:152|232:180,1,140,4|0
296,224,13189,1,8
228,256,13403,2,0,B|204:288|180:308,1,70
84,292,13831,2,0,B|100:264|132:240,1,70,2|8
180,168,14260,6,0,B|236:120|312:120,1,140,4|0
376,80,14902,1,8
440,124,15117,1,2
416,196,15331,1,0
340,196,15545,1,0
340,196,15652,1,0
340,196,15759,2,0,B|308:216|292:248,1,70
224,284,16188,6,0,B|156:304|84:284,2,140,4|8|0
288,320,17259,1,0
368,328,17473,1,8
432,288,17687,2,0,B|464:224|456:152,1,140,2|0
424,80,18330,1,8
352,96,18544,2,0,B|280:96|224:152,1,140,2|0
104,268,19187,5,8
104,268,19401,2,0,B|88:196|100:128,1,140,4|0
172,100,20044,1,8
244,128,20258,1,0
316,100,20472,2,0,B|344:76|356:40,2,70,0|0|8
376,148,21115,6,0,B|396:216|376:288,1,140,4|0
268,268,21758,1,0
168,320,21972,1,4
136,168,22400,6,0,B|112:144,5,35
120,104,23043,6,0,B|144:80|184:72,1,70,2|0
256,116,23471,1,0
320,60,23686,2,0,B|352:40,1,35,2|0
444,132,24114,1,0
412,208,24328,2,0,B|440:240|444:272,2,70
256,116,25185,5,0
176,88,25399,2,0,B|144:68,1,35,2|0
72,172,25828,1,0
84,256,26042,1,0
164,232,26256,1,0
228,288,26470,6,0,B|296:296|368:288,1,140,0|0
448,344,27113,1,2
448,344,27220,2,0,B|464:288|464:236,1,105
408,176,27756,2,0,B|428:144|472:144,2,70
280,284,28613,5,0
280,284,28827,2,0,B|248:308|216:316,1,70
212,232,29255,2,0,B|176:244|140:232,2,70
268,168,29898,2,0,B|336:144|408:168,1,140,4|0
336,248,30541,1,0
152,344,30969,5,0
84,288,31183,1,0
124,208,31398,1,0
208,236,31612,2,0,B|240:168|304:132,1,140
384,144,32255,1,0
144,68,32897,5,0
144,68,33326,2,0,B|120:124|80:152,2,105
100,232,34397,1,2
184,232,34611,1,0
232,300,34825,1,0
316,292,35039,6,0,B|388:308|424:308,1,105,2|0
460,308,35468,1,0
508,240,35682,1,0
307,192,36111,5,0
250,281,36325,1,0
160,225,36539,1,0
216,136,36753,6,0,B|140:136|77:171,1,140,4|0
16,224,37396,2,0,B|8:260,1,35
96,352,37824,1,0
172,320,38039,1,0
132,248,38253,1,0
200,200,38467,6,0,B|260:236|336:240,1,140,2|0
408,276,39110,1,0
408,276,39217,2,0,B|436:224|408:172,1,105
448,100,39752,2,0,B|484:120|492:156,2,70,0|0|0
296,172,40609,6,0,B|232:212|160:216,1,140
56,168,41252,1,0
120,76,41466,1,0
232,92,41680,1,0
332,44,41895,6,0,B|384:36|412:84|464:80,1,140
424,152,42537,2,0,B|460:160|484:196,1,70,2|0
348,196,42966,2,0,B|308:180|292:148,2,70,0|4|0
416,240,43608,6,0,B|372:300|304:320,1,140
228,280,44251,2,0,B|188:280|160:300,1,70,2|0
32,352,44680,2,0,B|72:352|100:332,1,70
64,200,45108,2,0,B|72:238|98:261,2,70
116,136,45751,1,0
56,80,45965,2,0,B|116:40|196:36,1,140
252,92,46608,1,0
296,164,46822,5,0
296,164,46929,1,0
296,164,47036,2,0,B|336:176|356:208,1,70,2|0
384,280,47464,1,0
432,208,47679,5,2
355,58,48107,1,2
205,133,48536,1,4
281,282,48964,5,2
196,312,49178,2,0,B|128:304|60:264,1,140,2|4
40,184,49821,1,0
52,100,50035,2,0,B|24:72,2,35
124,144,50464,6,0,B|192:120|264:140,1,140,4|8
340,172,51106,1,0
420,140,51321,1,0
480,200,51535,2,0,B|500:232|496:268,1,70,0|8
444,332,51963,5,0
360,332,52177,1,0
304,268,52392,1,0
224,292,52606,2,0,B|192:224|120:200,1,140,8|0
112,120,53249,1,0
192,136,53463,1,8
256,80,53677,1,0
324,132,53891,6,0,B|392:156|448:200,1,140,2|8
392,264,54534,2,0,B|368:292|336:312,1,70
284,248,54962,2,0,B|248:248|212:236,2,70,0|8|0
152,352,55819,5,0
88,300,56033,2,0,B|72:264|72:228,1,70,8|0
92,152,56462,2,0,B|60:128|28:128,2,70,0|0|8
168,184,57105,1,0
248,164,57319,6,0,B|224:96|248:24,1,140,4|8
415,26,57961,2,0,B|439:94|415:166,1,140
376,236,58604,1,8
416,312,58818,1,0
336,336,59033,6,0,B|264:352|192:336,1,140,0|8
48,280,59675,2,0,B|39:318|43:354,1,70
120,320,60104,2,0,B|128:281|124:245,1,70,0|8
128,176,60532,5,0
128,176,60639,1,0
128,176,60746,2,0,B|168:120|236:84,1,140,4|8
316,96,61389,2,0,B|352:108|372:140,1,70,0|0
408,212,61818,1,0
432,292,62032,1,8
368,348,62246,1,0
304,296,62460,6,0,B|228:292|164:260,1,140,4|8
120,196,63103,1,0
164,124,63317,2,0,B|196:95|230:97,1,70,4|0
332,168,63746,2,0,B|299:195|265:192,1,70,8|0
256,192,64174,12,0,65459
272,240,65888,6,0,B|240:264|240:304,1,70,0|0
400,360,66316,2,0,B|432:336|432:296,1,70,0|4
248,144,67173,2,0,B|176:144,1,70
104,176,67602,6,0,B|80:208|48:216,1,70,4|0
32,136,68030,2,0,B|56:104|88:96,1,70,8|0
168,72,68458,2,0,B|244:52|308:68,1,140,0|8
332,148,69101,1,0
408,188,69315,6,0,B|444:248|444:328,1,140,0|8
360,324,69958,1,0
280,352,70172,2,0,B|212:336|140:356,1,140,0|8
68,316,70815,1,0
44,236,71029,6,0,B|64:164|148:148,1,140,4|8
188,220,71672,1,0
268,196,71886,1,0
280,112,72100,1,0
200,84,72315,1,8
280,112,72529,6,0,B|352:96|424:112,1,140,4|0
424,272,73171,1,8
424,272,73386,2,0,B|356:288|284:276,1,140,4|0
216,236,74028,1,8
132,252,74243,1,0
164,176,74457,6,0,B|184:108|184:36,1,140,0|8
264,60,75099,1,0
308,132,75314,1,0
348,60,75528,6,0,B|380:44|420:44,2,70,0|8|0
104,116,76385,2,0,B|72:132|32:132,2,70,0|8|0
264,60,77242,5,0
336,100,77456,1,8
340,184,77670,1,0
264,220,77884,2,0,B|307:255|308:312,2,105,4|0|0
188,184,78741,2,0,B|144:148|136:93,2,105,4|0|0
196,268,79598,6,0,B|128:288|56:268,1,140,2|2
180,96,80455,1,2
376,168,80883,1,2
212,304,81312,6,0,B|144:340|76:304,1,140,4|8
40,232,81955,1,0
88,160,82169,2,0,B|76:120|88:84,1,70
20,40,82597,1,8
168,120,82812,1,0
224,184,83026,6,0,B|292:152|360:184,1,140,2|8
288,264,83668,1,0
360,340,83883,2,0,B|292:372|224:340,1,140,0|8
224,184,84525,1,0
88,264,84740,6,0,B|56:216|64:160,1,105,4|0
72,136,85168,2,0,B|96:112|136:112,1,70,8|0
168,192,85596,1,2
240,248,85811,1,0
292,320,86025,6,0,B|384:320,1,90.9999983727932,8|4
188,324,86668,1,2
96,152,87096,1,4
248,28,87524,5,0
296,96,87739,1,0
376,120,87953,1,0
456,92,88167,2,0,B|496:156|480:228,1,140,4|8
404,264,88810,5,0
404,264,88917,1,0
404,264,89024,2,0,B|384:236|344:220,1,70
244,336,89452,2,0,B|268:368|304:376,1,70,8|0
320,300,89881,2,0,B|272:240|204:220,1,140,6|8
132,200,90524,6,0,B|96:224,2,35
188,144,90952,1,0
128,96,91166,1,8
168,28,91380,1,0
244,44,91595,2,0,B|296:24|336:56|384:40,2,140,4|8|0
260,120,92666,5,4
436,204,93094,1,4
264,316,93523,1,0
184,296,93737,1,0
144,224,93951,1,0
184,152,94165,2,0,B|156:120,4,35
260,120,94808,5,0
320,60,95022,2,0,B|392:72|436:144,1,140,4|8
396,204,95665,1,0
428,276,95879,1,0
368,324,96093,1,0
296,292,96308,2,0,B|260:300|228:284,1,70,8|0
180,220,96736,5,0
192,144,96950,1,0
244,88,97165,2,0,B|271:54|306:49,1,70,8|0
312,128,97593,2,0,B|344:148|360:184,2,70,0|0|8
244,88,98236,6,0,B|184:56|108:56,1,140,4|0
56,112,98878,1,8
84,184,99093,2,0,B|144:216|220:216,1,140,0|0
296,204,99735,1,8
368,164,99949,6,0,B|436:196|472:256,1,140,4|0
508,324,100592,1,8
432,340,100806,2,0,B|360:320|292:344,1,140,4|0
220,324,101449,2,0,B|196:300|184:260,1,70,8|0
236,148,101877,5,4
312,140,102092,1,0
268,76,102306,2,0,B|204:44|132:40,1,140,8|0
60,68,102949,1,0
116,120,103163,1,8
144,192,103377,6,0,B|128:260|64:308,1,140,2|0
136,344,104020,1,8
200,304,104234,2,0,B|268:288|340:304,1,140
412,332,104877,1,8
448,264,105091,6,0,B|468:196|452:124,1,140,4|0
396,72,105734,2,0,B|424:44|472:40,2,70,8|0|0
320,60,106376,1,0
256,104,106590,1,8
176,80,106805,6,0,B|144:152|176:216,1,140,4|0
256,272,107447,1,8
352,248,107662,1,0
408,328,107876,2,0,B|428:368,6,35
256,192,108733,12,0,115588
