osu file format v14

[General]
AudioFilename: Opening2.mp3
AudioLeadIn: 0
PreviewTime: 64602
Countdown: 0
SampleSet: None
StackLeniency: 0.7
Mode: 0
LetterboxInBreaks: 1
WidescreenStoryboard: 1

[Editor]
Bookmarks: 11408,22075,32742,43408,54075,64741,91408,111407,112740
DistanceSpacing: 0.7
BeatDivisor: 4
GridSize: 4
TimelineZoom: 1.8

[Metadata]
Title:jihad
TitleUnicode:jihad
Artist:KOTOKO
ArtistUnicode:KOTOKO
Creator:Mei
Version:re
Source:BALDR SKY Dive2 RECORDARE
Tags:C.G Mix I've Sound GIGA opening DarknessAngel
BeatmapID:901195
BeatmapSetID:165097

[Difficulty]
HPDrainRate:6
CircleSize:4
OverallDifficulty:8
ApproachRate:9
SliderMultiplier:1.8
SliderTickRate:1

[Events]
//Background and Video events
0,0,"BG.jpg",0,0
//Break Periods
//Storyboard Layer 0 (Background)
//Storyboard Layer 1 (Fail)
//Storyboard Layer 2 (Pass)
//Storyboard Layer 3 (Foreground)
//Storyboard Sound Samples

[TimingPoints]
769,333.333333333333,4,2,1,60,1,0
769,-200,4,2,0,40,0,0
5435,-100,4,2,1,5,0,0
6102,-200,4,2,0,40,0,0
11435,-200,4,2,0,40,0,0
16102,-100,4,2,1,5,0,0
16768,-200,4,2,0,40,0,0
20768,-100,4,2,1,60,0,0
21768,-100,4,1,1,60,0,0
22102,-100,4,2,1,60,0,0
32768,-125,4,2,2,40,0,0
42935,-100,4,3,1,60,0,0
43435,-100,4,2,1,60,0,0
64768,-83.3333333333333,4,2,1,60,0,1
88768,-83.3333333333333,4,1,1,50,0,0
91435,-100,4,2,1,60,0,1
91518,-100,4,2,1,60,0,0
111435,-100,4,2,2,30,0,0
116768,-100,4,2,1,5,0,0

[Colours]
Combo1 : 0,112,223
Combo2 : 248,230,7
Combo3 : 166,166,166
Combo4 : 242,24,57

[HitObjects]
136,80,769,6,0,P|124:124|120:180,1,90,2|0,0:0|0:0,0:0:0:0:
212,140,1268,2,0,P|264:164|208:288,1,225,0|2,0:0|0:0,0:0:0:0:
60,352,2434,1,0,0:0:0:0:
60,352,2602,2,0,P|96:348|160:352,1,90,0|0,0:0|0:0,0:0:0:0:
256,368,3102,1,0,0:0:0:0:
256,192,3435,12,0,4768,0:0:0:0:
376,80,6102,6,0,P|388:124|392:180,1,90,2|0,0:0|0:0,0:0:0:0:
300,140,6601,2,0,P|248:164|304:288,1,225,0|2,0:0|0:0,0:0:0:0:
452,352,7767,1,0,0:0:0:0:
452,352,7935,2,0,P|416:348|352:352,1,90,0|0,0:0|0:0,0:0:0:0:
256,368,8435,1,0,0:0:0:0:
256,192,8768,12,0,9768,0:0:0:0:
144,168,10102,6,0,P|136:192|248:160,1,270,2|0,0:0|0:0,0:0:0:0:
400,32,11435,5,6,0:0:0:0:
400,32,11935,2,0,P|384:60|380:120,1,90,0|0,0:0|0:0,0:0:0:0:
480,184,12435,2,0,L|428:196,1,45,0|0,0:0|0:0,0:0:0:0:
480,284,12768,2,0,P|444:276|372:272,1,90,2|0,0:0|0:0,0:0:0:0:
240,316,13268,2,0,P|272:298|330:255,1,90,0|0,0:0|0:0,0:0:0:0:
156,252,13768,2,0,L|160:308,1,45,0|0,0:0|0:0,0:0:0:0:
256,192,14102,1,2,0:0:0:0:
256,192,14268,12,0,16101,0:0:0:0:
104,100,16768,6,0,P|128:120|164:172,1,90,4|0,0:0|0:0,0:0:0:0:
72,220,17268,2,0,P|88:268|84:316,1,90,0|0,0:0|0:0,0:0:0:0:
180,360,17768,1,2,0:0:0:0:
240,296,17935,1,2,0:0:0:0:
320,336,18102,2,0,P|352:344|420:348,1,90,4|0,0:0|0:0,0:0:0:0:
504,248,18602,2,0,P|472:240|404:236,1,90,0|0,0:0|0:0,0:0:0:0:
340,144,19102,2,0,P|320:164|304:192,1,45,2|2,0:0|0:0,0:0:0:0:
240,296,19435,5,6,0:0:0:0:
88,200,19768,2,0,L|140:184,1,45,2|0,0:0|0:0,0:0:0:0:
328,48,20268,2,0,L|276:32,1,45,2|0,0:0|0:0,0:0:0:0:
103,158,20768,5,4,0:0:0:0:
219,298,20935,1,0,0:0:0:0:
219,298,21102,5,8,0:0:0:0:
198,205,21268,1,4,0:0:0:0:
308,336,21435,1,0,0:0:0:0:
139,366,21602,1,8,0:0:0:0:
103,158,21768,1,0,0:0:0:0:
114,113,21852,1,0,0:0:0:0:
141,80,21935,1,0,0:0:0:0:
174,52,22018,1,0,0:0:0:0:
219,47,22102,6,0,P|318:58|344:64,1,90,6|0,0:0|0:0,0:0:0:0:
452,264,22435,2,0,P|452:312|404:360,1,90,10|0,0:0|0:0,0:0:0:0:
232,304,22768,2,0,P|272:256|380:288,1,180,2|10,0:0|0:0,0:0:0:0:
219,47,23435,6,0,P|191:91|191:155,1,90,2|0,0:0|0:0,0:0:0:0:
156,280,23768,1,10,0:0:0:0:
240,204,23935,1,0,0:0:0:0:
356,216,24102,2,0,P|344:136|332:104,1,90,2|0,0:0|0:0,0:0:0:0:
219,47,24435,2,0,P|167:47|107:63,1,90,10|0,0:0|0:0,0:0:0:0:
12,160,24768,5,10,0:0:0:0:
56,32,24935,1,0,0:0:0:0:
100,188,25102,1,10,0:0:0:0:
264,220,25268,5,10,0:0:0:0:
100,188,25435,1,2,0:0:0:0:
148,328,25602,1,8,0:0:0:0:
264,220,25768,2,0,P|249:177|244:132,1,90,10|0,0:0|0:0,0:0:0:0:
392,28,26102,5,10,0:0:0:0:
444,180,26268,2,0,P|392:172|324:148,2,90,0|10|10,0:0|0:0|0:0,0:0:0:0:
504,88,26768,1,2,0:0:0:0:
440,276,26935,1,8,0:0:0:0:
268,132,27102,2,0,L|256:24,1,90,10|0,0:0|0:0,0:0:0:0:
160,140,27435,6,0,P|128:216|184:296,1,180,6|10,0:0|0:0,0:0:0:0:
308,224,27935,1,0,0:0:0:0:
308,224,28101,2,0,P|240:212|196:216,1,90,0|2,0:0|0:0,0:0:0:0:
52,244,28434,1,10,0:0:0:0:
308,332,28768,6,0,P|352:331|396:320,1,90,0|2,0:0|0:0,0:0:0:0:
268,132,29101,1,10,0:0:0:0:
240,272,29268,1,0,0:0:0:0:
268,132,29434,2,0,P|212:124|160:128,1,90,2|0,0:0|0:0,0:0:0:0:
52,244,29768,2,0,P|96:244|141:237,1,90,10|0,0:0|0:0,0:0:0:0:
268,132,30102,6,0,P|340:148|404:64,1,180,10|10,0:0|0:0,0:0:0:0:
212,36,30602,1,8,0:0:0:0:
176,148,30768,2,0,P|171:193|167:238,1,90,2|8,0:0|0:0,0:0:0:0:
52,244,31102,2,0,P|47:289|43:334,1,90,10|8,0:0|0:0,0:0:0:0:
180,372,31435,1,6,0:0:0:0:
364,80,32102,2,0,L|324:88,13,22.5,0|0|0|0|0|0|0|0|0|0|0|0|0|0,0:0|0:0|0:0|0:0|0:0|0:0|0:0|0:0|0:0|0:0|0:0|0:0|0:0|0:0,0:0:0:0:
276,112,32768,6,0,P|204:140|128:108,1,144,4|0,0:0|0:0,0:0:0:0:
72,44,33268,2,0,P|144:16|220:48,1,144,0|0,0:0|0:0,0:0:0:0:
0,92,33768,1,2,0:0:0:0:
60,144,33934,1,8,0:0:0:0:
40,228,34101,6,0,B|100:244|100:244|120:236|120:236|180:252,1,144,10|0,0:0|0:0,0:0:0:0:
264,196,34601,1,0,0:0:0:0:
268,8,35102,1,0,0:0:0:0:
348,48,35268,1,8,0:0:0:0:
280,104,35434,6,0,P|224:108|112:120,1,144,8|0,0:0|0:0,0:0:0:0:
120,208,35934,2,0,P|192:201|264:196,1,144,0|0,0:0|0:0,0:0:0:0:
308,284,36434,1,0,0:0:0:0:
224,300,36601,1,0,0:0:0:0:
140,320,36768,6,0,P|88:328|28:244,1,144,8|0,0:0|0:0,0:0:0:0:
44,180,37268,2,0,L|92:24,1,144,0|0,0:0|0:0,0:0:0:0:
86,42,37768,1,0,0:0:0:0:
484,176,38102,6,0,P|512:244|508:264,1,72,10|0,0:0|0:0,0:0:0:0:
488,324,38435,1,0,0:0:0:0:
408,288,38602,1,0,0:0:0:0:
348,348,38768,2,0,P|320:284|368:216,1,144,0|0,0:0|0:0,0:0:0:0:
191,43,39434,6,0,L|120:52,2,72,10|0|0,0:0|0:0|0:0,0:0:0:0:
192,152,39935,1,0,0:0:0:0:
192,152,40101,2,0,P|128:144|40:140,1,144,0|0,0:0|0:0,0:0:0:0:
320,232,40768,6,0,P|384:240|472:244,2,144,10|0|0,0:0|0:0|0:0,0:0:0:0:
232,220,41601,1,0,0:0:0:0:
224,132,41768,1,0,0:0:0:0:
160,272,41935,1,8,0:0:0:0:
320,232,42102,5,8,0:0:0:0:
336,248,42435,1,0,0:0:0:0:
308,68,42935,5,0,0:0:0:0:
232,116,43102,1,0,0:0:0:0:
140,120,43269,1,0,0:0:0:0:
52,112,43435,6,0,P|112:140|184:240,1,180,6|8,0:0|0:0,0:0:0:0:
240,336,43935,2,0,P|196:345|151:341,1,90,2|0,0:0|0:0,0:0:0:0:
384,272,44268,1,0,0:0:0:0:
240,336,44435,1,8,0:0:0:0:
340,204,44602,1,2,0:0:0:0:
368,352,44768,6,0,P|312:308|296:260,1,90,2|0,0:0|0:0,0:0:0:0:
248,136,45102,2,0,L|244:244,2,90,8|2|0,0:0|0:0|0:0,0:0:0:0:
240,336,45602,1,0,0:0:0:0:
68,296,45768,2,0,P|108:268|172:252,1,90,10|2,0:0|0:0,0:0:0:0:
248,136,46102,6,0,P|180:164|72:136,1,180,2|8,0:0|0:0,0:0:0:0:
320,200,46602,2,0,P|272:236|232:284,1,90,2|0,0:0|0:0,0:0:0:0:
364,312,46935,1,0,0:0:0:0:
376,124,47102,2,0,P|400:156|412:220,1,90,10|2,0:0|0:0,0:0:0:0:
408,12,47435,5,2,0:0:0:0:
296,88,47602,2,0,L|188:84,2,90,0|8|2,0:0|0:0|0:0,0:0:0:0:
108,36,48102,2,0,B|92:80|92:80|108:140,1,90,2|0,0:0|0:0,0:0:0:0:
236,280,48435,2,0,B|252:236|252:236|236:176,1,90,10|2,0:0|0:0,0:0:0:0:
32,264,48768,6,0,L|144:240,1,90,2|0,0:0|0:0,0:0:0:0:
80,352,49101,2,0,L|192:328,1,90,10|2,0:0|0:0,0:0:0:0:
444,148,49434,2,0,L|332:124,1,90,2|0,0:0|0:0,0:0:0:0:
396,236,49767,2,0,L|284:212,1,90,10|0,0:0|0:0,0:0:0:0:
116,40,50101,6,0,L|104:148,1,90,2|2,0:0|0:0,0:0:0:0:
196,112,50434,2,0,L|184:220,1,90,10|0,0:0|0:0,0:0:0:0:
332,348,50768,2,0,L|322:258,1,90,2|2,0:0|0:0,0:0:0:0:
412,276,51101,2,0,L|402:186,1,90,10|2,0:0|0:0,0:0:0:0:
264,176,51435,5,0,0:0:0:0:
328,4,51602,1,0,0:0:0:0:
376,112,51768,1,8,0:0:0:0:
224,40,51935,1,2,0:0:0:0:
224,40,52101,2,0,P|151:51|136:160,1,180,2|10,0:0|0:0,0:0:0:0:
208,252,52602,1,2,0:0:0:0:
360,196,52768,6,0,P|420:180|464:168,1,90,10|0,0:0|0:0,0:0:0:0:
320,312,53102,1,10,0:0:0:0:
260,132,53268,1,8,0:0:0:0:
208,252,53435,1,0,0:0:0:0:
360,196,53602,1,10,0:0:0:0:
160,136,53768,1,10,0:0:0:0:
360,48,53935,2,0,L|369:4,1,45,10|8,0:0|0:0,0:0:0:0:
263,46,54102,6,0,B|247:86|247:86|263:142,1,90,6|0,0:0|0:0,0:0:0:0:
320,312,54435,1,2,0:0:0:0:
184,328,54602,2,0,B|144:316|144:316|100:284,1,90,10|0,0:0|0:0,0:0:0:0:
32,184,54935,1,0,0:0:0:0:
32,184,55102,2,0,L|144:176,1,90,10|0,0:0|0:0,0:0:0:0:
184,328,55435,6,0,P|240:284|268:152,1,180,10|0,0:0|0:0,0:0:0:0:
148,208,55935,2,0,P|168:139|115:15,1,180,10|2,0:0|0:0,0:0:0:0:
184,328,56435,1,8,0:0:0:0:
276,292,56602,1,8,0:0:0:0:
372,316,56768,6,0,P|432:344|472:344,1,90,6|0,0:0|0:0,0:0:0:0:
512,140,57102,1,2,0:0:0:0:
392,152,57268,2,0,B|356:184|356:184|344:248,1,90,10|0,0:0|0:0,0:0:0:0:
512,280,57602,1,0,0:0:0:0:
512,280,57768,2,0,L|436:232,1,90,10|0,0:0|0:0,0:0:0:0:
248,76,58102,6,0,P|320:84|432:32,1,180,10|0,0:0|0:0,0:0:0:0:
374,215,58602,2,0,P|450:168|496:92,1,180,10|2,0:0|0:0,0:0:0:0:
268,164,59102,1,8,0:0:0:0:
208,240,59268,1,8,0:0:0:0:
252,328,59435,5,6,0:0:0:0:
48,312,59602,2,0,P|100:276|156:248,1,90,0|8,0:0|0:0,0:0:0:0:
300,256,59935,1,10,0:0:0:0:
44,200,60102,2,0,P|96:164|152:136,1,90,2|8,0:0|0:0,0:0:0:0:
336,100,60435,2,0,P|284:64|228:36,1,90,8|0,0:0|0:0,0:0:0:0:
268,164,60768,5,2,0:0:0:0:
440,100,60935,2,0,L|412:192,1,90,0|8,0:0|0:0,0:0:0:0:
268,164,61268,1,10,0:0:0:0:
440,320,61435,2,0,P|396:268|356:236,1,90,2|10,0:0|0:0,0:0:0:0:
236,368,61768,2,0,P|320:356|356:340,1,90,8|0,0:0|0:0,0:0:0:0:
112,280,62102,6,0,L|96:384,1,90,2|0,0:0|0:0,0:0:0:0:
268,164,62435,1,8,0:0:0:0:
32,92,62602,2,0,L|48:-12,2,90,10|2|0,0:0|0:0|0:0,0:0:0:0:
324,256,63102,1,2,3:0:0:0:
362,215,63185,1,2,3:0:0:0:
373,161,63268,1,2,3:0:0:0:
354,109,63352,1,2,3:0:0:0:
310,74,63435,6,0,B|232:96|232:44|128:84,2,180,6|6|0,0:0|0:0|0:0,0:0:0:0:
484,288,64435,1,0,3:0:0:0:
481,299,64518,1,0,3:0:0:0:
479,310,64601,1,0,3:0:0:0:
477,321,64685,1,0,3:0:0:0:
476,332,64768,6,0,L|460:200,1,107.999996704102,4|0,3:2|0:0,0:0:0:0:
508,112,65102,1,8,0:0:0:0:
310,74,65268,2,0,P|264:116|336:244,1,215.999993408203,0|2,0:0|0:0,0:0:0:0:
416,60,65768,1,8,0:0:0:0:
340,164,65935,1,0,0:0:0:0:
244,4,66102,6,0,P|192:16|120:24,1,107.999996704102,2|0,0:0|0:0,0:0:0:0:
12,140,66435,1,8,0:0:0:0:
156,272,66602,2,0,P|232:252|408:240,1,215.999993408203,2|2,0:0|0:0,0:0:0:0:
464,208,67102,1,8,0:0:0:0:
336,332,67268,1,0,0:0:0:0:
276,108,67435,6,0,P|224:88|164:64,1,107.999996704102,2|0,0:0|0:0,0:0:0:0:
424,16,67768,1,8,0:0:0:0:
464,208,67935,2,0,L|480:320,1,107.999996704102,2|0,0:0|0:0,0:0:0:0:
276,344,68268,1,2,0:0:0:0:
152,192,68435,1,8,0:0:0:0:
368,80,68602,1,0,0:0:0:0:
68,36,68768,6,0,P|76:140|80:272,1,215.999993408203,2|8,0:0|0:0,0:0:0:0:
296,256,69268,1,0,0:0:0:0:
160,148,69435,1,2,0:0:0:0:
176,352,69602,1,2,0:0:0:0:
376,256,69768,2,0,P|384:184|392:140,1,107.999996704102,8|0,0:0|0:0,0:0:0:0:
261,0,70102,6,0,P|269:54|276:108,1,107.999996704102,4|0,0:0|0:0,0:0:0:0:
136,272,70435,1,8,0:0:0:0:
328,332,70602,2,0,P|412:344|456:228,1,215.999993408203,0|0,0:0|0:0,0:0:0:0:
212,152,71102,1,8,0:0:0:0:
376,256,71268,1,0,0:0:0:0:
244,364,71435,6,0,P|240:280|240:228,1,107.999996704102,2|0,0:0|0:0,0:0:0:0:
364,44,71768,1,8,0:0:0:0:
380,172,71935,2,0,P|456:184|504:184,1,107.999996704102,2|0,0:0|0:0,0:0:0:0:
264,36,72268,1,2,0:0:0:0:
239,256,72435,1,8,0:0:0:0:
132,172,72602,1,0,0:0:0:0:
380,172,72768,6,0,P|449:152|497:140,1,107.999996704102
188,80,73102,2,0,P|136:64|83:51,1,107.999996704102,8|0,0:0|0:0,0:0:0:0:
240,348,73435,1,2,0:0:0:0:
291,333,73518,1,0,0:0:0:0:
325,293,73601,1,2,0:0:0:0:
330,240,73684,1,0,0:0:0:0:
304,193,73768,2,0,P|296:132|304:72,1,107.999996704102,8|0,0:0|0:0,0:0:0:0:
152,256,74102,6,0,P|160:317|152:377,1,107.999996704102,2|2,0:0|0:0,0:0:0:0:
64,316,74435,1,12,0:0:0:0:
232,164,74602,1,8,0:0:0:0:
132,56,74768,1,6,0:0:0:0:
239,256,74935,1,10,0:0:0:0:
384,112,75102,1,14,0:0:0:0:
484,260,75268,1,10,0:0:0:0:
352,320,75435,6,0,P|280:340|228:356,1,107.999996704102,4|0,0:0|0:0,0:0:0:0:
64,316,75768,1,8,0:0:0:0:
48,132,75935,2,0,L|36:-8,1,107.999996704102
308,44,76268,1,2,0:0:0:0:
176,168,76435,1,8,0:0:0:0:
344,256,76602,1,0,0:0:0:0:
304,12,76768,6,0,P|232:36|176:48,1,107.999996704102,2|0,0:0|0:0,0:0:0:0:
320,180,77102,1,8,0:0:0:0:
408,36,77268,2,0,P|480:12|536:0,1,107.999996704102,0|0,0:0|0:0,0:0:0:0:
420,196,77602,1,2,0:0:0:0:
260,112,77768,1,8,0:0:0:0:
332,336,77935,1,0,0:0:0:0:
176,248,78102,6,0,P|76:232|32:220,1,107.999996704102,2|0,0:0|0:0,0:0:0:0:
144,112,78435,1,8,0:0:0:0:
256,344,78602,2,0,P|328:312|472:292,1,215.999993408203,0|2,0:0|0:0,0:0:0:0:
480,88,79102,2,0,P|416:112|344:120,1,107.999996704102,8|0,0:0|0:0,0:0:0:0:
60,24,79435,5,2,0:0:0:0:
100,21,79518,1,0,0:0:0:0:
140,24,79601,1,0,0:0:0:0:
180,33,79684,1,0,0:0:0:0:
218,47,79768,2,0,L|228:188,1,107.999996704102,8|0,0:0|0:0,0:0:0:0:
144,372,80102,2,0,L|132:196,1,161.999995056153,2|0,0:0|0:0,0:0:0:0:
98,147,80435,1,8,0:0:0:0:
288,100,80602,2,0,L|276:160,1,53.9999983520508,8|0,0:0|0:0,0:0:0:0:
308,260,80768,6,0,P|380:244|436:232,1,107.999996704102,4|0,0:0|0:0,0:0:0:0:
204,124,81102,2,0,P|132:140|76:152,1,107.999996704102,8|0,0:0|0:0,0:0:0:0:
324,140,81435,2,0,P|308:68|296:12,1,107.999996704102,2|0,0:0|0:0,0:0:0:0:
188,244,81768,2,0,P|204:316|216:372,1,107.999996704102,8|0,0:0|0:0,0:0:0:0:
448,256,82102,6,0,P|496:204|456:104,1,161.999995056153,10|0,0:0|0:0,0:0:0:0:
428,67,82435,1,8,0:0:0:0:
324,244,82602,2,0,P|308:316|296:372,1,107.999996704102,8|0,0:0|0:0,0:0:0:0:
61,227,82935,1,2,0:0:0:0:
242,143,83102,1,8,0:0:0:0:
75,39,83268,1,0,0:0:0:0:
148,189,83435,6,0,B|165:263|108:265|153:370,1,161.999995056153,2|0,0:0|0:0,0:0:0:0:
208,376,83768,1,8,0:0:0:0:
324,244,83935,1,0,0:0:0:0:
69,129,84102,1,2,0:0:0:0:
264,24,84268,2,0,P|329:12|405:8,1,107.999996704102,2|8,0:0|0:0,0:0:0:0:
489,121,84602,1,0,0:0:0:0:
263,126,84768,6,0,P|193:105|93:56,1,161.999995056153,10|0,0:0|0:0,0:0:0:0:
69,129,85102,2,0,L|83:252,1,107.999996704102,8|8,0:0|0:0,0:0:0:0:
263,338,85435,1,2,0:0:0:0:
316,344,85518,1,0,0:0:0:0:
370,343,85601,1,10,0:0:0:0:
423,334,85684,1,0,0:0:0:0:
475,319,85768,1,10,0:0:0:0:
452,288,85851,1,0,0:0:0:0:
420,268,85934,1,8,0:0:0:0:
384,260,86017,1,0,0:0:0:0:
344,260,86102,6,0,P|336:193|332:137,1,107.999996704102,6|0,0:0|0:0,0:0:0:0:
225,221,86435,1,8,0:0:0:0:
405,121,86602,1,0,0:0:0:0:
228,0,86768,5,2,0:0:0:0:
268,144,86935,1,2,0:0:0:0:
487,58,87102,1,8,0:0:0:0:
422,217,87268,1,0,0:0:0:0:
171,128,87435,6,0,P|91:103|25:90,1,107.999996704102,2|0,0:0|0:0,0:0:0:0:
192,306,87768,1,8,0:0:0:0:
337,187,87935,2,0,L|356:52,2,107.999996704102,0|2|2,0:0|0:0|0:0,0:0:0:0:
305,343,88435,1,8,0:0:0:0:
226,212,88602,1,0,0:0:0:0:
466,71,88768,5,2,0:2:0:0:
445,66,90102,5,4,0:3:0:0:
76,66,90435,1,8,0:0:0:0:
199,167,90602,1,8,0:3:0:0:
237,28,90768,1,2,0:2:0:0:
83,178,90935,5,2,0:2:0:0:
298,295,91102,1,10,0:2:0:0:
302,255,91185,1,2,0:2:0:0:
307,215,91268,1,2,0:2:0:0:
312,175,91351,1,2,0:2:0:0:
317,135,91435,6,0,L|220:96,1,90,6|0,0:0|0:0,0:0:0:0:
200,288,91768,1,10,0:0:0:0:
328,376,91935,1,0,0:0:0:0:
468,328,92102,2,0,P|480:252|460:120,1,180,2|10,0:0|0:0,0:0:0:0:
12,56,92768,5,2,0:0:0:0:
40,144,92934,1,0,0:0:0:0:
60,236,93101,2,0,P|64:288|60:332,1,90,10|0,0:0|0:0,0:0:0:0:
160,372,93435,1,2,0:0:0:0:
252,312,93602,2,0,P|309:302|344:304,2,90,0|10|0,0:0|0:0|0:0,0:0:0:0:
160,224,94101,6,0,B|132:168|184:168|160:72,1,135,2|0,0:0|0:0,0:0:0:0:
148,60,94434,2,0,L|32:48,1,90,8|0,0:0|0:0,0:0:0:0:
228,192,94768,2,0,L|344:180,2,90,2|0|8,0:0|0:0|0:0,0:0:0:0:
12,352,95434,6,0,P|32:364|164:344,1,135,2|0,0:0|0:0,0:0:0:0:
164,340,95768,2,0,P|192:324|260:320,1,90,8|0,0:0|0:0,0:0:0:0:
336,348,96101,1,2,0:0:0:0:
272,248,96268,1,0,0:0:0:0:
424,160,96434,2,0,L|408:264,1,90,8|0,0:0|0:0,0:0:0:0:
504,140,96768,6,0,P|480:96|352:112,1,180,4|8,0:0|0:0,0:0:0:0:
272,248,97268,1,2,0:0:0:0:
272,248,97434,2,0,P|264:192|248:152,1,90,0|0,0:0|0:0,0:0:0:0:
72,52,97768,2,0,P|128:80|172:80,1,90,10|0,0:0|0:0,0:0:0:0:
376,24,98101,6,0,P|356:68|344:124,1,90,2|0,0:0|0:0,0:0:0:0:
368,292,98434,2,0,P|420:284|488:284,1,90,8|0,0:0|0:0,0:0:0:0:
244,168,98768,2,0,P|192:176|124:176,1,90,2|0,0:0|0:0,0:0:0:0:
240,324,99101,1,8,0:0:0:0:
344,208,99268,1,2,0:0:0:0:
184,92,99434,6,0,P|104:84|-4:92,1,180,2|8,0:0|0:0,0:0:0:0:
176,252,99934,1,2,0:0:0:0:
260,156,100101,2,0,P|280:100|280:52,1,90,0|0,0:0|0:0,0:0:0:0:
100,236,100434,2,0,P|108:304|200:324,1,135,8|0,0:0|0:0,0:0:0:0:
208,332,100768,6,0,P|260:320|308:312,1,90,2|0,0:0|0:0,0:0:0:0:
460,336,101101,1,10,0:0:0:0:
460,336,101268,1,8,0:0:0:0:
312,224,101435,1,2,0:0:0:0:
312,224,101601,1,8,0:0:0:0:
512,68,101768,1,10,0:0:0:0:
512,68,101934,1,10,0:0:0:0:
419,214,102102,6,0,B|400:280|423:352|423:352|460:336,1,180,6|8,0:0|0:0,0:0:0:0:
508,168,102602,1,0,0:0:0:0:
344,124,102768,2,0,L|232:100,1,90,2|0,0:0|0:0,0:0:0:0:
132,200,103102,1,10,0:0:0:0:
132,224,103434,6,0,L|125:313,1,90,2|0,0:0|0:0,0:0:0:0:
131,121,103768,2,0,L|128:32,1,90,10|0,0:0|0:0,0:0:0:0:
380,121,104101,2,0,L|384:32,1,90,2|0,0:0|0:0,0:0:0:0:
380,224,104435,2,0,L|386:313,1,90,10|0,0:0|0:0,0:0:0:0:
248,360,104768,6,0,L|272:192,1,135,2|0,0:0|0:0,0:0:0:0:
268,192,105101,2,0,P|232:172|180:140,1,90,8|0,0:0|0:0,0:0:0:0:
372,30,105435,2,0,L|380:120,1,90,2|0,0:0|0:0,0:0:0:0:
386,313,105768,2,0,P|424:289|463:267,1,90,10|0,0:0|0:0,0:0:0:0:
380,120,106101,6,0,P|332:140|236:124,1,135,2|0,0:0|0:0,0:0:0:0:
224,120,106434,2,0,P|168:112|108:116,1,90,8|0,0:0|0:0,0:0:0:0:
88,296,106768,1,2,0:0:0:0:
208,328,106935,1,2,0:0:0:0:
288,244,107101,2,0,P|298:184|302:148,1,90,10|0,0:0|0:0,0:0:0:0:
136,16,107435,6,0,P|108:120|100:216,1,180,6|8,0:0|0:0,0:0:0:0:
380,120,107935,1,0,0:0:0:0:
380,120,108102,2,0,L|500:112,1,90,2|0,0:0|0:0,0:0:0:0:
500,264,108434,2,0,L|410:258,1,90,10|0,0:0|0:0,0:0:0:0:
296,352,108768,6,0,P|280:284|264:252,1,90,2|0,0:0|0:0,0:0:0:0:
196,116,109101,2,0,P|176:184|176:244,1,90,10|0,0:0|0:0,0:0:0:0:
280,76,109434,2,0,P|240:40|196:12,1,90,2|0,0:0|0:0,0:0:0:0:
80,104,109768,2,0,P|32:140|-28:168,1,90,8|2,0:0|0:0,0:0:0:0:
24,312,110101,6,0,P|88:304|144:308,1,90,8|0,0:0|0:0,0:0:0:0:
496,340,110602,1,10,0:0:0:0:
496,340,110768,1,10,0:0:0:0:
200,200,111102,1,10,0:0:0:0:
256,192,111435,12,0,112768,0:0:0:0:
256,192,112852,12,0,116768,0:0:0:0:
