osu file format v13

[General]
AudioFilename: Opening2.mp3
AudioLeadIn: 0
PreviewTime: 64602
Countdown: 0
SampleSet: Soft
StackLeniency: 0.7
Mode: 0
LetterboxInBreaks: 1
WidescreenStoryboard: 0

[Editor]
Bookmarks: 11408,22075,32742,43408,54075,64741,91408,111407,112740
DistanceSpacing: 0.7
BeatDivisor: 1
GridSize: 4
TimelineZoom: 1.8

[Metadata]
Title:jihad
TitleUnicode:jihad
Artist:KOTOKO
ArtistUnicode:KOTOKO
Creator:Mei
Version:Normal
Source:BALDR SKY Dive2 RECORDARE
Tags:C.G Mix I've Sound GIGA opening DarknessAngel
BeatmapID:457803
BeatmapSetID:165097

[Difficulty]
HPDrainRate:3
CircleSize:3
OverallDifficulty:3
ApproachRate:5
SliderMultiplier:1.2
SliderTickRate:1

[Events]
//Background and Video events
0,0,"BG.jpg",0,0
Video,0,"Opening2.flv"
//Break Periods
//Storyboard Layer 0 (Background)
//Storyboard Layer 1 (Fail)
//Storyboard Layer 2 (Pass)
//Storyboard Layer 3 (Foreground)
//Storyboard Sound Samples
//Background Colour Transformations
3,100,163,162,255

[TimingPoints]
769,333.333333333333,4,2,1,60,1,0
769,-100,4,2,0,40,0,0
20768,-100,4,2,1,60,0,0
21768,-100,4,1,1,60,0,0
22102,-100,4,2,1,60,0,0
32768,-100,4,2,2,40,0,0
42935,-100,4,3,1,60,0,0
43435,-100,4,2,1,60,0,0
64768,-100,4,2,1,60,0,1
90102,-100,4,1,1,50,0,1
91435,-100,4,2,1,60,0,0
111435,-100,4,2,2,30,0,0
116768,-100,4,2,1,5,0,0

[Colours]
Combo1 : 0,112,223
Combo2 : 248,230,7
Combo3 : 166,166,166
Combo4 : 242,24,57

[HitObjects]
72,108,769,6,0,B|124:76|124:76|260:64,2,180,2|0|0,0:0|0:0|0:0,0:0:0:0:
32,184,2102,2,0,B|44:276|44:276|136:324,2,180,2|0|0,0:0|0:0|0:0,0:0:0:0:
112,156,3435,1,2,0:0:0:0:
236,108,6102,6,0,L|40:136,2,180,2|0|0,0:0|0:0|0:0,0:0:0:0:
280,180,7435,2,0,L|476:208,2,180,2|0|0,0:0|0:0|0:0,0:0:0:0:
216,236,8768,2,0,L|20:264,2,180,2|0|0,0:0|0:0|0:0,0:0:0:0:
300,224,10102,1,2,0:0:0:0:
300,224,11435,6,0,P|340:296|440:364,2,180,2|0|0,0:0|0:0|0:0,0:0:0:0:
232,172,12768,2,0,P|192:100|92:32,2,180,2|0|0,0:0|0:0|0:0,0:0:0:0:
148,180,14102,6,0,P|105:250|96:371,2,180,2|0|0,0:0|0:0|0:0,0:0:0:0:
208,240,15435,2,0,P|290:241|399:188,2,180,0|0|0,0:0|0:0|0:0,0:0:0:0:
152,300,16768,6,0,P|100:240|48:116,1,180,4|0,0:0|0:0,0:0:0:0:
124,44,17768,1,2,0:0:0:0:
208,56,18102,2,0,P|284:36|404:28,1,180,4|0,0:0|0:0,0:0:0:0:
496,84,19102,1,2,0:0:0:0:
256,192,19435,12,4,20768,0:0:0:0:
136,228,21768,5,0,0:0:0:0:
220,248,22102,2,0,P|285:256|399:319,1,180,6|0,0:0|0:0,0:0:0:0:
416,336,22768,2,0,P|444:272|440:188,1,120,2|10,0:0|0:0,0:0:0:0:
460,140,23435,2,0,L|308:112,1,120,2|10,0:0|0:0,0:0:0:0:
324,36,24102,2,0,L|172:64,1,120,2|10,0:0|0:0,0:0:0:0:
124,64,24768,5,10,0:0:0:0:
60,116,25102,2,0,L|32:188,2,60,10|10|2,0:0|0:0|0:0,0:0:0:0:
124,172,25768,2,0,L|112:244,2,60,10|0|10,0:0|0:0|0:0,0:0:0:0:
196,216,26435,2,0,L|204:288,2,60,10|10|2,0:0|0:0|0:0,0:0:0:0:
264,168,27102,1,10,0:0:0:0:
296,244,27435,6,0,B|384:272|432:236|432:236|420:112,1,240,6|2,0:0|0:0,0:0:0:0:
364,80,28435,1,10,0:0:0:0:
292,36,28768,2,0,P|220:8|144:16,2,120,2|10|2,0:0|0:0|0:0,0:0:0:0:
296,120,29768,2,0,P|264:188|224:236,1,120,10|10,0:0|0:0,0:0:0:0:
68,220,30768,2,0,P|100:288|140:336,1,120,2|10,0:0|0:0,0:0:0:0:
204,360,31435,1,6,0:0:0:0:
324,88,32768,6,0,P|220:60|108:56,1,180,4|0,0:0|0:0,0:0:0:0:
68,36,33602,2,0,B|32:84|32:84|32:148,1,120,0|8,0:0|0:0,0:0:0:0:
32,188,34102,2,0,P|92:240|172:280,1,120,10|0,0:0|0:0,0:0:0:0:
164,280,34602,1,0,0:0:0:0:
328,308,35268,1,8,0:0:0:0:
368,296,35435,6,0,B|384:216|384:216|368:140,1,120,8|0,0:0|0:0,0:0:0:0:
408,152,35935,2,0,L|256:124,1,120,0|0,0:0|0:0,0:0:0:0:
252,116,36435,2,0,L|208:48,2,60,0|8|8,0:0|0:0|0:0,0:0:0:0:
256,200,37102,2,0,L|156:220,2,60,0|0|0,0:0|0:0|0:0,0:0:0:0:
424,224,38102,5,10,0:0:0:0:
380,296,38435,1,0,0:0:0:0:
300,320,38768,2,0,P|208:344|132:336,1,120,0|0,0:0|0:0,0:0:0:0:
100,348,39435,1,10,0:0:0:0:
36,292,39768,1,0,0:0:0:0:
48,208,40102,2,0,P|88:152|104:104,1,120,0|0,0:0|0:0,0:0:0:0:
188,92,40768,6,0,P|156:200|64:304,1,240,10|0,0:0|0:0,0:0:0:0:
104,376,41768,1,0,0:0:0:0:
184,348,42102,2,0,P|252:316|436:284,1,240,8|0,0:0|0:0,0:0:0:0:
456,280,42935,2,0,P|472:244|476:216,1,60,0|0,0:0|0:0,0:0:0:0:
476,140,43435,6,0,P|412:96|360:76,1,120,6|8,0:0|0:0,0:0:0:0:
288,68,44102,2,0,P|220:116|184:188,1,120,0|8,0:0|0:0,0:0:0:0:
120,120,44768,1,2,0:0:0:0:
48,164,45102,2,0,P|92:236|244:272,1,240,8|10,0:0|0:0,0:0:0:0:
316,304,46102,6,0,P|360:228|368:192,1,120,2|8,0:0|0:0,0:0:0:0:
452,212,46768,2,0,P|444:124|412:76,1,120,0|10,0:0|0:0,0:0:0:0:
348,120,47435,1,2,0:0:0:0:
288,60,47768,2,0,P|212:36|28:52,1,240,8|10,0:0|0:0,0:0:0:0:
20,120,48768,2,0,L|0:280,1,120,2|10,0:0|0:0,0:0:0:0:
88,228,49435,2,0,L|103:348,1,120,2|10,0:0|0:0,0:0:0:0:
180,308,50102,6,0,P|240:348|312:356,1,120,2|10,0:0|0:0,0:0:0:0:
336,292,50768,2,0,P|396:252|468:244,1,120,2|10,0:0|0:0,0:0:0:0:
496,308,51435,2,0,L|456:32,1,240,2|2,0:0|0:0,0:0:0:0:
256,192,52768,12,6,54102,0:0:0:0:
332,68,54602,6,0,P|280:156|280:280,1,180,10|10,0:0|0:0,0:0:0:0:
296,312,55435,2,0,B|392:284|392:284|476:228,2,180,10|10|8,0:0|0:0|0:0,0:0:0:0:
216,332,56768,6,0,P|176:276|200:136,1,180,6|10,0:0|0:0,0:0:0:0:
128,52,57768,1,10,0:0:0:0:
208,32,58102,2,0,B|292:64|292:64|404:40,2,180,10|10|8,0:0|0:0|0:0,0:0:0:0:
184,112,59435,6,0,L|376:184,2,180,6|10|8,0:0|0:0|0:0,0:0:0:0:
104,80,60768,2,0,P|31:128|19:214,1,180,2|10,0:0|0:0,0:0:0:0:
32,256,61435,2,0,L|152:320,1,120,2|8,0:0|0:0,0:0:0:0:
212,348,62102,6,0,P|281:339|380:271,2,180,2|10|10,0:0|0:0|0:0,0:0:0:0:
208,264,63435,2,0,P|284:244|320:216,1,120,4|4,0:0|0:0,0:0:0:0:
128,52,64768,5,6,0:0:0:0:
208,28,65102,1,10,0:0:0:0:
248,44,65268,2,0,P|320:84|376:80,1,120,10|0,0:0|0:0,0:0:0:0:
392,64,65768,2,0,P|416:108|440:184,1,120,10|10,0:0|0:0,0:0:0:0:
420,256,66435,1,10,0:0:0:0:
396,292,66602,2,0,P|292:320|236:308,1,120,10|0,0:0|0:0,0:0:0:0:
248,348,67102,2,0,P|180:296|164:244,1,120,10|10,0:0|0:0,0:0:0:0:
144,184,67768,5,10,0:0:0:0:
104,168,67935,2,0,B|72:120|72:120|63:18,1,120,10|0,0:0|0:0,0:0:0:0:
68,16,68435,2,0,L|208:12,1,120,10|10,0:0|0:0,0:0:0:0:
256,64,69102,2,0,L|304:12,2,60,10|10|2,0:0|0:0|0:0,0:0:0:0:
196,124,69768,1,10,0:0:0:0:
188,208,70102,5,6,0:0:0:0:
240,276,70435,1,10,0:0:0:0:
272,300,70602,2,0,P|372:340|416:340,1,120,10|0,0:0|0:0,0:0:0:0:
424,340,71102,2,0,P|480:280|508:220,1,120,10|10,0:0|0:0,0:0:0:0:
496,164,71768,1,10,0:0:0:0:
464,136,71935,2,0,L|316:116,1,120,10|0,0:0|0:0,0:0:0:0:
332,80,72435,2,0,P|248:48|184:48,1,120,10|8,0:0|0:0,0:0:0:0:
136,52,73102,6,0,L|72:16,2,60,10|8|2,0:0|0:0|0:0,0:0:0:0:
184,120,73768,1,8,0:0:0:0:
112,164,74102,1,10,0:0:0:0:
124,248,74435,5,6,0:0:0:0:
204,276,74768,1,6,0:0:0:0:
268,220,75102,1,14,0:0:0:0:
264,136,75435,6,0,P|332:88|412:84,1,120,6|10,0:0|0:0,0:0:0:0:
408,92,75935,1,10,0:0:0:0:
476,140,76268,2,0,P|484:176|480:216,1,60,0|10,0:0|0:0,0:0:0:0:
472,240,76602,1,10,0:0:0:0:
452,276,76768,2,0,P|361:301|316:302,1,120,10|10,0:0|0:0,0:0:0:0:
308,336,77268,2,0,P|232:319|131:266,1,180,10|10,0:0|0:0,0:0:0:0:
60,300,78102,6,0,P|32:232|24:156,1,120,10|10,0:0|0:0,0:0:0:0:
44,148,78602,2,0,P|124:172|248:164,1,180,10|10,0:0|0:0,0:0:0:0:
280,228,79435,2,0,L|384:140,1,120,10|10,0:0|0:0,0:0:0:0:
400,120,79935,1,10,0:0:0:0:
400,76,80102,2,0,P|312:48|240:56,1,120,2|10,0:0|0:0,0:0:0:0:
204,24,80768,6,0,P|116:76|84:116,1,120,6|10,0:0|0:0,0:0:0:0:
156,156,81435,2,0,P|116:236|104:308,1,120,10|10,0:0|0:0,0:0:0:0:
160,332,82102,1,10,0:0:0:0:
244,240,82602,6,0,P|294:272|338:312,1,120,10|2,0:0|0:0,0:0:0:0:
368,336,83102,2,0,P|396:328|440:308,1,60,10|8,0:0|0:0,0:0:0:0:
464,308,83435,2,0,P|503:244|508:156,1,120,10|10,0:0|0:0,0:0:0:0:
484,120,84102,2,0,P|434:87|375:73,1,120,2|8,0:0|0:0,0:0:0:0:
320,136,84768,2,0,P|304:108|296:56,2,60,10|0|10,0:0|0:0|0:0,0:0:0:0:
380,196,85435,2,0,P|396:168|404:116,2,60,2|8|10,0:0|0:0|0:0,0:0:0:0:
320,256,86102,5,10,0:0:0:0:
240,280,86435,1,10,0:0:0:0:
168,240,86768,1,2,0:0:0:0:
88,260,87102,1,10,0:0:0:0:
16,216,87435,1,10,0:0:0:0:
256,192,87768,12,4,90102,0:0:0:0:
96,84,91435,6,0,P|180:84|252:104,1,120,6|10,0:0|0:0,0:0:0:0:
300,92,92102,2,0,P|359:82|419:85,1,120,2|10,0:0|0:0,0:0:0:0:
484,136,92768,1,2,0:0:0:0:
504,216,93102,1,10,0:0:0:0:
492,300,93435,2,0,P|398:314|358:310,1,120,2|10,0:0|0:0,0:0:0:0:
288,316,94102,6,0,L|316:168,1,120,2|10,0:0|0:0,0:0:0:0:
316,156,94602,1,8,0:0:0:0:
324,116,94768,2,0,P|248:152|196:164,1,120,2|10,0:0|0:0,0:0:0:0:
156,100,95435,2,0,P|100:176|88:232,1,120,2|10,0:0|0:0,0:0:0:0:
88,240,95935,1,8,0:0:0:0:
88,284,96102,2,0,L|213:348,1,120,2|10,0:0|0:0,0:0:0:0:
276,364,96768,6,0,P|375:338|452:273,1,180,6|0,0:0|0:0,0:0:0:0:
460,260,97435,2,0,P|441:179|419:133,1,120,2|10,0:0|0:0,0:0:0:0:
384,72,98102,1,2,0:0:0:0:
308,36,98435,1,10,0:0:0:0:
236,80,98768,1,2,0:0:0:0:
164,40,99102,1,10,0:0:0:0:
100,96,99435,6,0,P|68:192|100:268,2,180,2|8|10,0:0|0:0|0:0,0:0:0:0:
164,40,100768,1,2,0:0:0:0:
204,52,100935,2,0,L|340:80,1,120,8|8,0:0|0:0,0:0:0:0:
348,44,101435,2,0,P|404:92|436:160,1,120,10|10,0:0|0:0,0:0:0:0:
476,200,102102,6,0,P|377:258|333:269,1,120,6|10,0:0|0:0,0:0:0:0:
344,336,102768,2,0,P|264:296|208:256,1,120,2|10,0:0|0:0,0:0:0:0:
156,264,103435,2,0,L|200:128,1,120,2|10,0:0|0:0,0:0:0:0:
112,132,104102,2,0,L|148:17,1,120,2|10,0:0|0:0,0:0:0:0:
228,52,104768,6,0,P|313:71|364:57,1,120,2|10,0:0|0:0,0:0:0:0:
380,40,105268,1,8,0:0:0:0:
416,20,105435,2,0,L|464:156,1,120,2|10,0:0|0:0,0:0:0:0:
476,216,106102,2,0,P|444:312|416:348,1,120,2|10,0:0|0:0,0:0:0:0:
404,356,106602,1,8,0:0:0:0:
364,360,106768,2,0,L|212:328,1,120,2|10,0:0|0:0,0:0:0:0:
164,348,107435,6,0,P|124:284|92:180,1,180,6|0,0:0|0:0,0:0:0:0:
52,168,108102,2,0,P|110:66|130:40,1,120,2|10,0:0|0:0,0:0:0:0:
192,36,108768,1,2,0:0:0:0:
228,112,109101,1,10,0:0:0:0:
276,44,109434,1,2,0:0:0:0:
308,120,109768,1,10,0:0:0:0:
256,192,110102,12,0,112768,0:0:0:0:
256,192,112935,12,0,116768,0:0:0:0:
