osu file format v14

[General]
AudioFilename: Opening2.mp3
AudioLeadIn: 0
PreviewTime: 64602
Countdown: 0
SampleSet: Soft
StackLeniency: 0.7
Mode: 0
LetterboxInBreaks: 1
WidescreenStoryboard: 1

[Editor]
Bookmarks: 11408,22075,32742,43408,54075,64741,91408,111407,112740
DistanceSpacing: 1.4
BeatDivisor: 4
GridSize: 4
TimelineZoom: 1.8

[Metadata]
Title:jihad
TitleUnicode:jihad
Artist:KOTOKO
ArtistUnicode:KOTOKO
Creator:Mei
Version:Insane
Source:BALDR SKY Dive2 RECORDARE
Tags:C.G Mix I've Sound GIGA opening DarknessAngel
BeatmapID:658686
BeatmapSetID:165097

[Difficulty]
HPDrainRate:7
CircleSize:4
OverallDifficulty:8
ApproachRate:9
SliderMultiplier:1.8
SliderTickRate:1

[Events]
//Background and Video events
0,0,"BG.jpg",0,0
Video,0,"Opening2.flv"
//Break Periods
//Storyboard Layer 0 (Background)
//Storyboard Layer 1 (Fail)
//Storyboard Layer 2 (Pass)
//Storyboard Layer 3 (Foreground)
//Storyboard Sound Samples

[TimingPoints]
769,333.333333333333,4,2,1,60,1,0
769,-200,4,2,0,40,0,0
5435,-100,4,2,1,5,0,0
6102,-200,4,2,0,40,0,0
11435,-200,4,2,0,40,0,0
16102,-100,4,2,1,5,0,0
16768,-200,4,2,0,40,0,0
20768,-100,4,2,1,60,0,0
21768,-100,4,1,1,60,0,0
22102,-100,4,2,1,60,0,0
32768,-125,4,2,2,40,0,0
42935,-100,4,3,1,60,0,0
43435,-100,4,2,1,60,0,0
64768,-83.3333333333333,4,2,1,60,0,1
90102,-83.3333333333333,4,1,1,50,0,1
91435,-100,4,2,1,60,0,0
111435,-100,4,2,2,30,0,0
116768,-100,4,2,1,5,0,0

[Colours]
Combo1 : 0,112,223
Combo2 : 248,230,7
Combo3 : 166,166,166
Combo4 : 242,24,57

[HitObjects]
136,80,769,6,0,P|124:124|120:180,1,90,2|0,0:0|0:0,0:0:0:0:
212,140,1268,2,0,P|264:164|208:288,1,225,0|2,0:0|0:0,0:0:0:0:
60,352,2434,1,0,0:0:0:0:
60,352,2602,2,0,P|96:348|160:352,1,90
256,368,3102,1,0,0:0:0:0:
256,192,3435,12,0,4768,0:0:0:0:
376,80,6102,6,0,P|388:124|392:180,1,90,2|0,0:0|0:0,0:0:0:0:
300,140,6601,2,0,P|248:164|304:288,1,225,0|2,0:0|0:0,0:0:0:0:
452,352,7767,1,0,0:0:0:0:
452,352,7935,2,0,P|416:348|352:352,1,90
256,368,8435,1,0,0:0:0:0:
256,192,8768,12,0,9768,0:0:0:0:
144,168,10102,6,0,P|136:192|248:160,1,270,2|0,0:0|0:0,0:0:0:0:
400,32,11435,5,6,0:0:0:0:
400,32,11935,2,0,P|384:60|380:120,1,90,0|0,0:0|0:0,0:0:0:0:
480,184,12435,2,0,L|428:196,1,45,0|0,0:0|0:0,0:0:0:0:
480,284,12768,2,0,P|444:276|372:272,1,90,2|0,0:0|0:0,0:0:0:0:
240,316,13268,2,0,P|272:298|330:255,1,90,0|0,0:0|0:0,0:0:0:0:
156,252,13768,2,0,L|160:308,1,45,0|0,0:0|0:0,0:0:0:0:
256,192,14102,1,2,0:0:0:0:
256,192,14268,12,0,16101,0:0:0:0:
104,100,16768,6,0,P|128:120|164:172,1,90,4|0,0:0|0:0,0:0:0:0:
72,220,17268,2,0,P|88:268|84:316,1,90,0|0,0:0|0:0,0:0:0:0:
180,360,17768,1,2,0:0:0:0:
240,296,17935,1,2,0:0:0:0:
320,336,18102,2,0,P|352:344|420:348,1,90,4|0,0:0|0:0,0:0:0:0:
504,248,18602,2,0,P|472:240|404:236,1,90,0|0,0:0|0:0,0:0:0:0:
340,144,19102,2,0,P|320:164|304:192,1,45,2|2,0:0|0:0,0:0:0:0:
240,296,19435,5,6,0:0:0:0:
88,200,19768,2,0,L|140:184,1,45,2|0,0:0|0:0,0:0:0:0:
328,48,20268,2,0,L|276:32,1,45,2|0,0:0|0:0,0:0:0:0:
103,158,20768,5,4,0:0:0:0:
219,298,20935,1,0,0:0:0:0:
219,298,21018,1,0,0:0:0:0:
219,298,21102,5,8,0:0:0:0:
198,205,21268,1,4,0:0:0:0:
139,366,21435,1,0,0:0:0:0:
308,336,21602,1,8,0:0:0:0:
96,190,21768,1,0,0:0:0:0:
104,158,21852,1,0,0:0:0:0:
124,134,21935,1,0,0:0:0:0:
148,114,22018,1,0,0:0:0:0:
180,110,22102,6,0,P|252:118|300:126,1,90,6|0,0:0|0:0,0:0:0:0:
452,264,22435,2,0,P|452:312|404:360,1,90,10|0,0:0|0:0,0:0:0:0:
232,304,22768,2,0,P|272:256|380:288,1,180,2|10,0:0|0:0,0:0:0:0:
220,52,23435,6,0,P|192:96|192:160,1,90,2|0,0:0|0:0,0:0:0:0:
156,280,23768,1,10,0:0:0:0:
240,204,23935,1,0,0:0:0:0:
356,216,24102,2,0,P|344:136|332:104,1,90,2|0,0:0|0:0,0:0:0:0:
220,52,24435,2,0,P|168:52|108:68,1,90,10|0,0:0|0:0,0:0:0:0:
12,160,24768,5,10,0:0:0:0:
56,32,24935,1,0,0:0:0:0:
100,188,25102,1,10,0:0:0:0:
264,220,25268,5,10,0:0:0:0:
100,188,25435,1,2,0:0:0:0:
148,328,25602,1,8,0:0:0:0:
264,220,25768,2,0,P|249:177|244:132,1,90,10|0,0:0|0:0,0:0:0:0:
392,28,26102,5,10,0:0:0:0:
444,180,26268,2,0,P|392:172|324:148,2,90,0|10|10,0:0|0:0|0:0,0:0:0:0:
304,72,26768,1,2,0:0:0:0:
344,248,26935,1,8,0:0:0:0:
132,148,27102,2,0,P|175:134|216:118,1,90,10|0,0:0|0:0,0:0:0:0:
264,256,27434,6,0,P|288:304|408:296,1,180,6|10,0:0|0:0,0:0:0:0:
312,156,27935,1,0,0:0:0:0:
312,156,28101,2,0,P|244:144|200:148,1,90,0|2,0:0|0:0,0:0:0:0:
120,112,28434,1,10,0:0:0:0:
224,344,28768,6,0,P|268:343|312:332,1,90,0|2,0:0|0:0,0:0:0:0:
476,252,29101,1,10,0:0:0:0:
384,348,29268,1,0,0:0:0:0:
264,256,29434,2,0,P|208:248|156:252,1,90,2|0,0:0|0:0,0:0:0:0:
20,144,29768,2,0,P|64:144|109:137,1,90,10|0,0:0|0:0,0:0:0:0:
292,112,30102,6,0,P|364:128|428:44,1,180,10|10,0:0|0:0,0:0:0:0:
204,116,30602,1,8,0:0:0:0:
204,116,30768,2,0,P|199:161|195:206,1,90,2|8,0:0|0:0,0:0:0:0:
84,204,31102,2,0,P|88:248|93:293,1,90,10|8,0:0|0:0,0:0:0:0:
204,352,31435,1,6,0:0:0:0:
364,80,32102,6,0,L|324:88,13,22.5,0|0|0|0|0|0|0|0|0|0|0|0|0|0,0:0|0:0|0:0|0:0|0:0|0:0|0:0|0:0|0:0|0:0|0:0|0:0|0:0|0:0,0:0:0:0:
276,112,32768,6,0,P|204:140|128:108,1,144,4|0,0:0|0:0,0:0:0:0:
68,60,33268,1,0,0:0:0:0:
44,80,33601,1,0,0:0:0:0:
88,156,33768,1,2,0:0:0:0:
40,228,33934,1,8,0:0:0:0:
40,228,34101,6,0,B|100:244|100:244|120:236|120:236|180:252,1,144,10|0,0:0|0:0,0:0:0:0:
144,324,34601,1,0,0:0:0:0:
420,96,35102,1,0,0:0:0:0:
348,48,35268,1,8,0:0:0:0:
280,104,35434,6,0,P|224:108|112:120,1,144,8|0,0:0|0:0,0:0:0:0:
264,196,35934,2,0,P|208:200|96:212,1,144
308,284,36434,1,0,0:0:0:0:
224,300,36601,1,0,0:0:0:0:
140,320,36768,6,0,P|88:328|28:244,1,144,8|0,0:0|0:0,0:0:0:0:
44,180,37268,2,0,L|92:24,1,144
86,42,37768,1,0,0:0:0:0:
484,176,38102,6,0,P|512:244|508:264,1,72,10|0,0:0|0:0,0:0:0:0:
488,324,38435,1,0,0:0:0:0:
408,288,38602,1,0,0:0:0:0:
348,348,38768,2,0,P|320:284|368:216,1,144
191,43,39434,6,0,L|120:52,2,72,10|0|0,0:0|0:0|0:0,0:0:0:0:
192,152,39935,1,0,0:0:0:0:
192,152,40101,2,0,P|128:144|40:140,1,144
320,232,40768,6,0,P|384:240|472:244,2,144,10|0|0,0:0|0:0|0:0,0:0:0:0:
232,220,41601,1,0,0:0:0:0:
224,132,41768,1,0,0:0:0:0:
160,272,41935,1,8,0:0:0:0:
320,232,42102,5,8,0:0:0:0:
336,248,42435,1,0,0:0:0:0:
308,68,42935,5,0,0:0:0:0:
232,116,43102,1,0,0:0:0:0:
140,120,43269,1,0,0:0:0:0:
52,112,43435,6,0,P|112:140|184:240,1,180,6|8,0:0|0:0,0:0:0:0:
240,336,43935,2,0,P|196:345|151:341,1,90,2|0,0:0|0:0,0:0:0:0:
384,272,44268,1,0,0:0:0:0:
240,336,44435,1,8,0:0:0:0:
340,204,44602,1,2,0:0:0:0:
368,352,44768,6,0,P|312:308|296:260,1,90,2|0,0:0|0:0,0:0:0:0:
248,136,45102,2,0,L|244:244,2,90,8|2|0,0:0|0:0|0:0,0:0:0:0:
240,336,45602,1,0,0:0:0:0:
68,296,45768,2,0,P|108:268|172:252,1,90,10|2,0:0|0:0,0:0:0:0:
248,136,46102,6,0,P|180:164|72:136,1,180,2|8,0:0|0:0,0:0:0:0:
320,200,46602,2,0,P|272:236|232:284,1,90,2|0,0:0|0:0,0:0:0:0:
364,312,46935,1,0,0:0:0:0:
376,124,47102,2,0,P|400:156|412:220,1,90,10|2,0:0|0:0,0:0:0:0:
408,12,47435,5,2,0:0:0:0:
296,88,47602,2,0,L|188:84,2,90,0|8|2,0:0|0:0|0:0,0:0:0:0:
108,36,48102,2,0,B|92:80|92:80|108:140,1,90,2|0,0:0|0:0,0:0:0:0:
236,280,48435,2,0,B|252:236|252:236|236:176,1,90,10|2,0:0|0:0,0:0:0:0:
32,264,48768,6,0,L|144:240,1,90,2|0,0:0|0:0,0:0:0:0:
80,352,49101,2,0,L|192:328,1,90,10|2,0:0|0:0,0:0:0:0:
444,148,49434,2,0,L|332:124,1,90,2|0,0:0|0:0,0:0:0:0:
396,236,49767,2,0,L|284:212,1,90,10|0,0:0|0:0,0:0:0:0:
116,40,50101,6,0,L|104:148,1,90,2|2,0:0|0:0,0:0:0:0:
196,112,50434,2,0,L|184:220,1,90,10|0,0:0|0:0,0:0:0:0:
332,348,50768,2,0,L|322:258,1,90,2|2,0:0|0:0,0:0:0:0:
412,276,51101,2,0,L|402:186,1,90,10|2,0:0|0:0,0:0:0:0:
312,40,51434,5,0,0:0:0:0:
240,96,51601,2,0,P|288:132|328:128,2,90,0|8|2,0:0|0:0|0:0,0:0:0:0:
136,44,52101,2,0,P|64:52|52:164,1,180,2|10,0:0|0:0,0:0:0:0:
144,240,52602,1,2,0:0:0:0:
144,240,52768,6,0,L|256:232,1,90,10|0,0:0|0:0,0:0:0:0:
288,316,53102,1,10,0:0:0:0:
356,148,53268,1,8,0:0:0:0:
380,280,53435,5,0,0:0:0:0:
256,148,53602,1,10,0:0:0:0:
424,72,53768,1,10,0:0:0:0:
240,24,53935,1,10,0:0:0:0:
204,52,54018,1,8,0:0:0:0:
180,92,54102,6,0,P|168:152|176:200,1,90,6|0,0:0|0:0,0:0:0:0:
344,364,54435,1,2,0:0:0:0:
184,328,54602,2,0,B|144:316|144:316|100:284,1,90,10|0,0:0|0:0,0:0:0:0:
32,184,54935,1,0,0:0:0:0:
32,184,55102,2,0,L|144:176,1,90,10|0,0:0|0:0,0:0:0:0:
184,328,55435,6,0,P|240:284|268:152,1,180,10|0,0:0|0:0,0:0:0:0:
148,208,55935,2,0,P|168:139|115:15,1,180,10|2,0:0|0:0,0:0:0:0:
184,328,56435,1,8,0:0:0:0:
276,292,56602,1,8,0:0:0:0:
372,316,56768,6,0,P|432:344|472:344,1,90,6|0,0:0|0:0,0:0:0:0:
512,140,57102,1,2,0:0:0:0:
392,152,57268,2,0,B|356:184|356:184|344:248,1,90,10|0,0:0|0:0,0:0:0:0:
512,280,57602,1,0,0:0:0:0:
512,280,57768,2,0,L|436:232,1,90,10|0,0:0|0:0,0:0:0:0:
248,76,58102,6,0,P|320:84|432:32,1,180,10|0,0:0|0:0,0:0:0:0:
374,215,58602,2,0,P|450:168|496:92,1,180,10|2,0:0|0:0,0:0:0:0:
268,164,59102,1,8,0:0:0:0:
208,240,59268,1,8,0:0:0:0:
252,328,59435,5,6,0:0:0:0:
48,312,59602,2,0,P|100:276|156:248,1,90,0|8,0:0|0:0,0:0:0:0:
300,256,59935,1,10,0:0:0:0:
44,200,60102,2,0,P|96:164|152:136,1,90,2|8,0:0|0:0,0:0:0:0:
336,100,60435,2,0,P|284:64|228:36,1,90,8|0,0:0|0:0,0:0:0:0:
268,164,60768,5,2,0:0:0:0:
440,100,60935,2,0,L|412:192,1,90,0|8,0:0|0:0,0:0:0:0:
268,164,61268,1,10,0:0:0:0:
440,320,61435,2,0,P|396:268|356:236,1,90,2|10,0:0|0:0,0:0:0:0:
248,360,61768,2,0,P|332:348|368:332,1,90,8|0,0:0|0:0,0:0:0:0:
168,240,62102,6,0,L|152:344,1,90,2|0,0:0|0:0,0:0:0:0:
268,164,62435,1,8,0:0:0:0:
100,100,62602,2,0,L|116:-4,2,90,10|2|0,0:0|0:0|0:0,0:0:0:0:
260,244,63101,2,0,P|304:232|328:216,1,45,8|0,3:0|0:0,0:0:0:0:
308,96,63268,2,0,P|286:88|264:84,1,45,2|0,3:0|0:0,0:0:0:0:
84,196,63434,6,0,B|76:252|76:252|96:284|96:284|80:392,2,180,6|6|0,0:0|0:0|0:0,0:0:0:0:
64,180,64434,5,8,3:0:0:0:
172,164,64601,1,10,3:0:0:0:
300,140,64768,6,0,L|436:116,1,107.999996704102,4|0,0:0|0:0,0:0:0:0:
344,272,65101,1,8,0:0:0:0:
344,272,65268,2,0,P|300:328|172:264,1,215.999993408203,0|2,0:0|0:0,0:0:0:0:
260,244,65768,1,8,0:0:0:0:
64,296,65934,1,0,0:0:0:0:
144,84,66101,5,2,0:0:0:0:
144,84,66268,2,0,L|148:200,1,107.999996704102,0|8,0:0|0:0,0:0:0:0:
312,164,66601,2,0,P|344:232|256:348,1,215.999993408203,2|2,0:0|0:0,0:0:0:0:
135,266,67101,1,8,0:0:0:0:
300,80,67268,1,0,0:0:0:0:
60,32,67434,5,2,0:0:0:0:
200,176,67601,1,0,0:0:0:0:
380,24,67768,1,8,0:0:0:0:
460,212,67934,2,0,B|396:204|396:204|364:232|364:232|255:220,1,215.999993408203,2|2,0:0|0:0,0:0:0:0:
36,236,68434,2,0,L|156:220,1,107.999996704102,8|0,0:0|0:0,0:0:0:0:
384,268,68768,6,0,P|360:336|228:332,1,215.999993408203,2|8,0:0|0:0,0:0:0:0:
432,144,69268,1,0,0:0:0:0:
452,156,69351,1,0,0:0:0:0:
472,168,69434,2,0,L|456:296,1,107.999996704102,2|2,0:0|0:0,0:0:0:0:
272,216,69768,2,0,L|288:88,1,107.999996704102,8|0,0:0|0:0,0:0:0:0:
396,24,70101,6,0,L|370:238,1,215.999993408203,4|8,0:0|0:0,0:0:0:0:
208,368,70601,1,0,0:0:0:0:
24,256,70768,1,2,0:0:0:0:
116,68,70934,2,0,P|180:56|244:56,2,107.999996704102,2|8|0,0:0|0:0|0:0,0:0:0:0:
24,256,71434,6,0,L|6:363,2,107.999996704102,2|0|8,0:0|0:0|0:0,0:0:0:0:
244,155,71934,2,0,L|208:368,1,215.999993408203,2|2,0:0|0:0,0:0:0:0:
146,245,72434,1,8,0:0:0:0:
328,176,72601,1,0,0:0:0:0:
48,32,72768,6,0,L|56:192,1,107.999996704102,4|0,0:0|0:0,0:0:0:0:
60,268,73101,1,8,0:0:0:0:
256,344,73268,2,0,L|256:200,1,107.999996704102,0|2,0:0|0:0,0:0:0:0:
260,108,73601,1,2,0:0:0:0:
464,32,73768,2,0,L|456:192,1,107.999996704102,8|0,0:0|0:0,0:0:0:0:
452,268,74101,1,2,0:0:0:0:
328,176,74268,1,2,0:0:0:0:
344,320,74434,5,12,0:0:0:0:
376,88,74601,1,0,0:0:0:0:
228,252,74768,1,14,0:0:0:0:
444,184,74934,1,2,0:0:0:0:
236,32,75101,1,14,0:0:0:0:
60,252,75268,1,2,0:0:0:0:
356,160,75435,5,4,0:0:0:0:
268,120,75601,2,0,P|262:173|281:223,1,107.999996704102,0|8,0:0|0:0,0:0:0:0:
348,64,75934,2,0,P|280:32|116:64,1,215.999993408203,0|2,0:0|0:0,0:0:0:0:
144,272,76435,1,8,0:0:0:0:
268,120,76602,1,0,0:0:0:0:
64,24,76768,6,0,L|64:156,1,107.999996704102,2|0,0:0|0:0,0:0:0:0:
132,348,77101,1,8,0:0:0:0:
328,176,77268,2,0,P|272:212|196:88,1,215.999993408203,0|2,0:0|0:0,0:0:0:0:
412,120,77768,2,0,P|420:176|412:228,1,107.999996704102,8|0,0:0|0:0,0:0:0:0:
268,120,78102,5,2,0:0:0:0:
348,16,78268,1,0,0:0:0:0:
160,48,78434,1,8,0:0:0:0:
412,120,78601,2,0,P|432:204|396:352,1,215.999993408203,0|2,0:0|0:0,0:0:0:0:
256,336,79101,2,0,L|100:328,1,107.999996704102,8|0,0:0|0:0,0:0:0:0:
240,48,79434,6,0,P|192:96|276:200,1,215.999993408203,2|8,0:0|0:0,0:0:0:0:
408,20,79935,1,0,0:0:0:0:
268,120,80102,1,2,0:0:0:0:
412,188,80268,2,0,B|468:180|468:180|516:208,1,107.999996704102,2|8,0:0|0:0,0:0:0:0:
272,332,80601,1,8,0:0:0:0:
272,332,80768,6,0,B|200:360|200:360|112:340,1,161.999995056153,4|0,0:0|0:0,0:0:0:0:
60,288,81101,2,0,L|56:168,1,107.999996704102,8|0,0:0|0:0,0:0:0:0:
352,8,81434,2,0,L|356:208,1,161.999995056153,2|0,0:0|0:0,0:0:0:0:
332,252,81768,1,8,0:0:0:0:
476,192,81934,1,0,0:0:0:0:
476,192,82018,1,0,0:0:0:0:
476,192,82101,5,10,0:0:0:0:
264,152,82268,1,0,0:0:0:0:
480,56,82434,1,8,0:0:0:0:
204,88,82601,6,0,P|180:160|288:244,1,215.999993408203,8|2,0:0|0:0,0:0:0:0:
371,143,83101,2,0,P|317:145|264:152,1,107.999996704102,8|0,0:0|0:0,0:0:0:0:
132,340,83435,5,4,0:0:0:0:
256,344,83601,2,0,L|272:196,1,107.999996704102,0|8,0:0|0:0,0:0:0:0:
280,48,83934,1,0,0:0:0:0:
160,168,84101,2,0,P|132:220|152:280,1,107.999996704102,2|2,0:0|0:0,0:0:0:0:
368,288,84434,2,0,P|396:236|376:176,1,107.999996704102,8|0,0:0|0:0,0:0:0:0:
280,48,84768,6,0,L|260:276,1,215.999993408203,10|8,0:0|0:0,0:0:0:0:
320,360,85268,1,8,0:0:0:0:
164,372,85434,2,0,P|136:312|160:260,1,107.999996704102,2|10,0:0|0:0,0:0:0:0:
368,200,85768,1,10,0:0:0:0:
184,84,85935,1,8,0:0:0:0:
360,12,86101,6,0,P|372:60|372:132,1,107.999996704102,6|0,0:0|0:0,0:0:0:0:
164,352,86434,2,0,P|152:304|152:232,1,107.999996704102,8|0,0:0|0:0,0:0:0:0:
432,264,86768,2,0,P|384:276|312:276,1,107.999996704102,2|2,0:0|0:0,0:0:0:0:
100,132,87101,2,0,P|153:133|206:145,1,107.999996704102,8|0,0:0|0:0,0:0:0:0:
260,212,87435,5,2,0:0:0:0:
260,212,87768,1,8,0:0:0:0:
352,128,87934,2,0,L|360:8,2,107.999996704102,0|2|2,0:0|0:0|0:0,0:0:0:0:
188,264,88434,2,0,P|248:292|312:284,1,107.999996704102,8|0,0:0|0:0,0:0:0:0:
428,224,88768,1,2,0:0:0:0:
388,72,90102,5,4,0:3:0:0:
232,144,90268,1,0,0:0:0:0:
232,144,90435,1,8,0:0:0:0:
444,136,90602,1,8,0:3:0:0:
296,28,90768,1,2,0:2:0:0:
284,224,90935,5,2,0:2:0:0:
192,52,91102,1,10,0:2:0:0:
160,80,91185,1,2,0:2:0:0:
148,120,91268,1,2,0:2:0:0:
148,164,91352,1,2,0:2:0:0:
164,196,91435,6,0,P|212:248|228:280,1,90,6|0,0:0|0:0,0:0:0:0:
376,284,91768,2,0,P|328:336|312:368,1,90,10|0,0:0|0:0,0:0:0:0:
468,328,92102,2,0,P|480:252|460:120,1,180,2|10,0:0|0:0,0:0:0:0:
48,48,92768,5,2,0:0:0:0:
4,144,92934,1,0,0:0:0:0:
60,236,93101,2,0,P|64:288|60:332,1,90,10|0,0:0|0:0,0:0:0:0:
160,372,93435,1,2,0:0:0:0:
252,312,93602,2,0,P|309:302|344:304,2,90,0|10|0,0:0|0:0|0:0,0:0:0:0:
160,224,94101,6,0,B|132:168|184:168|160:72,1,135,2|0,0:0|0:0,0:0:0:0:
148,60,94434,2,0,L|32:48,1,90,8|0,0:0|0:0,0:0:0:0:
228,192,94768,2,0,L|344:180,2,90,2|0|8,0:0|0:0|0:0,0:0:0:0:
12,352,95434,6,0,P|32:364|164:344,1,135,2|0,0:0|0:0,0:0:0:0:
164,340,95768,2,0,P|192:324|260:320,1,90,8|0,0:0|0:0,0:0:0:0:
336,348,96101,1,2,0:0:0:0:
272,248,96268,1,0,0:0:0:0:
424,160,96434,2,0,L|408:264,1,90,8|0,0:0|0:0,0:0:0:0:
504,140,96768,6,0,P|480:96|352:112,1,180,4|8,0:0|0:0,0:0:0:0:
272,248,97268,1,2,0:0:0:0:
272,248,97434,2,0,P|264:192|248:152,1,90
72,52,97768,2,0,P|128:80|172:80,1,90,10|0,0:0|0:0,0:0:0:0:
376,24,98101,6,0,P|356:68|344:124,1,90,2|0,0:0|0:0,0:0:0:0:
368,292,98434,2,0,P|420:284|488:284,1,90,8|0,0:0|0:0,0:0:0:0:
244,168,98768,2,0,P|192:176|124:176,1,90,2|0,0:0|0:0,0:0:0:0:
240,324,99101,1,8,0:0:0:0:
344,208,99268,1,2,0:0:0:0:
184,92,99434,6,0,P|104:84|-4:92,1,180,2|8,0:0|0:0,0:0:0:0:
176,252,99934,1,2,0:0:0:0:
260,156,100101,2,0,P|280:100|280:52,1,90
100,236,100434,2,0,P|108:304|200:324,1,135,8|0,0:0|0:0,0:0:0:0:
208,332,100768,6,0,P|260:320|308:312,1,90,2|0,0:0|0:0,0:0:0:0:
460,336,101101,1,10,0:0:0:0:
460,336,101268,1,8,0:0:0:0:
312,224,101434,1,2,0:0:0:0:
312,224,101601,1,0,0:0:0:0:
512,68,101768,1,10,0:0:0:0:
512,68,101934,1,10,0:0:0:0:
404,196,102102,5,6,0:0:0:0:
380,224,102434,2,0,L|388:340,1,90,10|0,0:0|0:0,0:0:0:0:
256,372,102768,2,0,B|236:312|284:312|256:176,1,180,2|10,0:0|0:0,0:0:0:0:
260,76,103268,1,0,0:0:0:0:
132,224,103434,6,0,L|124:340,1,90,2|0,0:0|0:0,0:0:0:0:
128,32,103768,2,0,L|132:140,1,90,10|0,0:0|0:0,0:0:0:0:
380,121,104101,2,0,L|384:32,1,90,2|0,0:0|0:0,0:0:0:0:
386,313,104435,2,0,L|380:224,1,90,10|0,0:0|0:0,0:0:0:0:
248,360,104768,6,0,L|272:192,1,135,2|0,0:0|0:0,0:0:0:0:
268,192,105101,2,0,P|236:156|180:140,1,90,8|0,0:0|0:0,0:0:0:0:
192,224,105435,1,2,0:0:0:0:
192,52,105602,1,0,0:0:0:0:
360,96,105768,2,0,L|456:100,1,90,10|0,0:0|0:0,0:0:0:0:
504,244,106101,6,0,P|456:264|360:248,1,135,2|0,0:0|0:0,0:0:0:0:
348,244,106434,2,0,P|292:236|232:240,1,90,8|0,0:0|0:0,0:0:0:0:
96,216,106768,1,2,0:0:0:0:
168,328,106935,1,2,0:0:0:0:
258,236,107101,2,0,P|268:176|272:140,1,90,10|0,0:0|0:0,0:0:0:0:
176,48,107434,6,0,P|132:108|224:180,1,180,6|8,0:0|0:0,0:0:0:0:
380,112,107935,1,0,0:0:0:0:
380,112,108102,2,0,L|500:104,1,90,2|0,0:0|0:0,0:0:0:0:
500,264,108434,2,0,L|410:258,1,90,10|0,0:0|0:0,0:0:0:0:
296,352,108768,6,0,P|280:284|264:252,1,90,2|0,0:0|0:0,0:0:0:0:
196,116,109101,2,0,P|176:184|176:244,1,90,10|0,0:0|0:0,0:0:0:0:
280,76,109434,2,0,P|240:40|196:12,1,90,2|0,0:0|0:0,0:0:0:0:
80,104,109768,2,0,P|32:140|-28:168,1,90,8|2,0:0|0:0,0:0:0:0:
24,312,110101,6,0,P|88:304|144:308,1,90,8|0,0:0|0:0,0:0:0:0:
496,340,110602,1,10,0:0:0:0:
496,340,110768,1,10,0:0:0:0:
200,200,111102,1,10,0:0:0:0:
256,192,111435,12,0,112768,0:0:0:0:
256,192,112852,12,0,116768,0:0:0:0:
