osu file format v7

[General]
AudioFilename: Natsuyume Nagisa.mp3
AudioLeadIn: 500
PreviewTime: 66009
Countdown: 0
SampleSet: Soft
StackLeniency: 0.7
Mode: 0
LetterboxInBreaks: 1

[Editor]
Bookmarks: 1281,32854,66009
DistanceSpacing: 0.800000011920929
BeatDivisor: 4
GridSize: 8

[Metadata]
Title:bumpy-Jumpy!
Artist:KOTOKO
Creator:MeLLoN
Version:Hard
Source:Natsuyume Nagisa
Tags:saga planets Cyborg taka1235 frost-b-spec

[Difficulty]
HPDrainRate:7
CircleSize:5
OverallDifficulty:7
SliderMultiplier:1.7
SliderTickRate:1

[Events]
//Background and Video events
0,0,"Natsu#Picture.jpg"
Video,0,"Natsu#Movie.wmv"
//Break Periods
//Storyboard Layer 0 (Background)
//Storyboard Layer 1 (Fail)
//Storyboard Layer 2 (Pass)
//Storyboard Layer 3 (Foreground)
//Storyboard Sound Samples
//Background Colour Transformations
3,100,0,0,0

[TimingPoints]
1342,315.789473684211,4,2,0,60,1,0
9473,-100,4,2,0,20,0,0
10105,-100,4,2,0,10,0,0
11368,-100,4,1,0,50,0,0
20999,-200,4,1,0,70,0,0
21473,-100,4,1,0,70,0,0
21552,-100,4,1,0,70,0,1
21631,-100,4,1,0,70,0,0
32842,-100,4,2,0,80,0,0
41684,-100,4,1,0,50,0,0
43026,-100,4,2,0,80,0,0
51789,-100,4,1,0,50,0,0
65999,-100,4,2,0,100,0,0
66078,-100,4,2,0,100,0,1
70105,-100,4,2,0,100,0,0
75157,-100,4,1,0,70,0,0
76105,-100,4,2,0,100,0,0
76184,-100,4,2,0,100,0,1
83368,-100,4,1,0,70,0,1
86210,-100,4,2,0,80,0,0
103578,-100,4,1,0,50,0,0
106105,-100,4,1,0,60,0,0
106184,-100,4,1,0,60,0,1
106263,-100,4,2,0,0,0,0

[Colours]
Combo1 : 164,164,164
Combo2 : 119,119,255
Combo3 : 254,191,1
Combo4 : 255,128,191
Combo5 : 98,49,49

[HitObjects]
368,112,1341,1,4
256,184,1657,2,0,B|168:184,2,85,0|0|2
368,112,2289,1,0
368,248,2605,1,2
256,320,2920,1,0
192,304,3078,1,0
160,248,3236,1,2
160,112,3552,5,0
96,112,3710,1,0
160,112,3868,2,0,B|336:112,1,170,4|0
424,176,4342,2,0,B|240:176,1,170,0|0
160,248,4815,2,0,B|336:248,1,170,0|2
330,248,5289,1,0
330,248,5447,1,0
330,248,5605,1,0
330,248,5763,1,2
224,328,6078,6,0,B|136:328,1,85
72,328,6394,1,4
72,192,6710,2,0,B|72:104,1,85
120,152,7026,2,0,B|144:64,1,85,2|0
176,128,7342,1,0
304,96,7657,5,4
408,192,7973,1,0
376,248,8131,1,0
240,224,8447,1,0
176,232,8605,1,2
168,296,8763,1,0
224,328,8920,1,4
256,192,9552,5,0
256,192,9868,1,2
256,192,10026,1,0
256,192,10184,2,0,B|256:224,24,21.25
136,312,11447,6,0,B|48:312,2,85
136,176,12078,1,0
192,208,12236,2,0,B|168:248|112:240,2,85
192,136,12710,2,0,B|160:96|96:120,2,85,2|0|0
248,104,13184,1,2
312,112,13342,1,0
360,152,13499,1,2
256,336,13973,6,0,B|344:336,2,85
136,272,14605,1,0
120,208,14763,2,0,B|88:128,1,85
152,152,15078,2,0,B|152:64,1,85
280,104,15552,1,0
280,104,15710,1,0
304,168,15868,2,0,B|392:168,1,85
336,232,16184,2,0,B|424:232,1,85
240,328,16815,5,0
104,328,17131,1,0
104,328,17210,1,0
104,328,17289,1,0
136,272,17447,2,0,B|136:184,1,85
232,96,17920,2,0,B|144:96,1,85
80,96,18236,1,0
112,152,18394,1,0
168,184,18552,1,0
256,192,18868,12,0,20920
256,192,21078,6,0,B|256:240,2,42.5,8|0|8
256,192,21552,1,4
328,80,21868,5,0
328,80,22026,1,0
160,192,22499,1,0
96,192,22657,1,0
160,192,22815,1,0
208,320,23131,2,0,B|296:320,1,85
360,320,23447,1,0
360,320,23526,1,0
360,320,23605,1,0
392,264,23763,6,0,B|392:176,1,85
392,112,24078,2,0,B|368:64|304:64,2,85,0|0|0
328,136,24552,2,0,B|248:168|160:136,1,170
160,232,25026,2,0,B|248:200|328:232,1,170,0|0
288,288,25499,5,0
240,336,25657,1,0
192,288,25815,1,0
144,336,25973,1,0
88,216,26289,6,0,B|88:128|136:40,1,170,0|0
129,52,26763,1,0
129,52,26920,1,0
200,48,27078,2,0,B|144:144|152:224,1,170
151,208,27552,1,0
264,136,27868,6,0,B|352:136,1,85,0|0
376,200,28184,2,0,B|288:200,1,85,0|0
184,280,28657,1,0
216,336,28815,1,0
280,344,28973,1,0
328,296,29131,1,0
224,208,29447,6,0,B|176:208|160:160,2,85,0|0|0
224,144,29920,2,0,B|208:96|152:96,2,85,0|0|0
280,176,30394,1,0
368,72,30710,6,0,B|368:160,1,85
416,200,31026,1,0
368,248,31184,1,0
320,200,31342,1,0
256,320,31657,5,0
232,320,31736,1,0
208,320,31815,1,0
168,264,31973,1,0
144,264,32052,1,0
120,264,32131,1,0
80,208,32289,2,0,B|80:120,1,85
136,88,32605,2,0,B|136:40,2,42.5
192,128,32920,5,0
256,128,33078,1,0
232,192,33236,2,0,B|320:192,1,85,8|0
368,232,33552,1,0
368,296,33710,2,0,B|456:296,2,85,0|8|0
312,264,34184,1,0
256,296,34342,1,0
200,328,34499,2,0,B|152:328|128:288,2,85,8|0|0
256,296,34973,1,0
200,264,35131,1,8
128,152,35447,6,0,B|128:104|168:72,1,85
216,40,35763,1,8
272,80,35920,1,0
216,120,36078,2,0,B|248:160|296:144,1,85
336,96,36394,2,0,B|344:40|288:16,2,85,8|0|0
384,144,36868,1,0
384,208,37026,2,0,B|384:256|336:280,1,85,8|0
400,312,37342,2,0,B|368:344|320:344,1,85
280,296,37657,1,8
152,344,37973,6,0,B|64:344,1,85
112,296,38289,2,0,B|48:232,1,85,8|0
120,232,38605,2,0,B|120:144,2,85,0|0|8
176,200,39078,1,0
216,248,39236,2,0,B|240:288|224:336,2,85,0|0|8
176,200,39710,1,0
120,168,39868,2,0,B|88:136|88:88,2,85,0|0|8
232,96,40499,5,0
232,96,40578,1,0
232,96,40657,1,0
296,96,40815,2,0,B|344:96|360:144,1,85,8|0
296,160,41131,2,0,B|224:232,1,85
235,220,41447,1,8
312,240,41605,1,0
344,304,41763,6,0,B|344:328|320:344,2,42.5
312,240,42078,1,0
312,240,42157,1,0
312,240,42236,1,0
272,296,42394,2,0,B|184:296,1,85
120,296,42710,1,0
96,280,42789,1,0
88,256,42868,1,0
96,232,42947,1,0
120,216,43026,6,0,B|208:216,2,85,0|0|8
72,168,43499,2,0,B|56:120|80:80,2,85
128,128,43973,1,8
144,64,44131,1,0
208,40,44289,2,0,B|232:88|184:120,1,85
168,176,44605,1,8
232,176,44763,1,0
264,120,44920,2,0,B|352:120,1,85
384,176,45236,1,8
432,304,45552,5,0
384,352,45710,2,0,B|328:360|304:304,1,85,0|8
368,288,46026,1,0
312,256,46184,1,0
248,240,46342,2,0,B|248:328,1,85,0|8
248,325,46657,1,0
192,360,46815,1,0
136,328,46973,1,0
192,296,47131,1,8
136,264,47289,2,0,B|88:264|64:216,2,85
192,232,47763,1,8
144,112,48078,5,0
200,80,48236,1,0
200,80,48315,1,0
200,80,48394,1,8
256,48,48552,2,0,B|352:48,1,85,0|0
320,112,48868,2,0,B|408:112,1,85,0|8
456,152,49184,1,0
392,176,49342,2,0,B|304:176|224:224,1,170,0|8
192,272,49815,1,0
256,288,49973,2,0,B|304:288|352:256,2,85,0|0|8
128,248,50605,5,0
96,192,50763,1,0
128,136,50920,1,8
96,80,51078,1,0
224,48,51394,2,0,B|312:48|400:88,1,170
440,128,51868,5,0
448,200,52026,1,0
384,240,52184,1,0
344,304,52342,1,0
272,296,52499,1,0
256,224,52657,1,0
184,232,52815,1,0
136,176,52973,1,0
152,104,53131,1,0
272,48,53447,6,0,B|320:48|352:80,1,85,0|0
368,144,53763,2,0,B|320:152|288:112,1,85
232,144,54078,1,0
280,192,54236,2,0,B|368:224|400:312,1,170
344,344,54710,2,0,B|256:344,1,85,0|0
272,280,55026,6,0,B|176:280,1,85
187,280,55342,1,0
144,328,55499,1,0
88,296,55657,1,0
56,240,55815,1,0
72,176,55973,1,0
120,128,56131,2,0,B|160:96|208:104,2,85
152,184,56605,1,0
208,216,56763,5,0
272,216,56920,2,2,B|448:216,1,170
352,120,57552,2,0,B|176:120,2,170,2|2|0
272,216,58499,5,0
320,344,58815,2,0,B|224:344,1,85
168,280,59131,2,0,B|256:280,1,85
320,272,59447,1,0
320,272,59605,1,0
384,248,59763,2,0,B|424:224|424:176,2,85
328,208,60236,1,0
352,144,60394,1,0
240,72,60710,5,0
176,72,60868,1,0
120,104,61026,1,0
104,168,61184,1,0
240,168,61499,2,0,B|240:216|200:248,1,85
160,288,61815,5,0
216,328,61973,2,0,B|256:352|304:336,1,85
272,272,62289,2,0,B|328:280|376:248,1,85
360,328,62605,2,0,B|408:312|432:264,1,85
448,216,62920,5,0
456,152,63078,1,0
416,96,63236,2,0,B|352:32,1,85,2|0
352,104,63552,2,0,B|272:48,1,85,2|0
288,120,63868,2,0,B|200:88,1,85,2|0
232,152,64184,1,2
232,152,64342,1,0
264,208,64499,6,0,B|264:304,1,85,2|0
216,248,64815,2,0,B|184:344,1,85,2|0
160,272,65131,2,0,B|112:360,1,85,2|0
88,288,65447,1,8
80,224,65605,1,8
96,160,65763,1,8
200,72,66078,5,4
280,72,66236,1,0
344,112,66394,2,0,B|384:152|384:192,2,85,0|0|8
288,160,66868,2,0,B|200:176|184:288,1,170
200,352,67342,1,8
256,304,67499,1,0
320,344,67657,2,0,B|368:344|400:312,1,85
440,256,67973,5,8
440,256,68131,1,0
448,184,68289,2,0,B|456:136|424:96,2,85,0|0|8
376,200,68763,2,0,B|360:248|304:256,1,85
304,176,69078,2,0,B|344:80|248:32,1,170
104,80,69710,1,0
64,144,69868,1,8
88,216,70026,1,0
136,272,70184,5,0
136,272,70263,1,0
136,272,70342,1,0
184,328,70499,1,8
208,328,70578,1,0
232,328,70657,1,0
240,248,70815,6,0,B|328:248,1,85
392,280,71131,2,0,B|440:280|456:232,2,85,8|0|0
376,208,71605,1,0
384,136,71763,5,8
336,80,71920,1,0
296,224,72236,1,0
304,152,72394,1,8
200,40,72710,1,0
136,72,72868,1,0
200,112,73026,1,8
80,200,73342,5,0
64,272,73499,1,0
128,312,73657,1,8
192,272,73815,2,0,B|216:320|184:360,2,85
256,232,74289,2,0,B|216:200|224:144,2,85,8|0|0
272,304,74763,1,0
344,328,74920,1,8
408,288,75078,1,0
432,216,75236,5,0
432,216,75315,1,0
432,216,75394,1,0
384,152,75552,1,0
400,128,75631,1,0
384,112,75710,1,0
360,120,75789,1,0
360,144,75868,1,0
240,56,76184,5,4
96,96,76499,1,0
64,168,76657,1,0
144,160,76815,1,8
200,208,76973,6,0,B|200:304|288:352,1,170
336,296,77447,2,0,B|384:296|416:248,2,85,8|0|0
320,224,77920,1,0
360,160,78078,5,8
320,224,78236,1,0
280,160,78394,2,0,B|192:136|144:48,1,170,4|8
224,40,78868,2,0,B|216:128|152:200,1,170,4|0
104,240,79342,1,8
104,240,79499,1,4
224,336,79815,1,0
288,296,79973,1,8
360,288,80131,1,0
408,232,80289,5,0
384,80,80605,1,8
264,168,80920,6,0,B|216:168|192:128,1,85
184,56,81236,1,8
120,96,81394,2,0,B|88:136|88:184,1,85
96,248,81710,1,0
136,312,81868,1,8
184,256,82026,1,0
304,344,82342,1,0
304,344,82499,1,8
440,280,82815,6,0,B|440:232|416:192,1,85
368,256,83131,2,0,B|360:200|320:160,1,85,8|0
296,112,83447,5,0
248,56,83605,1,0
176,40,83763,1,8
120,88,83920,1,0
112,160,84078,1,0
160,216,84236,1,0
168,288,84394,1,8
224,336,84552,1,0
296,344,84710,5,0
352,296,84868,1,0
344,224,85026,1,8
280,184,85184,1,8
384,72,85499,1,8
384,72,85657,1,8
360,144,85815,1,0
360,144,85973,1,0
440,264,86289,6,0,B|440:216|408:184,1,85,8|0
360,144,86605,2,0,B|336:184|352:232,1,85,0|0
312,280,86920,2,0,B|280:248|280:192,1,85,8|0
280,136,87236,1,0
144,120,87552,1,8
112,176,87710,2,0,B|112:224|144:264,2,85,0|0|0
144,120,88184,1,8
144,120,88342,2,0,B|168:80|224:80,1,85,0|0
320,192,88815,5,8
320,192,88973,1,0
360,256,89131,1,0
360,256,89289,1,0
320,320,89447,2,0,B|280:344|232:344,1,85,8|0
256,272,89763,2,0,B|80:272,1,170,0|8
86,272,90236,1,0
128,208,90394,2,0,B|216:208,1,85
256,144,90710,2,0,B|168:144,2,85,8|0|0
400,104,91342,6,0,B|424:152|400:200,1,85,8|0
368,240,91657,1,0
336,184,91815,2,0,B|288:208|312:272,2,85,0|8|0
328,120,92289,1,0
264,144,92447,1,0
248,208,92605,1,8
248,272,92763,2,0,B|248:320|208:352,1,85
184,288,93078,2,0,B|152:336|96:320,2,85,0|8|0
184,224,93552,1,0
120,104,93868,6,0,B|184:40,1,85,8|0
184,112,94184,2,0,B|264:72,1,85
240,136,94499,1,8
256,192,94815,12,0,96078
128,96,96394,5,8
56,208,96710,2,0,B|88:240|136:240,1,85
168,296,97026,2,0,B|208:264|192:208,1,85,8|0
184,152,97342,1,0
216,96,97499,1,0
280,72,97657,1,8
272,136,97815,2,0,B|320:136|344:88,1,85
360,32,98131,2,0,B|408:48|408:112,1,85,0|8
392,160,98447,1,0
392,160,98605,1,0
352,288,98920,6,0,B|264:312|176:288,1,170,8|0
120,264,99394,1,0
183,290,99552,1,8
208,160,99868,2,0,B|160:160|128:128,1,85
88,80,100184,1,8
144,48,100342,2,0,B|232:48|312:96,1,170
360,128,100815,1,8
360,128,100973,1,0
400,184,101131,6,0,B|400:272|304:328,1,170,0|8
184,352,101763,1,0
128,320,101920,1,0
120,256,102078,1,8
128,120,102394,1,0
168,168,102552,1,0
232,176,102710,1,8
288,144,102868,1,0
384,48,103184,2,0,B|424:72|440:120,1,85,0|8
432,248,103657,5,0
384,304,103815,1,0
328,256,103973,2,0,B|280:256|248:288,1,85,8|0
312,328,104289,1,0
248,360,104447,1,0
184,320,104605,2,0,B|144:296|144:248,1,85,8|0
144,176,104920,6,0,B|144:128|184:104,2,85,0|0|8
208,216,105394,1,8
312,104,105710,1,8
368,152,105868,1,8
312,104,106026,1,0
368,152,106184,1,4
256,192,106263,12,0,108710
