osu file format v8

[General]
AudioFilename: being.mp3
AudioLeadIn: 1996
PreviewTime: 62335
Countdown: 0
SampleSet: Normal
StackLeniency: 0.7
Mode: 0
LetterboxInBreaks: 1

[Editor]
DistanceSpacing: 0.800000011920929
BeatDivisor: 4
GridSize: 16

[Metadata]
Title:being (TV Size)
Artist:KOTOKO
Creator:Muya
Version:Insane
Source:Shakugan no Shana II
Tags:gowww frill samiljul

[Difficulty]
HPDrainRate:6
CircleSize:4
OverallDifficulty:8
ApproachRate:8
SliderMultiplier:2.2
SliderTickRate:0.5

[Events]
//Background and Video events
0,0,"BG.png"
Video,0,"video.flv"
//Break Periods
//Storyboard Layer 0 (Background)
//Storyboard Layer 1 (Fail)
//Storyboard Layer 2 (Pass)
//Storyboard Layer 3 (Foreground)
//Storyboard Sound Samples
//Background Colour Transformations
3,100,255,0,0

[TimingPoints]
130,405.405405405405,4,1,2,70,1,0
11558,-100,4,1,2,0,0,0
12774,-100,4,1,2,70,0,0
63373,-100,4,1,2,70,0,1
89319,-100,4,1,2,70,0,0

[Colours]
Combo1 : 26,255,255
Combo2 : 255,0,0
Combo3 : 255,255,0

[HitObjects]
208,128,130,1,4
192,160,231,1,0
176,192,332,1,0
304,256,535,1,0
320,224,636,1,0
336,192,738,1,0
256,32,940,5,2
192,128,1143,1,0
320,128,1346,1,2
256,224,1548,1,0
160,272,1751,6,0,B|176:336|240:368|304:352|352:304,1,220,4|0
432,368,2359,2,0,B|506:288|464:160,1,220
400,80,2967,1,0
304,64,3170,2,0,B|192:96|80:32,2,220,0|0|0
352,160,4184,1,0
256,208,4386,1,0
352,256,4589,1,0
304,352,4792,1,0
208,304,4994,6,0,B|100:239|160:112,1,220,4|0
240,48,5602,2,0,B|348:113|288:240,1,220,0|0
208,304,6211,1,0
288,368,6413,1,0
368,304,6616,1,0
288,240,6819,5,0
304,208,6920,1,0
320,112,7123,1,0
304,80,7224,1,0
272,48,7325,1,0
240,32,7427,1,0
128,32,7630,5,0
64,96,7832,1,0
128,160,8035,1,0
64,224,8238,2,0,B|160:320|256:224,1,220,4|0
192,160,8846,2,0,B|288:64|384:160,1,220
320,224,9454,1,0
384,160,9657,1,0
448,96,9859,6,0,B|536:192|368:192|448:288,1,220,4|0
288,352,10467,1,0
448,288,10670,1,0
256,288,10873,1,0
448,288,11075,1,0
288,224,11278,1,0
448,288,11481,1,4
256,192,11582,12,0,12697
256,192,13102,5,0
256,192,13204,1,0
256,192,13305,1,0
432,32,13711,5,0
416,64,13812,1,0
400,96,13913,1,0
416,128,14015,1,0
432,160,14116,1,0
416,192,14217,1,0
400,224,14319,1,0
416,256,14420,1,0
432,288,14521,1,0
416,320,14623,1,0
400,352,14724,5,4
304,256,14927,1,0
288,288,15028,1,0
272,320,15130,2,0,B|240:363|176:368,1,110,8|0
96,272,15535,1,0
208,224,15738,2,0,B|251:192|256:128,1,110,0|8
144,64,16143,2,0,B|101:96|96:160,1,110
96,272,16548,1,0
112,304,16650,1,0
128,336,16751,2,0,B|176:368|192:320|240:336,1,110,8|0
352,352,17157,1,0
432,288,17359,2,0,B|464:240|464:176,2,110,0|8|0
352,352,17967,5,0
240,336,18170,1,0
256,304,18271,1,0
272,272,18373,2,0,B|256:224|272:160,2,110,8|0|0
176,368,18981,1,0
80,272,19184,2,0,B|96:224|80:160,1,110,8|0
144,64,19589,5,0
272,48,19792,1,2
288,80,19893,1,0
304,112,19994,1,10
400,176,20197,1,2
384,208,20298,1,0
368,240,20400,1,2
256,224,20602,1,2
288,336,20805,1,10
256,352,20907,1,0
224,360,21008,1,2
192,352,21109,1,0
160,336,21211,5,6
80,272,21413,1,0
80,240,21515,1,0
80,208,21616,2,0,B|80:80,1,110,8|0
208,96,22021,2,0,B|208:240,1,110
208,240,22325,1,0
208,272,22427,1,8
304,352,22629,1,0
384,272,22832,5,0
464,192,23035,1,0
448,160,23136,1,0
432,128,23238,1,8
384,48,23440,1,0
336,128,23643,1,0
384,208,23846,1,0
432,288,24048,1,8
384,368,24251,1,0
288,288,24454,5,0
304,256,24555,1,0
312,224,24657,1,0
304,192,24758,1,0
288,160,24859,1,10
208,80,25062,1,0
128,160,25265,1,0
112,192,25366,1,0
104,224,25467,1,0
112,256,25569,1,0
128,288,25670,1,10
208,368,25873,1,0
208,224,26075,5,0
304,320,26278,1,2
304,320,26379,1,0
336,192,26582,1,2
336,192,26684,1,0
352,64,26886,6,0,B|416:96,1,55,2|0
464,128,27089,2,0,B|400:160,1,55,2|0
352,192,27292,2,0,B|416:224,1,55,2|0
464,256,27494,2,0,B|400:288,1,55,2|0
352,320,27697,6,0,B|336:256|273:235|208:256|192:320,1,220,4|8
80,352,28305,2,0,B|17:336|-5:272|17:208|81:192,1,220
192,224,28913,1,8
272,320,29116,6,0,B|416:320,1,110
448,240,29521,1,0
416,208,29623,1,0
384,176,29724,1,8
320,32,29927,1,0
352,64,30028,1,0
384,96,30129,1,0
496,160,30332,1,0
384,224,30535,1,8
496,288,30738,1,0
384,352,30940,6,0,B|254:352|368:240|224:240,1,220,0|8
144,304,31548,2,0,B|80:304|24:240|80:176|144:176,1,220
224,240,32157,2,0,B|336:240,2,110,8|0|0
128,160,32765,5,0
144,128,32866,1,0
160,96,32967,1,8
240,64,33170,1,8
256,96,33271,1,0
272,128,33373,1,0
240,208,33575,1,8
224,240,33677,1,0
216,272,33778,1,8
224,304,33879,1,0
240,336,33981,1,8
272,352,34082,1,0
304,352,34184,6,0,B|430:336|448:208,1,220,4|8
352,48,34792,2,0,B|368:112|368:160,2,110
288,208,35400,1,8
192,352,35805,6,0,B|64:333|48:208,1,220,4|8
128,96,36413,1,0
208,208,36616,1,0
128,320,36819,1,0
48,208,37021,1,8
256,64,37427,6,0,B|376:64|416:192,1,220,4|8
256,192,38035,1,0
256,320,38238,2,0,B|136:320|96:192,1,220,4|8
256,192,38846,1,0
256,192,39048,1,0
256,96,39454,5,8
160,192,39657,1,0
256,288,39859,1,0
352,192,40062,1,0
256,192,40265,5,8
256,192,40366,1,0
256,192,40467,1,0
256,192,40569,1,0
256,192,40670,2,0,B|272:256|336:277|400:256|416:192,1,220,4|8
416,96,41278,2,0,B|400:32|336:11|272:32|256:96,1,220
256,192,41886,1,8
256,192,42089,1,0
256,288,42292,5,0
160,320,42494,1,0
64,288,42697,1,8
256,96,43102,1,0
160,64,43305,1,0
64,96,43508,1,8
32,192,43711,1,0
64,288,43913,6,0,B|176:362|272:304,1,220,4|8
144,224,44521,2,0,B|256:166|352:240,1,220
272,304,45130,1,8
240,208,45332,1,0
320,128,45535,6,0,B|304:80|320:16,1,110,2|0
416,96,45940,2,0,B|432:144|416:208,1,110,2|0
320,288,46346,2,0,B|304:240|320:176,1,110,2|0
416,256,46751,2,0,B|432:304|416:368,1,110,2|2
320,352,47157,6,0,B|240:288|112:288,1,220,4|8
192,368,47765,2,0,B|208:256|128:160,1,220
48,240,48373,2,0,B|32:192|48:128,1,110,8|0
176,80,48778,6,0,B|196:192|336:208,1,220,4|8
400,128,49386,2,0,B|472:160|484:208|472:256|400:288,1,220,0|0
336,208,49994,2,0,B|208:208,2,110,8|0|4
96,80,50805,5,8
16,160,51008,1,0
96,240,51211,1,0
176,160,51413,2,0,B|288:160,2,110,0|8|0
16,160,52021,5,0
48,256,52224,1,0
128,320,52427,1,8
224,352,52630,1,0
288,288,52832,5,2
304,256,52934,1,0
320,224,53035,1,0
464,128,53238,1,10
448,160,53339,1,0
432,192,53440,1,0
496,272,53643,6,0,B|442:272|400:320,1,110,4|0
288,272,54048,2,0,B|342:272|384:224,1,110,8|0
304,160,54454,1,0
400,112,54657,1,0
304,64,54859,1,8
208,112,55062,1,0
144,176,55265,6,0,B|96:144|96:64,1,110
32,160,55670,2,0,B|80:192|80:272,1,110,8|0
32,320,56075,2,0,B|96:368|176:336|175:272|160:224,1,220,2|10
240,192,56684,1,0
176,128,56886,6,0,B|192:88|216:64|256:35|296:64|320:88|336:128,1,220,0|8
336,256,57494,2,0,B|320:296|296:320|256:349|216:320|192:296|176:256,1,220
176,128,58102,1,8
256,64,58305,1,0
336,128,58508,1,0
256,192,58711,1,2
256,192,58812,1,0
256,192,58913,1,10
256,192,59319,5,0
384,96,59521,1,0
256,192,59724,1,8
128,96,59927,1,8
256,192,60130,1,4
256,192,60231,12,0,61346
128,128,61751,6,0,B|96:192|128:256,1,110,2|0
384,128,62157,2,0,B|416:192|384:256,1,110,2|0
256,192,62562,1,0
256,192,63373,5,4
192,32,63778,1,8
320,32,63981,1,0
160,288,64386,1,0
256,336,64589,1,8
352,288,64792,1,0
256,192,65197,5,0
160,64,65400,1,8
256,192,65602,1,0
352,64,65805,1,0
256,192,66008,1,0
256,336,66211,1,8
256,192,66413,1,0
256,192,66515,1,0
256,192,66616,1,0
160,96,67021,5,8
128,192,67224,1,0
160,288,67427,1,0
256,328,67630,1,0
352,288,67832,1,8
384,192,68035,1,0
352,96,68238,1,0
256,192,68440,5,0
256,192,68542,1,0
256,192,68643,1,8
272,64,68846,2,0,B|336:64|368:128,1,110
240,320,69251,2,0,B|176:320|144:256,1,110,0|8
256,192,69657,1,0
256,192,69859,5,4
176,32,70265,1,8
112,112,70467,1,0
336,352,70873,1,0
400,272,71075,1,8
384,176,71278,6,0,B|384:48,1,110
304,160,71684,2,0,B|304:32,1,110,0|8
224,144,72089,2,0,B|224:16,1,110
144,128,72494,2,0,B|144:16,2,110,0|8|0
176,240,73102,6,0,B|128:272,1,55
96,336,73305,2,0,B|144:368,1,55
208,320,73508,1,10
256,192,73711,1,0
352,240,73913,2,0,B|384:288,1,55
432,352,74116,2,0,B|384:384,1,55
304,336,74319,1,10
256,192,74521,6,0,B|256:48,2,110,0|0|0
256,208,75028,1,2
256,336,75231,1,0
256,320,75332,1,2
256,80,75535,6,0,B|304:32,1,55,2|0
384,64,75738,2,0,B|336:112,1,55,2|0
368,192,75940,2,2,B|416:144,1,55,10|2
496,176,76143,2,0,B|448:224,1,55,2|0
400,288,76346,6,0,B|336:384|192:352,1,220,4|8
144,256,76954,2,0,B|64:256|0:304,2,110
256,224,77562,1,8
336,128,77765,2,0,B|320:64|256:43|192:64|176:128,1,220
256,224,78373,1,8
336,320,78575,2,0,B|320:382|256:403|192:382|176:318,1,220
256,224,79184,2,0,B|256:96,2,110,8|0|0
112,176,79994,5,10
176,288,80197,1,0
384,176,80400,5,2
336,288,80602,1,0
256,96,80805,5,10
256,208,81008,1,0
256,320,81211,1,0
192,224,81413,1,0
320,224,81616,1,8
256,80,82021,5,0
336,192,82224,1,0
176,192,82427,1,8
256,320,82629,1,0
400,320,82832,6,0,B|464:304|496:240,2,110,0|0|8
368,336,83339,1,0
336,344,83440,1,0
304,336,83542,1,0
272,320,83643,1,0
256,288,83744,1,0
224,272,83846,1,0
192,264,83947,1,0
160,272,84048,6,0,B|160:384,2,110,8|0|0
240,144,84657,1,0
64,144,84859,2,0,B|0:144,1,55,8|0
80,192,85062,2,0,B|16:208,1,55
96,224,85265,2,0,B|48:272,1,55
128,256,85467,2,0,B|96:320,1,55
160,272,85670,2,0,B|144:368,1,55,8|0
208,272,85873,2,0,B|208:352,1,55
240,256,86075,5,0
304,112,86278,1,0
480,80,86481,1,8
496,112,86582,1,0
480,144,86684,1,0
496,176,86785,2,0,B|480:256|416:272,1,110
416,288,87089,5,0
384,304,87190,1,0
352,304,87292,1,8
320,288,87393,1,0
288,288,87494,1,0
256,304,87596,1,0
240,336,87697,1,8
256,192,87798,12,0,88913
256,192,89319,5,6
