osu file format v14

[General]
AudioFilename: fluff.mp3
AudioLeadIn: 1500
PreviewTime: 1209
Countdown: 0
SampleSet: Soft
StackLeniency: 0.7
Mode: 0
LetterboxInBreaks: 0
WidescreenStoryboard: 0

[Editor]
DistanceSpacing: 0.8
BeatDivisor: 4
GridSize: 4
TimelineZoom: 1.6

[Metadata]
Title:being
TitleUnicode:being
Artist:KOTOKO
ArtistUnicode:KOTOKO
Creator:Gaia
Version:Insane
Source:灼眼のシャナ
Tags:P_A_N pan Giralda Shakugan no Shana opening tv size
BeatmapID:737331
BeatmapSetID:333140

[Difficulty]
HPDrainRate:7
CircleSize:4
OverallDifficulty:7
ApproachRate:8.5
SliderMultiplier:1.8
SliderTickRate:2

[Events]
//Background and Video events
0,0,"melonpan.jpg",0,0
Video,-170,"video.avi"
//Break Periods
//Storyboard Layer 0 (Background)
//Storyboard Layer 1 (Fail)
//Storyboard Layer 2 (Pass)
//Storyboard Layer 3 (Foreground)
//Storyboard Sound Samples

[TimingPoints]
500,405.405405405405,4,2,1,50,1,0
500,-125,4,2,1,50,0,0
702,-125,4,2,5,50,0,0
2121,-125,4,2,1,50,0,0
7189,-125,4,2,5,50,0,0
8405,-125,4,2,1,50,0,0
13472,-125,4,2,1,70,0,0
14689,-166.666666666667,4,2,1,50,0,0
15094,-111.111111111111,4,2,1,60,0,0
27662,-142.857142857143,4,2,1,60,0,0
28067,-111.111111111111,4,2,1,65,0,0
41040,-111.111111111111,4,2,1,70,0,0
62932,-200,4,2,1,50,0,0
63743,-83.3333333333333,4,2,1,85,0,0
63844,-83.3333333333333,4,2,1,75,0,0
76716,-83.3333333333333,4,2,1,85,0,0
76817,-83.3333333333333,4,2,1,75,0,0

[Colours]
Combo1 : 236,19,19
Combo2 : 206,206,206
Combo3 : 255,121,121
Combo4 : 255,255,128
Combo5 : 255,149,43

[HitObjects]
120,136,500,6,0,L|100:232,1,72,4|2,0:0|0:0,0:0:0:0:
148,276,804,1,2,0:0:0:0:
148,276,905,1,2,0:0:0:0:
284,156,1108,1,2,0:0:0:0:
284,156,1209,1,2,0:0:0:0:
284,156,1310,5,2,0:0:0:0:
276,280,1513,1,2,0:0:0:0:
432,200,1716,1,2,0:0:0:0:
404,84,1918,1,2,0:0:0:0:
248,68,2121,6,0,P|196:132|208:212,1,144
276,280,2729,2,0,L|440:260,2,144
292,76,3945,6,0,P|344:124|348:212,2,144
112,168,5162,1,0,0:0:0:0:
112,168,5364,6,0,P|121:237|173:285,1,144
340,224,5972,2,0,P|256:188|192:204,1,144
296,308,6581,1,0,0:0:0:0:
296,308,6783,6,0,P|376:308|428:240,1,144,0|2,0:0|0:0,0:0:0:0:
416,180,7290,1,2,0:0:0:0:
416,180,7391,1,2,0:0:0:0:
312,116,7594,1,2,0:0:0:0:
312,116,7695,1,2,0:0:0:0:
312,116,7797,1,2,0:0:0:0:
340,224,7999,1,2,0:0:0:0:
404,132,8202,1,2,0:0:0:0:
280,160,8405,6,0,L|300:308,1,144
192,272,9013,2,0,P|120:316|32:308,2,144
236,164,10027,1,0,0:0:0:0:
116,84,10229,6,0,P|92:144|112:236,1,144
296,236,10837,2,0,P|320:176|300:84,2,144
176,312,11851,5,0,0:0:0:0:
166,173,12054,2,0,P|222:161|254:169,1,72
356,260,12459,1,0,0:0:0:0:
376,124,12662,1,0,0:0:0:0:
215,79,12864,2,0,P|179:77|146:89,1,72
80,228,13270,1,0,0:0:0:0:
244,292,13472,5,4,0:0:0:0:
244,292,13574,1,8,0:0:0:0:
244,292,13675,1,10,0:0:0:0:
140,184,13878,1,0,0:0:0:0:
113,159,13979,1,0,0:0:0:0:
107,122,14081,1,8,0:0:0:0:
112,86,14182,1,8,0:0:0:0:
132,56,14283,1,8,0:0:0:0:
163,37,14385,1,8,0:0:0:0:
199,35,14486,1,8,0:0:0:0:
312,136,14689,6,0,P|307:191|304:236,1,80.9999975280763,4|0,0:0|0:0,0:0:0:0:
320,236,15094,6,0,P|360:216|420:220,1,80.9999975280763,4|2,0:0|0:0,0:0:0:0:
440,284,15398,2,0,P|392:320|308:304,1,121.499996292114,8|0,0:0|0:0,0:0:0:0:
172,296,15905,1,2,0:0:0:0:
240,176,16108,2,0,P|228:123|216:92,1,80.9999975280763,2|8,0:0|0:0,0:0:0:0:
64,196,16513,6,0,P|76:249|88:280,1,80.9999975280763,2|2,0:0|0:0,0:0:0:0:
148,148,16918,1,2,0:0:0:0:
148,148,17020,1,8,0:0:0:0:
148,148,17121,1,0,0:0:0:0:
272,212,17324,1,0,0:0:0:0:
272,212,17425,1,0,0:0:0:0:
272,212,17527,2,0,L|360:196,1,80.9999975280763,2|2,0:0|0:0,0:0:0:0:
472,276,17932,2,0,L|392:290,1,80.9999975280763,8|2,0:0|0:0,0:0:0:0:
272,112,18337,6,0,L|360:96,1,80.9999975280763,2|2,0:0|0:0,0:0:0:0:
436,84,18641,2,0,P|456:160|424:216,1,121.499996292114,8|0,0:0|0:0,0:0:0:0:
272,212,19148,1,2,0:0:0:0:
120,184,19351,2,0,P|122:143|132:96,1,80.9999975280763,2|8,0:0|0:0,0:0:0:0:
272,212,19756,6,0,P|279:251|281:292,1,80.9999975280763,2|2,0:0|0:0,0:0:0:0:
120,184,20162,1,2,0:0:0:0:
120,184,20263,1,8,0:0:0:0:
120,184,20364,1,0,0:0:0:0:
260,68,20567,1,2,0:0:0:0:
272,212,20770,1,2,0:0:0:0:
164,84,20972,1,6,0:0:0:0:
320,136,21175,2,0,P|309:182|304:236,1,80.9999975280763,8|2,0:0|0:0,0:0:0:0:
352,276,21479,1,8,0:0:0:0:
352,276,21581,6,0,L|444:264,1,80.9999975280763,6|2,0:0|0:0,0:0:0:0:
476,192,21885,1,8,0:0:0:0:
476,192,21986,1,0,0:0:0:0:
332,120,22189,2,0,P|325:72|320:24,1,80.9999975280763,0|2,0:0|0:0,0:0:0:0:
228,192,22594,2,0,P|236:240|248:296,1,80.9999975280763,2|8,0:0|0:0,0:0:0:0:
108,168,22999,6,0,P|100:126|92:89,1,80.9999975280763,2|2,0:0|0:0,0:0:0:0:
16,208,23405,1,2,0:0:0:0:
16,208,23506,1,8,0:0:0:0:
16,208,23608,1,0,0:0:0:0:
188,176,23810,1,2,0:0:0:0:
160,312,24013,1,2,0:0:0:0:
312,280,24216,2,0,L|300:188,1,80.9999975280763,2|8,0:0|0:0,0:0:0:0:
312,64,24621,1,2,0:0:0:0:
428,152,24824,6,0,L|416:256,1,80.9999975280763,2|2,0:0|0:0,0:0:0:0:
452,308,25128,1,8,0:0:0:0:
452,308,25229,1,4,0:0:0:0:
288,256,25432,1,0,0:0:0:0:
288,256,25533,1,0,0:0:0:0:
288,256,25635,1,6,0:0:0:0:
348,376,25837,1,2,0:0:0:0:
192,352,26040,1,8,0:0:0:0:
312,280,26243,6,0,P|332:220|308:108,1,161.999995056153,2|2,0:0|0:0,0:0:0:0:
244,84,26749,1,8,0:0:0:0:
244,84,26851,1,0,0:0:0:0:
208,228,27054,1,2,0:0:0:0:
208,228,27155,1,2,0:0:0:0:
208,228,27256,1,2,0:0:0:0:
356,188,27459,1,2,0:0:0:0:
204,112,27662,6,0,L|116:116,1,62.9999980773926,8|8,0:0|0:0,0:0:0:0:
68,168,27966,1,8,0:0:0:0:
68,168,28067,6,0,P|116:256|116:340,1,161.999995056153,6|8,0:0|0:0,0:0:0:0:
208,228,28675,2,0,P|240:184|284:160,1,80.9999975280763,0|2,0:0|0:0,0:0:0:0:
392,260,29081,2,0,P|345:268|296:256,1,80.9999975280763,2|8,0:0|0:0,0:0:0:0:
304,84,29486,6,0,P|350:76|400:88,1,80.9999975280763,2|2,0:0|0:0,0:0:0:0:
284,228,29891,1,2,0:0:0:0:
284,228,29993,1,0,0:0:0:0:
284,228,30094,1,8,0:0:0:0:
192,112,30297,1,2,0:0:0:0:
192,112,30398,1,0,0:0:0:0:
192,112,30499,1,2,0:0:0:0:
140,240,30702,1,2,0:0:0:0:
304,256,30905,2,0,P|344:240|408:248,1,80.9999975280763,8|0,0:0|0:0,0:0:0:0:
444,292,31209,1,0,0:0:0:0:
444,292,31310,6,0,P|396:236|416:136,1,161.999995056153,2|8,0:0|0:0,0:0:0:0:
488,48,31918,2,0,P|504:100|496:148,1,80.9999975280763,0|2,0:0|0:0,0:0:0:0:
336,208,32324,2,0,P|320:156|328:108,1,80.9999975280763,2|8,0:0|0:0,0:0:0:0:
400,8,32729,1,0,0:0:0:0:
404,152,32932,5,2,0:0:0:0:
244,80,33135,1,2,0:0:0:0:
244,80,33236,1,0,0:0:0:0:
244,80,33337,2,0,L|160:88,1,80.9999975280763,8|0,0:0|0:0,0:0:0:0:
32,168,33743,1,2,0:0:0:0:
104,280,33945,1,10,0:0:0:0:
136,296,34047,1,8,0:0:0:0:
172,297,34148,1,8,0:0:0:0:
207,290,34249,1,8,0:0:0:0:
236,267,34351,1,12,0:0:0:0:
168,117,34554,6,0,P|160:173|164:213,1,80.9999975280763,6|2,0:0|0:0,0:0:0:0:
260,112,34959,1,8,0:0:0:0:
120,40,35162,1,0,0:0:0:0:
120,40,35263,1,0,0:0:0:0:
120,40,35364,1,2,0:0:0:0:
276,84,35567,2,0,L|364:76,1,80.9999975280763,2|8,0:0|0:0,0:0:0:0:
256,192,35972,1,6,0:0:0:0:
390,250,36175,6,0,P|406:292|402:362,1,80.9999975280763,6|2,0:0|0:0,0:0:0:0:
256,356,36581,1,8,0:0:0:0:
104,328,36783,1,0,0:0:0:0:
104,328,36885,1,0,0:0:0:0:
104,328,36986,2,0,P|107:287|122:250,1,80.9999975280763,2|2,0:0|0:0,0:0:0:0:
256,192,37391,1,8,0:0:0:0:
256,192,37493,1,8,0:0:0:0:
256,192,37594,1,12,0:0:0:0:
408,56,37797,6,0,P|404:96|389:133,1,80.9999975280763,6|2,0:0|0:0,0:0:0:0:
256,192,38202,1,8,0:0:0:0:
104,328,38405,2,0,P|107:287|122:250,1,80.9999975280763,6|6,0:0|0:0,0:0:0:0:
256,192,38810,1,2,0:0:0:0:
292,196,38912,1,0,0:0:0:0:
328,200,39013,1,8,0:0:0:0:
364,204,39114,1,0,0:0:0:0:
400,208,39216,1,6,0:0:0:0:
436,216,39317,1,0,0:0:0:0:
472,248,39418,6,0,P|460:293|456:344,1,80.9999975280763,6|2,0:0|0:0,0:0:0:0:
328,200,39824,1,8,0:0:0:0:
264,352,40027,1,2,0:0:0:0:
104,296,40229,1,8,0:0:0:0:
84,268,40331,1,8,0:0:0:0:
76,232,40432,1,8,0:0:0:0:
158,78,40635,1,8,0:0:0:0:
184,102,40736,1,8,0:0:0:0:
201,133,40837,1,2,0:0:0:0:
214,167,40939,1,2,0:0:0:0:
208,212,41040,6,0,P|252:192|304:196,1,80.9999975280763,6|2,0:0|0:0,0:0:0:0:
412,304,41445,2,0,P|320:320|268:276,1,161.999995056153,8|2,0:0|0:0,0:0:0:0:
296,100,42054,1,2,0:0:0:0:
348,244,42256,1,8,0:0:0:0:
184,228,42459,1,0,0:0:0:0:
184,228,42560,1,0,0:0:0:0:
184,228,42662,6,0,P|143:221|84:224,1,80.9999975280763,2|2,0:0|0:0,0:0:0:0:
220,144,43067,2,0,P|268:112|268:12,1,161.999995056153,8|2,0:0|0:0,0:0:0:0:
128,112,43675,1,2,0:0:0:0:
296,100,43878,2,0,L|420:88,1,121.499996292114,8|0,0:0|0:0,0:0:0:0:
432,96,44283,6,0,P|412:144|408:188,1,80.9999975280763,2|2,0:0|0:0,0:0:0:0:
348,324,44689,2,0,P|336:244|288:176,1,161.999995056153,8|2,0:0|0:0,0:0:0:0:
132,216,45297,1,2,0:0:0:0:
240,296,45499,1,8,0:0:0:0:
272,156,45702,6,0,L|260:72,1,80.9999975280763,2|2,0:0|0:0,0:0:0:0:
168,184,46108,1,2,0:0:0:0:
336,208,46310,1,8,0:0:0:0:
132,216,46513,1,2,0:0:0:0:
132,216,46614,1,2,0:0:0:0:
132,216,46716,1,2,0:0:0:0:
304,184,46918,1,6,0:0:0:0:
236,332,47121,2,0,L|340:312,1,80.9999975280763,8|8,0:0|0:0,0:0:0:0:
164,248,47527,6,0,P|118:242|68:228,1,80.9999975280763,2|2,0:0|0:0,0:0:0:0:
84,68,47932,1,8,0:0:0:0:
256,104,48135,1,0,0:0:0:0:
256,104,48236,1,0,0:0:0:0:
256,104,48337,2,0,P|252:151|248:212,1,80.9999975280763,2|2,0:0|0:0,0:0:0:0:
360,348,48743,1,8,0:0:0:0:
390,328,48844,1,0,0:0:0:0:
408,297,48945,1,8,0:0:0:0:
409,260,49047,1,0,0:0:0:0:
394,226,49148,6,0,P|395:181|398:134,1,80.9999975280763,2|0,0:0|0:0,0:0:0:0:
311,31,49554,1,8,0:0:0:0:
204,144,49756,1,2,0:0:0:0:
372,124,49959,1,2,0:0:0:0:
188,104,50162,1,8,0:0:0:0:
316,216,50364,1,8,0:0:0:0:
316,216,50466,1,0,0:0:0:0:
316,216,50567,1,6,0:0:0:0:
120,200,50770,6,0,P|69:199|8:208,1,80.9999975280763,6|2,0:0|0:0,0:0:0:0:
144,336,51175,1,8,0:0:0:0:
272,240,51378,2,0,P|252:196|224:168,1,80.9999975280763,2|2,0:0|0:0,0:0:0:0:
160,320,51783,1,8,0:0:0:0:
368,316,51986,2,0,P|380:252|376:204,1,80.9999975280763,10|6,0:0|0:0,0:0:0:0:
332,160,52290,1,0,0:0:0:0:
332,160,52391,6,8,P|331:106|340:52,1,80.9999975280763,2|8,0:0|0:0,0:0:0:0:
452,0,52797,1,8,0:0:0:0:
280,60,52999,1,6,0:0:0:0:
444,108,53202,2,0,L|456:144,3,26.9999991760254,2|2|2|6,0:0|0:0|0:0|0:0,0:0:0:0:
316,192,53608,2,0,L|336:220,3,26.9999991760254,2|2|2|10,0:0|0:0|0:0|0:0,0:0:0:0:
232,316,54013,6,0,P|189:310|132:304,1,80.9999975280763,6|2,0:0|0:0,0:0:0:0:
16,200,54418,2,0,P|104:168|176:208,1,161.999995056153,8|2,0:0|0:0,0:0:0:0:
232,316,55027,2,0,L|336:312,1,80.9999975280763,0|8,0:0|0:0,0:0:0:0:
456,208,55432,1,2,0:0:0:0:
456,208,55533,1,0,0:0:0:0:
456,208,55635,6,0,L|375:211,1,80.9999975280763,2|2,0:0|0:0,0:0:0:0:
224,104,56040,2,0,L|328:100,1,80.9999975280763,8|0,0:0|0:0,0:0:0:0:
368,48,56344,1,2,0:0:0:0:
368,48,56445,1,2,0:0:0:0:
296,188,56648,1,2,0:0:0:0:
192,76,56851,1,8,0:0:0:0:
340,152,57054,1,6,0:0:0:0:
164,224,57256,6,0,P|116:208|80:180,1,80.9999975280763,6|2,0:0|0:0,0:0:0:0:
260,168,57662,2,0,P|247:250|236:340,1,161.999995056153,8|2,0:0|0:0,0:0:0:0:
344,240,58270,1,2,0:0:0:0:
164,224,58472,1,8,0:0:0:0:
368,216,58675,1,2,0:0:0:0:
368,216,58777,1,0,0:0:0:0:
368,216,58878,6,0,P|410:206|468:200,1,80.9999975280763,0|2,0:0|0:0,0:0:0:0:
276,132,59283,2,0,P|235:126|196:117,1,80.9999975280763,8|2,0:0|0:0,0:0:0:0:
340,40,59689,1,2,0:0:0:0:
332,192,59891,1,10,0:0:0:0:
192,96,60094,1,8,0:0:0:0:
244,248,60297,1,8,0:0:0:0:
396,124,60499,6,0,P|444:164|468:268,2,161.999995056153,6|8|2,0:0|0:0|0:0,0:0:0:0:
324,160,61412,1,0,0:0:0:0:
287,158,61513,1,8,0:0:0:0:
250,156,61614,1,0,0:0:0:0:
213,154,61716,1,8,0:0:0:0:
76,256,61918,1,2,0:0:0:0:
76,256,62020,1,2,0:0:0:0:
76,256,62121,5,6,0:0:0:0:
213,154,62324,1,8,0:0:0:0:
220,316,62527,1,10,0:0:0:0:
352,216,62729,1,8,0:0:0:0:
152,164,62932,6,0,B|108:152|92:188|28:164|28:164|52:184|52:204,1,157.5
76,256,63743,6,0,P|60:172|76:76,1,161.999995056153,4|2,0:0|0:0,0:0:0:0:
128,32,64148,1,0,1:0:0:0:
258,158,64351,2,0,P|205:169|152:164,1,107.999996704102,0|2,0:0|0:0,0:0:0:0:
320,60,64756,2,0,P|373:54|426:65,1,107.999996704102,2|0,0:0|1:0,0:0:0:0:
264,248,65162,1,2,0:0:0:0:
264,248,65263,1,2,0:0:0:0:
264,248,65364,6,0,P|194:258|141:248,1,107.999996704102,2|0,0:0|0:0,0:0:0:0:
84,212,65668,1,2,0:0:0:0:
84,212,65770,1,0,1:0:0:0:
190,71,65972,2,0,P|267:142|263:247,1,215.999993408203,2|2,0:0|0:0,0:0:0:0:
208,320,66479,1,0,0:0:0:0:
208,320,66581,1,0,1:0:0:0:
96,184,66783,1,2,0:0:0:0:
272,148,66986,6,0,L|400:152,1,107.999996704102,2|0,0:0|0:0,0:0:0:0:
464,156,67290,1,0,0:0:0:0:
464,156,67391,1,0,1:0:0:0:
360,288,67594,1,0,0:0:0:0:
360,288,67695,1,2,0:0:0:0:
360,288,67797,1,2,0:0:0:0:
248,172,67999,1,2,0:0:0:0:
432,220,68202,1,0,1:0:0:0:
256,308,68405,6,0,P|196:312|144:284,1,107.999996704102,2|2,0:0|0:0,0:0:0:0:
68,160,68810,1,2,0:0:0:0:
224,112,69013,2,0,P|228:176|216:224,1,107.999996704102,0|2,1:0|0:0,0:0:0:0:
64,312,69418,1,2,0:0:0:0:
217,218,69621,1,2,0:0:0:0:
217,218,69722,1,2,0:0:0:0:
217,218,69824,1,6,1:2:0:0:
44,188,70027,1,2,0:0:0:0:
236,224,70229,6,0,P|324:212|360:116,1,161.999995056153,6|2,0:0|0:0,0:0:0:0:
320,80,70635,1,0,1:0:0:0:
172,148,70837,2,0,P|181:206|192:292,1,107.999996704102,0|2,0:0|0:0,0:0:0:0:
68,172,71243,1,2,0:0:0:0:
68,172,71344,1,0,0:0:0:0:
68,172,71445,1,0,1:0:0:0:
264,136,71648,1,2,0:0:0:0:
96,40,71851,5,2,0:0:0:0:
212,168,72054,1,2,0:0:0:0:
212,168,72155,1,2,0:0:0:0:
212,168,72256,1,0,1:0:0:0:
86,277,72459,2,0,P|70:217|70:149,1,107.999996704102,2|0,0:0|0:0,0:0:0:0:
245,30,72864,2,0,P|261:90|261:158,1,107.999996704102,2|0,0:0|1:0,0:0:0:0:
220,312,73270,1,2,0:0:0:0:
344,192,73472,5,2,0:0:0:0:
168,204,73675,1,6,0:0:0:0:
168,204,73777,1,2,0:0:0:0:
168,204,73878,1,2,1:2:0:0:
340,280,74081,1,2,0:0:0:0:
340,280,74182,1,2,0:0:0:0:
340,280,74283,1,2,0:0:0:0:
312,104,74486,1,6,0:0:0:0:
312,104,74587,1,2,0:0:0:0:
312,104,74689,1,2,1:2:0:0:
228,264,74891,1,2,0:0:0:0:
420,224,75094,5,0,0:0:0:0:
276,128,75297,1,6,0:0:0:0:
239,105,75398,1,0,0:0:0:0:
196,97,75499,1,0,1:0:0:0:
152,99,75601,1,0,0:0:0:0:
113,118,75702,1,2,0:0:0:0:
86,152,75804,1,0,0:0:0:0:
91,194,75905,6,0,P|98:233|100:273,1,53.9999983520508,0|0,1:0|0:0,0:0:0:0:
215,306,76108,2,0,P|207:266|206:227,1,53.9999983520508,0|0,1:0|0:0,0:0:0:0:
276,128,76310,2,0,P|283:167|285:207,1,53.9999983520508,0|0,1:0|0:0,0:0:0:0:
395,269,76513,2,0,P|387:229|386:190,1,53.9999983520508,2|2,1:2|0:0,0:0:0:0:
458,70,76716,6,0,P|477:141|466:237,1,161.999995056153,6|2,0:0|0:0,0:0:0:0:
394,269,77121,1,0,1:0:0:0:
276,128,77324,2,0,P|344:120|400:144,1,107.999996704102,0|2,0:0|0:0,0:0:0:0:
236,256,77729,2,0,P|168:264|112:240,1,107.999996704102,2|0,0:0|1:0,0:0:0:0:
268,156,78135,1,2,0:0:0:0:
360,272,78337,5,2,0:0:0:0:
188,186,78540,1,2,0:0:0:0:
188,186,78641,1,2,0:0:0:0:
188,186,78743,1,0,1:0:0:0:
343,78,78945,2,0,P|391:171|360:272,1,215.999993408203,2|2,0:0|0:0,0:0:0:0:
188,186,79554,1,0,1:0:0:0:
336,292,79756,1,2,0:0:0:0:
148,352,79959,6,0,P|88:336|52:296,1,107.999996704102,2|0,0:0|0:0,0:0:0:0:
64,224,80263,1,2,0:0:0:0:
64,224,80364,1,0,1:0:0:0:
116,72,80567,1,0,0:0:0:0:
116,72,80668,1,2,0:0:0:0:
116,72,80770,1,2,0:0:0:0:
220,196,80972,2,0,L|336:180,1,107.999996704102,2|0,0:0|1:0,0:0:0:0:
424,328,81378,1,2,0:0:0:0:
424,328,81479,1,0,0:0:0:0:
424,328,81581,6,0,L|308:312,1,107.999996704102,2|2,0:0|0:0,0:0:0:0:
124,280,81986,1,0,1:0:0:0:
220,152,82189,1,2,0:0:0:0:
240,304,82391,1,0,0:0:0:0:
240,304,82493,1,0,0:0:0:0:
240,304,82594,1,6,0:0:0:0:
64,224,82797,1,0,1:0:0:0:
256,160,82999,1,6,0:0:0:0:
64,224,83202,6,0,P|40:160|40:112,1,107.999996704102,2|2,0:0|0:0,0:0:0:0:
217,40,83608,1,0,1:0:0:0:
241,75,83709,1,0,0:0:0:0:
254,116,83810,1,8,0:0:0:0:
256,160,83912,1,8,0:0:0:0:
243,201,84013,5,2,0:0:0:0:
240,243,84114,1,8,0:0:0:0:
261,280,84216,1,6,0:0:0:0:
298,300,84317,1,8,0:0:0:0:
341,298,84418,1,0,1:0:0:0:
424,168,84621,1,6,0:0:0:0:
256,160,84824,5,0,0:0:0:0:
400,88,85027,1,2,0:0:0:0:
320,224,85229,1,0,1:0:0:0:
280,208,85331,1,0,0:0:0:0:
240,192,85432,1,8,0:0:0:0:
196,188,85533,1,8,0:0:0:0:
152,192,85635,5,2,0:0:0:0:
116,212,85736,1,8,0:0:0:0:
72,212,85837,1,6,0:0:0:0:
32,196,85939,1,10,0:0:0:0:
12,156,86040,1,0,1:0:0:0:
184,72,86243,6,0,P|212:140|196:284,1,215.999993408203,6|8,0:0|0:0,0:0:0:0:
32,196,86851,1,0,1:0:0:0:
72,184,86952,1,8,0:0:0:0:
112,172,87054,1,8,0:0:0:0:
152,160,87155,2,0,P|213:173|272:176,1,107.999996704102,8|8,0:0|0:0,0:0:0:0:
300,160,87459,5,8,0:0:0:0:
343,159,87560,1,8,0:0:0:0:
384,171,87662,1,8,0:0:0:0:
413,202,87763,1,8,0:0:0:0:
432,240,87864,1,12,0:0:0:0:
425,283,87966,1,8,0:0:0:0:
400,318,88067,5,0,1:0:0:0:
244,283,88270,2,0,L|260:159,1,107.999996704102,6|0,0:0|0:0,0:0:0:0:
108,96,88675,1,14,0:0:0:0:
108,96,88777,1,2,0:0:0:0:
108,96,88878,1,2,0:0:0:0:
108,96,88979,1,0,0:0:0:0:
108,96,89081,2,0,L|121:203,1,107.999996704102,6|0,0:0|0:0,0:0:0:0:
144,352,89486,1,2,0:0:0:0:
144,352,89587,1,0,0:0:0:0:
144,352,89689,5,6,0:0:0:0:
