osu file format v12

[General]
AudioFilename: Agony.mp3
AudioLeadIn: 1511
PreviewTime: 55414
Countdown: 0
SampleSet: Soft
StackLeniency: 0.7
Mode: 3
LetterboxInBreaks: 0
SpecialStyle: 0

[Editor]
DistanceSpacing: 1.1
BeatDivisor: 4
GridSize: 8

[Metadata]
Title:agony (TV Size)
TitleUnicode:agony (TV Size)
Artist:KOTOKO
ArtistUnicode:KOTOKO
Creator:woc2006
Version:Insane
Source:Kannazuki no Miko
Tags:ending
BeatmapID:257311
BeatmapSetID:95898

[Difficulty]
HPDrainRate:8
CircleSize:7
OverallDifficulty:8
ApproachRate:5
SliderMultiplier:1.6
SliderTickRate:1

[Events]
//Background and Video events
0,0,"kannazukinomiko2 (1).jpg",0,0
//Break Periods
//Storyboard Layer 0 (Background)
//Storyboard Layer 1 (Fail)
//Storyboard Layer 2 (Pass)
//Storyboard Layer 3 (Foreground)
//Storyboard Sound Samples
//Background Colour Transformations
3,100,163,162,255

[TimingPoints]
162,454.545454545455,4,2,1,5,1,0
4707,-100,4,2,1,40,0,0
55389,-100,4,2,1,40,0,1
84707,-100,4,2,1,40,0,0
96980,-100,4,2,1,5,0,0

[HitObjects]
36,192,1071,128,0,4707:0:0:0:0:
182,192,1071,1,0,0:0:0:0:
329,192,1184,1,0,0:0:0:0:
475,192,1298,1,0,0:0:0:0:
256,192,1752,1,0,0:0:0:0:
182,192,1980,1,0,0:0:0:0:
329,192,2093,1,0,0:0:0:0:
475,192,2207,1,0,0:0:0:0:
256,192,2662,1,0,0:0:0:0:
182,192,2889,1,0,0:0:0:0:
329,192,3002,1,0,0:0:0:0:
475,192,3116,1,0,0:0:0:0:
256,192,3571,1,0,0:0:0:0:
329,192,3798,1,0,0:0:0:0:
109,192,4707,1,0,0:0:0:0:
256,192,4707,1,0,0:0:0:0:
402,192,4707,1,2,0:0:0:0:
182,192,4934,1,0,0:0:0:0:
329,192,4934,1,0,0:0:0:0:
109,192,5162,1,0,0:0:0:0:
256,192,5162,1,0,0:0:0:0:
402,192,5162,1,0,0:0:0:0:
182,192,5389,1,0,0:0:0:0:
329,192,5389,1,0,0:0:0:0:
182,192,5616,1,2,0:0:0:0:
329,192,5616,1,0,0:0:0:0:
475,192,5616,1,0,0:0:0:0:
109,192,5843,1,0,0:0:0:0:
256,192,5843,1,0,0:0:0:0:
182,192,6071,1,2,0:0:0:0:
329,192,6071,1,0,0:0:0:0:
36,192,6298,1,0,0:0:0:0:
182,192,6298,128,0,6752:0:0:0:0:
329,192,6298,128,0,6752:0:0:0:0:
256,192,6752,1,0,0:0:0:0:
402,192,6752,1,2,0:0:0:0:
329,192,6980,1,0,0:0:0:0:
182,192,6980,1,0,0:0:0:0:
109,192,7207,1,0,0:0:0:0:
402,192,7207,1,0,0:0:0:0:
182,192,7434,1,2,0:0:0:0:
329,192,7434,1,0,0:0:0:0:
109,192,7662,1,0,0:0:0:0:
256,192,7662,1,0,0:0:0:0:
182,192,7889,1,2,0:0:0:0:
329,192,7889,1,0,0:0:0:0:
109,192,8116,1,0,0:0:0:0:
256,192,8116,1,0,0:0:0:0:
36,192,8343,1,0,0:0:0:0:
182,192,8343,1,0,0:0:0:0:
256,192,8571,1,0,0:0:0:0:
402,192,8571,1,0,0:0:0:0:
475,192,8798,1,0,0:0:0:0:
182,192,8798,128,0,9252:0:0:0:0:
329,192,8798,128,0,9252:0:0:0:0:
109,192,9252,1,0,0:0:0:0:
256,192,9252,1,2,0:0:0:0:
402,192,9252,1,0,0:0:0:0:
36,192,9480,1,0,0:0:0:0:
182,192,9480,1,0,0:0:0:0:
182,192,9707,1,2,0:0:0:0:
329,192,9707,1,0,0:0:0:0:
256,192,9934,1,0,0:0:0:0:
182,192,9934,128,0,10389:0:0:0:0:
329,192,9934,128,0,10389:0:0:0:0:
109,192,10389,1,0,0:0:0:0:
256,192,10389,1,0,0:0:0:0:
402,192,10389,1,0,0:0:0:0:
182,192,10616,1,0,0:0:0:0:
329,192,10616,1,0,0:0:0:0:
475,192,10616,1,0,0:0:0:0:
109,192,10730,1,0,0:0:0:0:
36,192,10843,1,0,0:0:0:0:
256,192,10843,1,0,0:0:0:0:
182,192,11071,1,2,0:0:0:0:
402,192,11071,1,0,0:0:0:0:
109,192,11298,1,0,0:0:0:0:
36,192,11525,1,0,0:0:0:0:
256,192,11525,1,2,0:0:0:0:
109,192,11752,1,0,0:0:0:0:
182,192,11980,1,0,0:0:0:0:
329,192,11980,1,0,0:0:0:0:
109,192,12207,1,0,0:0:0:0:
256,192,12207,1,0,0:0:0:0:
36,192,12434,1,0,0:0:0:0:
182,192,12434,1,0,0:0:0:0:
329,192,12434,1,0,0:0:0:0:
109,192,12662,1,0,0:0:0:0:
256,192,12662,1,0,0:0:0:0:
475,192,12889,1,0,0:0:0:0:
329,192,12889,1,0,0:0:0:0:
182,192,12889,1,2,0:0:0:0:
256,192,13116,1,0,0:0:0:0:
402,192,13116,1,0,0:0:0:0:
109,192,13343,1,0,0:0:0:0:
256,192,13343,1,2,0:0:0:0:
402,192,13571,1,0,0:0:0:0:
109,192,13571,128,0,14025:0:0:0:0:
256,192,13571,128,0,14025:0:0:0:0:
182,192,14025,1,2,0:0:0:0:
329,192,14025,1,0,0:0:0:0:
36,192,14025,1,0,0:0:0:0:
109,192,14252,1,0,0:0:0:0:
256,192,14252,1,0,0:0:0:0:
402,192,14252,1,0,0:0:0:0:
329,192,14480,1,0,0:0:0:0:
475,192,14480,1,0,0:0:0:0:
109,192,14707,1,0,0:0:0:0:
182,192,14707,1,2,0:0:0:0:
402,192,14707,1,0,0:0:0:0:
329,192,14934,1,0,0:0:0:0:
475,192,14934,1,0,0:0:0:0:
109,192,15162,1,0,0:0:0:0:
182,192,15162,1,2,0:0:0:0:
402,192,15162,1,0,0:0:0:0:
329,192,15389,1,0,0:0:0:0:
109,192,15389,1,0,0:0:0:0:
36,192,15389,1,0,0:0:0:0:
256,192,15616,1,0,0:0:0:0:
402,192,15616,1,0,0:0:0:0:
109,192,15843,1,0,0:0:0:0:
256,192,15843,1,0,0:0:0:0:
402,192,16071,1,0,0:0:0:0:
36,192,16071,1,0,0:0:0:0:
182,192,16071,1,2,0:0:0:0:
109,192,16298,1,0,0:0:0:0:
182,192,16525,1,2,0:0:0:0:
329,192,16525,1,0,0:0:0:0:
475,192,16525,1,0,0:0:0:0:
109,192,16752,1,0,0:0:0:0:
182,192,16980,1,2,0:0:0:0:
329,192,16980,1,0,0:0:0:0:
475,192,16980,1,0,0:0:0:0:
109,192,17207,1,0,0:0:0:0:
256,192,17207,128,0,17662:0:0:0:0:
402,192,17207,128,0,17662:0:0:0:0:
182,192,17662,1,2,0:0:0:0:
329,192,17662,1,0,0:0:0:0:
109,192,17889,1,0,0:0:0:0:
256,192,17889,1,0,0:0:0:0:
36,192,18116,5,0,0:0:0:0:
182,192,18116,1,0,0:0:0:0:
182,192,18343,1,2,0:0:0:0:
329,192,18343,1,0,0:0:0:0:
475,192,18343,1,0,0:0:0:0:
256,192,18571,1,0,0:0:0:0:
402,192,18571,1,0,0:0:0:0:
182,192,18798,1,2,0:0:0:0:
329,192,18798,1,0,0:0:0:0:
256,192,19025,1,0,0:0:0:0:
109,192,19025,1,0,0:0:0:0:
36,192,19252,5,0,0:0:0:0:
329,192,19252,1,0,0:0:0:0:
109,192,19366,1,0,0:0:0:0:
182,192,19480,1,0,0:0:0:0:
402,192,19480,1,0,0:0:0:0:
36,192,19593,1,0,0:0:0:0:
109,192,19707,1,0,0:0:0:0:
329,192,19707,1,0,0:0:0:0:
182,192,19821,1,0,0:0:0:0:
256,192,19934,1,0,0:0:0:0:
402,192,19934,1,0,0:0:0:0:
36,192,20048,1,0,0:0:0:0:
109,192,20162,1,0,0:0:0:0:
475,192,20162,1,0,0:0:0:0:
182,192,20275,1,0,0:0:0:0:
256,192,20389,1,0,0:0:0:0:
329,192,20502,1,0,0:0:0:0:
36,192,20616,1,0,0:0:0:0:
475,192,20616,1,0,0:0:0:0:
109,192,20730,1,0,0:0:0:0:
182,192,20843,1,0,0:0:0:0:
402,192,20843,1,0,0:0:0:0:
256,192,20957,1,0,0:0:0:0:
329,192,21071,1,0,0:0:0:0:
402,192,21184,1,0,0:0:0:0:
36,192,21298,1,0,0:0:0:0:
256,192,21298,1,0,0:0:0:0:
109,192,21412,1,0,0:0:0:0:
182,192,21525,1,0,0:0:0:0:
402,192,21525,1,0,0:0:0:0:
256,192,21639,1,0,0:0:0:0:
329,192,21752,1,0,0:0:0:0:
402,192,21866,1,0,0:0:0:0:
475,192,21980,1,0,0:0:0:0:
256,192,21980,1,0,0:0:0:0:
109,192,22093,1,0,0:0:0:0:
182,192,22207,1,0,0:0:0:0:
402,192,22207,1,0,0:0:0:0:
256,192,22321,1,0,0:0:0:0:
329,192,22434,1,0,0:0:0:0:
36,192,22434,1,0,0:0:0:0:
402,192,22548,1,0,0:0:0:0:
475,192,22662,1,0,0:0:0:0:
36,192,22662,1,0,0:0:0:0:
182,192,22775,1,0,0:0:0:0:
256,192,22889,1,0,0:0:0:0:
475,192,22889,1,0,0:0:0:0:
329,192,23002,1,0,0:0:0:0:
402,192,23116,1,0,0:0:0:0:
36,192,23116,1,0,0:0:0:0:
475,192,23230,1,0,0:0:0:0:
256,192,23343,1,0,0:0:0:0:
109,192,23343,1,0,0:0:0:0:
329,192,23457,1,0,0:0:0:0:
402,192,23571,1,0,0:0:0:0:
36,192,23571,1,0,0:0:0:0:
475,192,23684,1,0,0:0:0:0:
329,192,23798,1,0,0:0:0:0:
36,192,23798,1,0,0:0:0:0:
182,192,23798,1,0,0:0:0:0:
402,192,23912,1,0,0:0:0:0:
109,192,23912,1,0,0:0:0:0:
475,192,24025,1,0,0:0:0:0:
182,192,24025,1,0,0:0:0:0:
256,192,24139,1,0,0:0:0:0:
329,192,24252,1,0,0:0:0:0:
36,192,24252,1,0,0:0:0:0:
402,192,24366,1,0,0:0:0:0:
475,192,24480,1,0,0:0:0:0:
36,192,24480,1,0,0:0:0:0:
256,192,24480,1,0,0:0:0:0:
109,192,24593,1,0,0:0:0:0:
475,192,24707,1,0,0:0:0:0:
402,192,24764,1,0,0:0:0:0:
329,192,24821,1,0,0:0:0:0:
256,192,24877,1,0,0:0:0:0:
182,192,24934,1,0,0:0:0:0:
109,192,24991,1,0,0:0:0:0:
36,192,25048,1,0,0:0:0:0:
109,192,25105,1,0,0:0:0:0:
182,192,25162,1,0,0:0:0:0:
256,192,25218,1,0,0:0:0:0:
329,192,25275,1,0,0:0:0:0:
402,192,25332,1,0,0:0:0:0:
475,192,25389,1,0,0:0:0:0:
402,192,25446,1,0,0:0:0:0:
329,192,25502,1,0,0:0:0:0:
256,192,25559,1,0,0:0:0:0:
182,192,25616,1,0,0:0:0:0:
109,192,25673,1,0,0:0:0:0:
36,192,25730,1,0,0:0:0:0:
109,192,25787,1,0,0:0:0:0:
182,192,25843,1,0,0:0:0:0:
256,192,25900,1,0,0:0:0:0:
329,192,25957,1,0,0:0:0:0:
402,192,26014,1,0,0:0:0:0:
475,192,26071,1,0,0:0:0:0:
402,192,26127,1,0,0:0:0:0:
329,192,26184,1,0,0:0:0:0:
256,192,26241,1,0,0:0:0:0:
182,192,26298,1,0,0:0:0:0:
109,192,26355,1,0,0:0:0:0:
36,192,26412,1,0,0:0:0:0:
109,192,26468,1,0,0:0:0:0:
182,192,26525,1,4,0:0:0:0:
329,192,26525,1,4,0:0:0:0:
475,192,26525,1,4,0:0:0:0:
329,192,26752,1,0,0:0:0:0:
256,192,26866,1,0,0:0:0:0:
182,192,26980,1,4,0:0:0:0:
329,192,26980,1,4,0:0:0:0:
109,192,26980,1,0,0:0:0:0:
329,192,27207,1,0,0:0:0:0:
256,192,27321,1,0,0:0:0:0:
182,192,27434,1,4,0:0:0:0:
329,192,27434,1,4,0:0:0:0:
475,192,27434,1,4,0:0:0:0:
256,192,27662,128,0,27889:0:0:0:0:
402,192,27662,128,0,27889:0:0:0:0:
182,192,27889,1,4,0:0:0:0:
329,192,27889,1,0,0:0:0:0:
475,192,28116,128,0,28571:0:0:0:0:
182,192,28343,1,0,0:0:0:0:
329,192,28343,1,0,0:0:0:0:
182,192,28571,1,0,0:0:0:0:
402,192,28571,128,0,28798:0:0:0:0:
256,192,28684,1,0,0:0:0:0:
36,192,28798,1,4,0:0:0:0:
182,192,28798,1,4,0:0:0:0:
329,192,28798,1,4,0:0:0:0:
182,192,29025,1,0,0:0:0:0:
402,192,29025,128,0,29252:0:0:0:0:
256,192,29139,1,0,0:0:0:0:
329,192,29252,1,4,0:0:0:0:
36,192,29252,1,4,0:0:0:0:
182,192,29252,1,4,0:0:0:0:
256,192,29366,1,0,0:0:0:0:
109,192,29480,1,0,0:0:0:0:
402,192,29480,128,0,29707:0:0:0:0:
256,192,29593,1,0,0:0:0:0:
329,192,29707,1,4,0:0:0:0:
182,192,29707,1,0,0:0:0:0:
36,192,29707,1,0,0:0:0:0:
256,192,29821,1,0,0:0:0:0:
109,192,29934,1,0,0:0:0:0:
475,192,29934,128,0,30389:0:0:0:0:
256,192,30048,1,0,0:0:0:0:
329,192,30162,1,4,0:0:0:0:
36,192,30162,1,4,0:0:0:0:
182,192,30162,1,4,0:0:0:0:
256,192,30275,1,0,0:0:0:0:
402,192,30389,128,0,30616:0:0:0:0:
109,192,30389,1,0,0:0:0:0:
256,192,30502,1,0,0:0:0:0:
36,192,30616,1,0,0:0:0:0:
182,192,30616,1,0,0:0:0:0:
329,192,30616,1,0,0:0:0:0:
109,192,30730,1,0,0:0:0:0:
329,192,30843,128,0,31071:0:0:0:0:
36,192,30843,1,0,0:0:0:0:
109,192,30957,1,0,0:0:0:0:
36,192,31071,1,4,0:0:0:0:
256,192,31071,1,0,0:0:0:0:
475,192,31071,1,0,0:0:0:0:
182,192,31184,1,0,0:0:0:0:
329,192,31298,128,0,31525:0:0:0:0:
36,192,31298,1,0,0:0:0:0:
109,192,31412,1,0,0:0:0:0:
36,192,31525,1,4,0:0:0:0:
182,192,31525,1,4,0:0:0:0:
475,192,31525,1,0,0:0:0:0:
402,192,31639,1,0,0:0:0:0:
109,192,31752,128,0,32434:0:0:0:0:
256,192,31752,128,0,32434:0:0:0:0:
182,192,31980,1,4,0:0:0:0:
329,192,31980,1,4,0:0:0:0:
475,192,32093,1,0,0:0:0:0:
329,192,32207,1,0,0:0:0:0:
182,192,32321,1,0,0:0:0:0:
475,192,32434,1,4,0:0:0:0:
329,192,32434,1,4,0:0:0:0:
402,192,32662,1,0,0:0:0:0:
329,192,32775,1,0,0:0:0:0:
256,192,32889,1,0,0:0:0:0:
109,192,32889,1,4,0:0:0:0:
36,192,32889,1,4,0:0:0:0:
329,192,33002,1,0,0:0:0:0:
475,192,33116,1,0,0:0:0:0:
402,192,33230,1,0,0:0:0:0:
36,192,33343,1,4,0:0:0:0:
109,192,33343,1,4,0:0:0:0:
256,192,33343,1,0,0:0:0:0:
329,192,33457,1,0,0:0:0:0:
182,192,33571,1,0,0:0:0:0:
256,192,33684,1,0,0:0:0:0:
36,192,33798,1,4,0:0:0:0:
109,192,33798,1,4,0:0:0:0:
329,192,33798,1,4,0:0:0:0:
475,192,33798,128,0,34480:0:0:0:0:
329,192,34025,128,0,34252:0:0:0:0:
36,192,34252,1,4,0:0:0:0:
109,192,34252,1,4,0:0:0:0:
402,192,34252,1,4,0:0:0:0:
329,192,34480,128,0,34707:0:0:0:0:
256,192,34593,1,0,0:0:0:0:
109,192,34707,1,4,0:0:0:0:
182,192,34707,1,4,0:0:0:0:
402,192,34821,1,0,0:0:0:0:
475,192,34934,1,0,0:0:0:0:
256,192,34934,1,0,0:0:0:0:
402,192,35048,1,0,0:0:0:0:
36,192,35162,1,4,0:0:0:0:
182,192,35162,1,4,0:0:0:0:
329,192,35162,1,4,0:0:0:0:
329,192,35275,1,0,0:0:0:0:
256,192,35389,128,0,35843:0:0:0:0:
402,192,35389,128,0,35843:0:0:0:0:
475,192,35389,1,0,0:0:0:0:
329,192,35502,1,0,0:0:0:0:
182,192,35616,1,4,0:0:0:0:
36,192,35730,1,0,0:0:0:0:
182,192,35843,1,0,0:0:0:0:
329,192,35843,1,0,0:0:0:0:
402,192,36071,1,4,0:0:0:0:
256,192,36071,1,4,0:0:0:0:
475,192,36071,1,4,0:0:0:0:
182,192,36298,1,0,0:0:0:0:
402,192,36298,1,0,0:0:0:0:
256,192,36412,1,0,0:0:0:0:
329,192,36525,1,4,0:0:0:0:
475,192,36525,1,4,0:0:0:0:
402,192,36639,1,0,0:0:0:0:
329,192,36752,1,0,0:0:0:0:
109,192,36752,1,0,0:0:0:0:
256,192,36866,1,0,0:0:0:0:
36,192,36980,1,4,0:0:0:0:
182,192,36980,1,4,0:0:0:0:
402,192,36980,1,4,0:0:0:0:
329,192,37093,1,0,0:0:0:0:
256,192,37207,1,0,0:0:0:0:
475,192,37207,1,0,0:0:0:0:
182,192,37321,1,0,0:0:0:0:
36,192,37434,5,0,0:0:0:0:
109,192,37491,1,0,0:0:0:0:
182,192,37548,1,0,0:0:0:0:
256,192,37605,1,0,0:0:0:0:
329,192,37662,1,0,0:0:0:0:
402,192,37718,1,0,0:0:0:0:
475,192,37775,1,0,0:0:0:0:
402,192,37832,1,0,0:0:0:0:
36,192,37889,1,4,0:0:0:0:
182,192,37889,1,4,0:0:0:0:
329,192,37889,1,4,0:0:0:0:
402,192,38116,1,0,0:0:0:0:
109,192,38116,1,0,0:0:0:0:
36,192,38230,1,0,0:0:0:0:
256,192,38343,1,0,0:0:0:0:
329,192,38400,1,0,0:0:0:0:
402,192,38457,1,0,0:0:0:0:
475,192,38514,1,0,0:0:0:0:
182,192,38571,1,0,0:0:0:0:
256,192,38627,1,0,0:0:0:0:
329,192,38684,1,0,0:0:0:0:
402,192,38741,1,0,0:0:0:0:
475,192,38798,1,4,0:0:0:0:
36,192,38798,1,4,0:0:0:0:
182,192,38798,1,4,0:0:0:0:
109,192,39025,1,0,0:0:0:0:
402,192,39025,1,0,0:0:0:0:
36,192,39139,1,0,0:0:0:0:
182,192,39252,1,4,0:0:0:0:
329,192,39252,1,4,0:0:0:0:
109,192,39366,1,0,0:0:0:0:
256,192,39366,1,0,0:0:0:0:
402,192,39366,1,0,0:0:0:0:
36,192,39480,1,0,0:0:0:0:
475,192,39480,1,0,0:0:0:0:
109,192,39593,1,0,0:0:0:0:
402,192,39593,1,0,0:0:0:0:
36,192,39707,1,0,0:0:0:0:
256,192,39707,1,0,0:0:0:0:
475,192,39707,1,0,0:0:0:0:
109,192,39821,1,0,0:0:0:0:
402,192,39821,1,0,0:0:0:0:
182,192,39934,1,0,0:0:0:0:
329,192,39934,1,0,0:0:0:0:
256,192,40048,1,0,0:0:0:0:
182,192,40162,1,4,0:0:0:0:
329,192,40162,1,4,0:0:0:0:
109,192,40275,1,0,0:0:0:0:
402,192,40275,1,0,0:0:0:0:
36,192,40389,1,0,0:0:0:0:
475,192,40389,1,0,0:0:0:0:
109,192,40502,1,0,0:0:0:0:
402,192,40502,1,0,0:0:0:0:
36,192,40616,1,0,0:0:0:0:
329,192,40616,1,0,0:0:0:0:
109,192,40730,1,0,0:0:0:0:
402,192,40730,1,0,0:0:0:0:
182,192,40843,1,0,0:0:0:0:
475,192,40843,1,0,0:0:0:0:
256,192,40957,1,0,0:0:0:0:
329,192,41071,128,0,41980:0:0:0:0:
36,192,41071,1,4,0:0:0:0:
402,192,41071,1,4,0:0:0:0:
109,192,41298,1,0,0:0:0:0:
182,192,41412,1,0,0:0:0:0:
256,192,41525,1,4,0:0:0:0:
36,192,41525,1,4,0:0:0:0:
402,192,41639,1,0,0:0:0:0:
256,192,41752,1,0,0:0:0:0:
182,192,41866,1,0,0:0:0:0:
109,192,41980,1,4,0:0:0:0:
402,192,41980,1,4,0:0:0:0:
475,192,42093,1,0,0:0:0:0:
109,192,42207,128,0,42321:0:0:0:0:
329,192,42207,1,0,0:0:0:0:
256,192,42321,1,0,0:0:0:0:
182,192,42434,1,4,0:0:0:0:
36,192,42434,1,4,0:0:0:0:
402,192,42662,128,0,42775:0:0:0:0:
256,192,42662,1,0,0:0:0:0:
182,192,42775,1,0,0:0:0:0:
109,192,42889,1,4,0:0:0:0:
329,192,42889,1,4,0:0:0:0:
182,192,43002,1,0,0:0:0:0:
109,192,43116,128,0,43230:0:0:0:0:
256,192,43116,1,0,0:0:0:0:
329,192,43230,1,0,0:0:0:0:
36,192,43343,1,4,0:0:0:0:
402,192,43343,1,4,0:0:0:0:
109,192,43571,128,0,43684:0:0:0:0:
329,192,43571,1,0,0:0:0:0:
256,192,43684,1,0,0:0:0:0:
36,192,43798,1,4,0:0:0:0:
182,192,43798,1,4,0:0:0:0:
256,192,43912,1,0,0:0:0:0:
109,192,44025,128,0,44139:0:0:0:0:
329,192,44025,1,0,0:0:0:0:
402,192,44139,1,0,0:0:0:0:
36,192,44252,1,4,0:0:0:0:
475,192,44252,1,4,0:0:0:0:
109,192,44480,128,0,44593:0:0:0:0:
256,192,44480,1,0,0:0:0:0:
329,192,44593,1,0,0:0:0:0:
36,192,44707,128,0,45616:0:0:0:0:
402,192,44707,1,4,0:0:0:0:
475,192,44707,1,4,0:0:0:0:
402,192,44934,128,0,45048:0:0:0:0:
256,192,44934,1,0,0:0:0:0:
182,192,45048,1,0,0:0:0:0:
109,192,45162,1,4,0:0:0:0:
475,192,45162,1,4,0:0:0:0:
182,192,45275,1,0,0:0:0:0:
402,192,45389,128,0,45502:0:0:0:0:
256,192,45389,1,0,0:0:0:0:
329,192,45502,1,0,0:0:0:0:
109,192,45616,128,0,46525:0:0:0:0:
475,192,45616,1,4,0:0:0:0:
182,192,45616,1,4,0:0:0:0:
402,192,45730,1,0,0:0:0:0:
475,192,45843,128,0,45957:0:0:0:0:
329,192,45843,1,0,0:0:0:0:
256,192,45957,1,0,0:0:0:0:
475,192,46071,1,4,0:0:0:0:
182,192,46071,1,4,0:0:0:0:
402,192,46184,1,0,0:0:0:0:
475,192,46298,128,0,46412:0:0:0:0:
329,192,46298,1,0,0:0:0:0:
256,192,46412,1,0,0:0:0:0:
182,192,46525,128,0,47434:0:0:0:0:
329,192,46525,1,4,0:0:0:0:
36,192,46525,1,4,0:0:0:0:
256,192,46639,1,0,0:0:0:0:
475,192,46752,128,0,46866:0:0:0:0:
329,192,46752,1,0,0:0:0:0:
402,192,46866,1,0,0:0:0:0:
475,192,46980,1,4,0:0:0:0:
109,192,46980,1,4,0:0:0:0:
475,192,47207,128,0,47321:0:0:0:0:
256,192,47207,1,0,0:0:0:0:
329,192,47321,1,0,0:0:0:0:
402,192,47434,1,4,0:0:0:0:
109,192,47434,1,4,0:0:0:0:
256,192,47662,1,0,0:0:0:0:
329,192,47775,1,0,0:0:0:0:
402,192,47889,1,4,0:0:0:0:
109,192,47889,1,4,0:0:0:0:
256,192,48116,1,0,0:0:0:0:
109,192,48116,128,0,48230:0:0:0:0:
329,192,48230,1,0,0:0:0:0:
402,192,48343,1,4,0:0:0:0:
109,192,48343,1,4,0:0:0:0:
182,192,48457,1,0,0:0:0:0:
109,192,48571,128,0,48684:0:0:0:0:
475,192,48571,1,0,0:0:0:0:
256,192,48684,1,0,0:0:0:0:
402,192,48798,1,4,0:0:0:0:
475,192,48798,1,4,0:0:0:0:
36,192,48912,128,0,49025:0:0:0:0:
182,192,48912,1,0,0:0:0:0:
475,192,49025,1,0,0:0:0:0:
256,192,49139,1,0,0:0:0:0:
109,192,49139,128,0,49252:0:0:0:0:
402,192,49252,1,4,0:0:0:0:
329,192,49252,1,4,0:0:0:0:
109,192,49366,1,0,0:0:0:0:
182,192,49480,128,0,49593:0:0:0:0:
475,192,49480,1,0,0:0:0:0:
256,192,49593,1,0,0:0:0:0:
36,192,49707,1,4,0:0:0:0:
109,192,49707,1,4,0:0:0:0:
182,192,49821,1,0,0:0:0:0:
109,192,49934,128,0,50048:0:0:0:0:
256,192,49934,1,0,0:0:0:0:
329,192,50048,1,0,0:0:0:0:
402,192,50162,1,4,0:0:0:0:
475,192,50162,1,4,0:0:0:0:
109,192,50389,128,0,50502:0:0:0:0:
402,192,50389,1,0,0:0:0:0:
329,192,50502,1,0,0:0:0:0:
256,192,50616,1,4,0:0:0:0:
475,192,50616,1,4,0:0:0:0:
182,192,50730,128,0,50843:0:0:0:0:
402,192,50730,1,0,0:0:0:0:
329,192,50843,1,0,0:0:0:0:
256,192,50957,128,0,51071:0:0:0:0:
36,192,50957,1,0,0:0:0:0:
109,192,51071,1,4,0:0:0:0:
402,192,51071,1,4,0:0:0:0:
329,192,51184,1,0,0:0:0:0:
256,192,51298,1,0,0:0:0:0:
402,192,51298,1,0,0:0:0:0:
329,192,51412,1,0,0:0:0:0:
109,192,51525,1,4,0:0:0:0:
256,192,51525,1,4,0:0:0:0:
402,192,51525,1,4,0:0:0:0:
329,192,51639,1,0,0:0:0:0:
402,192,51752,1,0,0:0:0:0:
182,192,51752,1,0,0:0:0:0:
109,192,51809,1,0,0:0:0:0:
329,192,51809,1,0,0:0:0:0:
36,192,51980,1,4,0:0:0:0:
402,192,51980,1,4,0:0:0:0:
256,192,51980,1,4,0:0:0:0:
182,192,52093,1,0,0:0:0:0:
109,192,52207,1,0,0:0:0:0:
256,192,52207,1,0,0:0:0:0:
182,192,52321,1,0,0:0:0:0:
36,192,52434,1,4,0:0:0:0:
256,192,52434,1,4,0:0:0:0:
329,192,52434,1,4,0:0:0:0:
109,192,52548,1,0,0:0:0:0:
402,192,52548,1,0,0:0:0:0:
182,192,52662,1,0,0:0:0:0:
475,192,52662,1,0,0:0:0:0:
109,192,52775,1,0,0:0:0:0:
402,192,52775,1,0,0:0:0:0:
36,192,52889,1,4,0:0:0:0:
329,192,52889,1,4,0:0:0:0:
182,192,52889,1,4,0:0:0:0:
256,192,53002,1,0,0:0:0:0:
402,192,53002,1,0,0:0:0:0:
329,192,53116,1,0,0:0:0:0:
475,192,53116,1,0,0:0:0:0:
109,192,53230,1,0,0:0:0:0:
256,192,53230,1,0,0:0:0:0:
182,192,53343,1,4,0:0:0:0:
329,192,53343,1,4,0:0:0:0:
256,192,53457,1,0,0:0:0:0:
402,192,53457,1,0,0:0:0:0:
182,192,53571,1,0,0:0:0:0:
475,192,53571,1,0,0:0:0:0:
109,192,53571,128,0,53798:0:0:0:0:
402,192,53571,128,0,53798:0:0:0:0:
36,192,53798,5,0,0:0:0:0:
329,192,53798,1,0,0:0:0:0:
109,192,53912,1,0,0:0:0:0:
402,192,53912,1,0,0:0:0:0:
182,192,54025,1,0,0:0:0:0:
475,192,54025,1,0,0:0:0:0:
36,192,54252,1,0,0:0:0:0:
182,192,54252,1,0,0:0:0:0:
402,192,54252,1,0,0:0:0:0:
182,192,54480,1,0,0:0:0:0:
402,192,54480,1,0,0:0:0:0:
109,192,54593,1,0,0:0:0:0:
329,192,54593,1,0,0:0:0:0:
36,192,54707,1,0,0:0:0:0:
109,192,54764,1,0,0:0:0:0:
182,192,54821,1,0,0:0:0:0:
256,192,54877,1,0,0:0:0:0:
329,192,54934,1,0,0:0:0:0:
36,192,54934,1,0,0:0:0:0:
475,192,54934,1,0,0:0:0:0:
109,192,54991,1,0,0:0:0:0:
182,192,55048,1,0,0:0:0:0:
256,192,55105,1,0,0:0:0:0:
329,192,55162,1,0,0:0:0:0:
402,192,55218,1,0,0:0:0:0:
475,192,55275,1,0,0:0:0:0:
402,192,55332,1,0,0:0:0:0:
329,192,55389,1,0,0:0:0:0:
182,192,55389,1,0,0:0:0:0:
36,192,55389,1,0,0:0:0:0:
256,192,55502,1,0,0:0:0:0:
329,192,55616,1,0,0:0:0:0:
109,192,55616,128,0,57434:0:0:0:0:
256,192,55843,1,0,0:0:0:0:
402,192,56071,1,4,0:0:0:0:
475,192,56071,1,4,0:0:0:0:
256,192,56298,1,0,0:0:0:0:
402,192,56525,1,4,0:0:0:0:
475,192,56525,1,4,0:0:0:0:
256,192,56752,1,0,0:0:0:0:
402,192,56980,1,4,0:0:0:0:
475,192,56980,1,4,0:0:0:0:
256,192,57207,1,0,0:0:0:0:
402,192,57434,128,0,58343:0:0:0:0:
182,192,57434,1,4,0:0:0:0:
329,192,57434,1,4,0:0:0:0:
256,192,57662,1,0,0:0:0:0:
36,192,57889,1,4,0:0:0:0:
109,192,57889,1,4,0:0:0:0:
256,192,58116,1,0,0:0:0:0:
475,192,58343,128,0,58798:0:0:0:0:
109,192,58343,1,4,0:0:0:0:
36,192,58343,1,4,0:0:0:0:
256,192,58571,1,0,0:0:0:0:
402,192,58798,128,0,59252:0:0:0:0:
109,192,58798,1,4,0:0:0:0:
36,192,58798,1,4,0:0:0:0:
256,192,59025,1,0,0:0:0:0:
329,192,59252,128,0,61071:0:0:0:0:
109,192,59252,1,4,0:0:0:0:
36,192,59252,1,4,0:0:0:0:
182,192,59480,1,0,0:0:0:0:
109,192,59707,1,4,0:0:0:0:
475,192,59707,1,4,0:0:0:0:
182,192,59934,1,0,0:0:0:0:
109,192,60162,1,4,0:0:0:0:
475,192,60162,1,4,0:0:0:0:
182,192,60389,1,0,0:0:0:0:
109,192,60616,1,4,0:0:0:0:
475,192,60616,1,4,0:0:0:0:
36,192,60843,1,0,0:0:0:0:
256,192,61071,128,0,61980:0:0:0:0:
109,192,61071,1,4,0:0:0:0:
182,192,61071,1,4,0:0:0:0:
36,192,61298,1,0,0:0:0:0:
182,192,61525,1,4,0:0:0:0:
402,192,61525,1,4,0:0:0:0:
36,192,61752,1,0,0:0:0:0:
182,192,61980,128,0,62434:0:0:0:0:
402,192,61980,1,4,0:0:0:0:
475,192,61980,1,4,0:0:0:0:
329,192,62093,1,0,0:0:0:0:
402,192,62207,1,0,0:0:0:0:
475,192,62321,1,0,0:0:0:0:
109,192,62434,128,0,62889:0:0:0:0:
402,192,62434,1,4,0:0:0:0:
329,192,62548,1,0,0:0:0:0:
402,192,62662,1,0,0:0:0:0:
475,192,62775,1,0,0:0:0:0:
36,192,62889,128,0,63798:0:0:0:0:
402,192,62889,1,4,0:0:0:0:
256,192,62889,1,4,0:0:0:0:
329,192,63116,1,0,0:0:0:0:
402,192,63230,1,0,0:0:0:0:
475,192,63343,1,4,0:0:0:0:
182,192,63343,1,4,0:0:0:0:
402,192,63457,1,0,0:0:0:0:
109,192,63457,1,0,0:0:0:0:
329,192,63571,1,0,0:0:0:0:
256,192,63684,1,0,0:0:0:0:
182,192,63798,128,0,64480:0:0:0:0:
329,192,63798,1,4,0:0:0:0:
475,192,63798,1,4,0:0:0:0:
402,192,63912,1,0,0:0:0:0:
475,192,64025,1,0,0:0:0:0:
329,192,64139,1,0,0:0:0:0:
36,192,64252,1,4,0:0:0:0:
402,192,64252,1,4,0:0:0:0:
109,192,64366,1,0,0:0:0:0:
475,192,64366,1,0,0:0:0:0:
256,192,64480,128,0,64593:0:0:0:0:
36,192,64480,1,0,0:0:0:0:
329,192,64593,128,0,64707:0:0:0:0:
109,192,64593,1,0,0:0:0:0:
402,192,64707,128,0,65616:0:0:0:0:
36,192,64707,1,4,0:0:0:0:
256,192,64707,1,4,0:0:0:0:
182,192,64821,1,0,0:0:0:0:
109,192,64934,1,0,0:0:0:0:
36,192,65048,1,0,0:0:0:0:
329,192,65162,1,4,0:0:0:0:
109,192,65162,1,4,0:0:0:0:
256,192,65275,1,0,0:0:0:0:
182,192,65389,1,0,0:0:0:0:
109,192,65502,1,0,0:0:0:0:
475,192,65616,128,0,66071:0:0:0:0:
36,192,65616,1,4,0:0:0:0:
329,192,65616,1,4,0:0:0:0:
256,192,65730,1,0,0:0:0:0:
182,192,65843,1,0,0:0:0:0:
109,192,65957,1,0,0:0:0:0:
329,192,66071,128,0,66525:0:0:0:0:
36,192,66071,1,4,0:0:0:0:
256,192,66071,1,4,0:0:0:0:
182,192,66184,1,0,0:0:0:0:
109,192,66298,1,0,0:0:0:0:
182,192,66412,1,0,0:0:0:0:
256,192,66525,1,4,0:0:0:0:
36,192,66525,128,0,67889:0:0:0:0:
329,192,66639,1,0,0:0:0:0:
402,192,66752,1,0,0:0:0:0:
475,192,66866,1,0,0:0:0:0:
182,192,66980,1,4,0:0:0:0:
256,192,67093,1,0,0:0:0:0:
329,192,67207,1,0,0:0:0:0:
402,192,67321,1,0,0:0:0:0:
475,192,67434,1,4,0:0:0:0:
182,192,67434,1,4,0:0:0:0:
256,192,67548,1,0,0:0:0:0:
329,192,67662,1,0,0:0:0:0:
402,192,67775,1,0,0:0:0:0:
475,192,67889,1,4,0:0:0:0:
402,192,68002,1,0,0:0:0:0:
109,192,68116,1,0,0:0:0:0:
329,192,68116,1,0,0:0:0:0:
182,192,68230,1,0,0:0:0:0:
402,192,68230,1,0,0:0:0:0:
36,192,68343,1,4,0:0:0:0:
475,192,68343,1,4,0:0:0:0:
256,192,68343,1,0,0:0:0:0:
109,192,68457,1,0,0:0:0:0:
402,192,68457,1,0,0:0:0:0:
182,192,68571,1,0,0:0:0:0:
329,192,68571,1,0,0:0:0:0:
475,192,68571,1,0,0:0:0:0:
402,192,68684,1,0,0:0:0:0:
256,192,68798,1,4,0:0:0:0:
36,192,68798,128,4,69139:0:0:0:0:
402,192,68912,1,0,0:0:0:0:
256,192,69025,1,4,0:0:0:0:
402,192,69139,128,0,70162:0:0:0:0:
109,192,69252,1,4,0:0:0:0:
256,192,69252,1,4,0:0:0:0:
256,192,69480,1,4,0:0:0:0:
182,192,69593,1,0,0:0:0:0:
109,192,69707,1,4,0:0:0:0:
36,192,69707,1,4,0:0:0:0:
182,192,69821,1,4,0:0:0:0:
256,192,69934,1,4,0:0:0:0:
329,192,70048,1,4,0:0:0:0:
182,192,70162,128,0,71071:0:0:0:0:
256,192,70162,1,4,0:0:0:0:
36,192,70162,1,4,0:0:0:0:
329,192,70389,1,0,0:0:0:0:
402,192,70502,1,0,0:0:0:0:
329,192,70616,1,4,0:0:0:0:
109,192,70616,1,4,0:0:0:0:
402,192,70843,1,0,0:0:0:0:
475,192,70957,1,0,0:0:0:0:
402,192,71071,1,4,0:0:0:0:
109,192,71071,1,4,0:0:0:0:
329,192,71184,1,0,0:0:0:0:
256,192,71298,1,0,0:0:0:0:
182,192,71412,1,0,0:0:0:0:
109,192,71525,1,4,0:0:0:0:
402,192,71525,1,4,0:0:0:0:
329,192,71639,1,0,0:0:0:0:
256,192,71752,128,0,71980:0:0:0:0:
329,192,71980,128,0,72889:0:0:0:0:
109,192,71980,1,4,0:0:0:0:
402,192,71980,1,4,0:0:0:0:
36,192,71980,1,4,0:0:0:0:
182,192,72093,1,0,0:0:0:0:
256,192,72207,1,0,0:0:0:0:
402,192,72207,1,0,0:0:0:0:
182,192,72321,1,0,0:0:0:0:
109,192,72434,1,4,0:0:0:0:
36,192,72434,1,4,0:0:0:0:
182,192,72548,1,0,0:0:0:0:
256,192,72662,1,0,0:0:0:0:
402,192,72662,1,0,0:0:0:0:
182,192,72775,1,0,0:0:0:0:
475,192,72889,128,0,73343:0:0:0:0:
36,192,72889,1,4,0:0:0:0:
109,192,72889,1,4,0:0:0:0:
182,192,73002,1,0,0:0:0:0:
256,192,73116,1,0,0:0:0:0:
402,192,73116,1,0,0:0:0:0:
182,192,73230,1,0,0:0:0:0:
402,192,73343,128,0,73798:0:0:0:0:
329,192,73343,1,4,0:0:0:0:
109,192,73343,1,4,0:0:0:0:
256,192,73457,1,0,0:0:0:0:
36,192,73571,1,0,0:0:0:0:
182,192,73571,1,0,0:0:0:0:
256,192,73798,128,0,75616:0:0:0:0:
109,192,73798,1,4,0:0:0:0:
182,192,74025,1,0,0:0:0:0:
402,192,74025,1,0,0:0:0:0:
109,192,74252,1,4,0:0:0:0:
329,192,74252,1,4,0:0:0:0:
182,192,74480,1,0,0:0:0:0:
402,192,74480,1,0,0:0:0:0:
109,192,74593,1,0,0:0:0:0:
36,192,74707,1,4,0:0:0:0:
329,192,74707,1,4,0:0:0:0:
109,192,74821,1,0,0:0:0:0:
182,192,74934,1,0,0:0:0:0:
402,192,74934,1,0,0:0:0:0:
109,192,75048,1,0,0:0:0:0:
36,192,75162,1,4,0:0:0:0:
329,192,75162,1,4,0:0:0:0:
109,192,75275,1,0,0:0:0:0:
182,192,75389,1,0,0:0:0:0:
402,192,75389,1,0,0:0:0:0:
182,192,75616,128,0,76525:0:0:0:0:
329,192,75616,1,4,0:0:0:0:
475,192,75616,1,4,0:0:0:0:
402,192,75730,1,0,0:0:0:0:
329,192,75843,1,0,0:0:0:0:
402,192,75957,1,0,0:0:0:0:
475,192,76071,1,4,0:0:0:0:
329,192,76071,1,4,0:0:0:0:
402,192,76298,1,0,0:0:0:0:
329,192,76412,1,0,0:0:0:0:
402,192,76525,128,0,76980:0:0:0:0:
256,192,76525,1,4,0:0:0:0:
36,192,76525,1,4,0:0:0:0:
182,192,76639,1,0,0:0:0:0:
109,192,76752,1,0,0:0:0:0:
36,192,76866,1,0,0:0:0:0:
329,192,76980,128,0,77434:0:0:0:0:
256,192,76980,1,4,0:0:0:0:
109,192,76980,1,4,0:0:0:0:
182,192,77093,1,0,0:0:0:0:
109,192,77207,1,0,0:0:0:0:
256,192,77434,128,0,78343:0:0:0:0:
182,192,77434,1,0,0:0:0:0:
475,192,77434,1,4,0:0:0:0:
109,192,77548,1,0,0:0:0:0:
36,192,77662,1,0,0:0:0:0:
182,192,77889,1,4,0:0:0:0:
475,192,77889,1,4,0:0:0:0:
109,192,78002,1,0,0:0:0:0:
36,192,78116,1,0,0:0:0:0:
109,192,78230,1,0,0:0:0:0:
182,192,78343,1,4,0:0:0:0:
402,192,78343,1,4,0:0:0:0:
256,192,78457,1,0,0:0:0:0:
329,192,78571,1,0,0:0:0:0:
109,192,78571,1,0,0:0:0:0:
402,192,78684,1,0,0:0:0:0:
182,192,78798,1,4,0:0:0:0:
475,192,78798,1,4,0:0:0:0:
109,192,78912,1,0,0:0:0:0:
402,192,78912,1,0,0:0:0:0:
36,192,79025,1,0,0:0:0:0:
329,192,79025,1,0,0:0:0:0:
109,192,79139,1,0,0:0:0:0:
182,192,79252,1,4,0:0:0:0:
329,192,79252,1,4,0:0:0:0:
402,192,79366,1,0,0:0:0:0:
109,192,79366,1,0,0:0:0:0:
475,192,79480,1,0,0:0:0:0:
182,192,79480,1,0,0:0:0:0:
402,192,79593,1,0,0:0:0:0:
329,192,79707,1,4,0:0:0:0:
36,192,79707,1,4,0:0:0:0:
402,192,79821,1,0,0:0:0:0:
109,192,79821,1,0,0:0:0:0:
475,192,79934,1,0,0:0:0:0:
36,192,79934,1,0,0:0:0:0:
402,192,80048,1,0,0:0:0:0:
329,192,80162,1,4,0:0:0:0:
182,192,80162,1,4,0:0:0:0:
109,192,80275,1,0,0:0:0:0:
402,192,80275,1,0,0:0:0:0:
36,192,80389,1,0,0:0:0:0:
475,192,80389,1,0,0:0:0:0:
109,192,80502,1,0,0:0:0:0:
182,192,80616,1,4,0:0:0:0:
329,192,80616,1,4,0:0:0:0:
402,192,80730,1,0,0:0:0:0:
329,192,80843,1,0,0:0:0:0:
402,192,80957,1,0,0:0:0:0:
329,192,81071,1,4,0:0:0:0:
109,192,81071,128,4,82889:0:0:0:0:
256,192,81298,1,0,0:0:0:0:
182,192,81525,1,4,0:0:0:0:
402,192,81525,1,4,0:0:0:0:
256,192,81639,1,0,0:0:0:0:
182,192,81752,1,0,0:0:0:0:
256,192,81866,1,0,0:0:0:0:
182,192,81980,1,4,0:0:0:0:
475,192,81980,1,4,0:0:0:0:
256,192,82093,1,0,0:0:0:0:
475,192,82207,1,0,0:0:0:0:
256,192,82321,1,0,0:0:0:0:
182,192,82434,1,0,0:0:0:0:
402,192,82434,1,0,0:0:0:0:
329,192,82548,1,0,0:0:0:0:
402,192,82662,1,0,0:0:0:0:
329,192,82775,1,0,0:0:0:0:
256,192,82889,1,0,0:0:0:0:
402,192,82889,1,0,0:0:0:0:
36,192,82889,128,0,84025:0:0:0:0:
475,192,82889,128,0,84025:0:0:0:0:
182,192,83002,1,0,0:0:0:0:
329,192,83002,1,0,0:0:0:0:
256,192,83116,1,0,0:0:0:0:
182,192,83343,1,0,0:0:0:0:
329,192,83571,1,0,0:0:0:0:
256,192,83684,1,0,0:0:0:0:
182,192,83798,1,0,0:0:0:0:
256,192,83912,1,0,0:0:0:0:
329,192,84025,1,0,0:0:0:0:
256,192,84139,1,0,0:0:0:0:
475,192,84139,1,0,0:0:0:0:
402,192,84252,1,0,0:0:0:0:
109,192,84252,1,0,0:0:0:0:
329,192,84309,1,0,0:0:0:0:
256,192,84366,1,0,0:0:0:0:
182,192,84423,1,0,0:0:0:0:
36,192,84480,1,0,0:0:0:0:
109,192,84537,1,0,0:0:0:0:
182,192,84593,1,0,0:0:0:0:
256,192,84650,1,0,0:0:0:0:
109,192,84707,1,4,0:0:0:0:
329,192,84707,1,4,0:0:0:0:
475,192,84707,1,4,0:0:0:0:
182,192,84934,1,0,0:0:0:0:
402,192,84934,1,0,0:0:0:0:
36,192,84934,1,0,0:0:0:0:
182,192,85162,128,0,85389:0:0:0:0:
329,192,85162,1,4,0:0:0:0:
475,192,85162,1,4,0:0:0:0:
109,192,85389,128,0,85843:0:0:0:0:
402,192,85389,1,0,0:0:0:0:
329,192,85616,1,4,0:0:0:0:
475,192,85616,1,4,0:0:0:0:
182,192,85843,128,0,86298:0:0:0:0:
402,192,85843,1,0,0:0:0:0:
329,192,86071,1,4,0:0:0:0:
475,192,86071,1,4,0:0:0:0:
36,192,86298,128,0,86980:0:0:0:0:
256,192,86298,1,0,0:0:0:0:
182,192,86525,1,4,0:0:0:0:
329,192,86525,1,4,0:0:0:0:
256,192,86752,1,0,0:0:0:0:
256,192,86980,128,0,87207:0:0:0:0:
329,192,86980,1,4,0:0:0:0:
475,192,86980,1,4,0:0:0:0:
182,192,87207,128,0,87662:0:0:0:0:
402,192,87207,1,0,0:0:0:0:
329,192,87434,1,4,0:0:0:0:
109,192,87434,1,4,0:0:0:0:
256,192,87662,128,0,88116:0:0:0:0:
402,192,87662,1,0,0:0:0:0:
109,192,87889,1,4,0:0:0:0:
329,192,87889,1,4,0:0:0:0:
402,192,88116,128,0,88798:0:0:0:0:
182,192,88116,1,0,0:0:0:0:
109,192,88343,1,4,0:0:0:0:
256,192,88343,1,4,0:0:0:0:
329,192,88571,1,0,0:0:0:0:
329,192,88798,128,0,89025:0:0:0:0:
36,192,88798,1,4,0:0:0:0:
182,192,88798,1,4,0:0:0:0:
256,192,89025,128,0,89480:0:0:0:0:
109,192,89025,1,0,0:0:0:0:
182,192,89252,1,4,0:0:0:0:
402,192,89252,1,4,0:0:0:0:
329,192,89480,128,0,89934:0:0:0:0:
109,192,89480,1,0,0:0:0:0:
36,192,89707,1,4,0:0:0:0:
182,192,89707,1,4,0:0:0:0:
256,192,89934,128,0,90616:0:0:0:0:
109,192,89934,1,0,0:0:0:0:
36,192,90162,1,4,0:0:0:0:
402,192,90162,1,4,0:0:0:0:
109,192,90275,1,0,0:0:0:0:
182,192,90389,1,0,0:0:0:0:
329,192,90502,1,0,0:0:0:0:
182,192,90616,128,0,91071:0:0:0:0:
402,192,90616,1,4,0:0:0:0:
36,192,90616,1,4,0:0:0:0:
475,192,90730,1,0,0:0:0:0:
402,192,90843,1,0,0:0:0:0:
329,192,90957,1,0,0:0:0:0:
109,192,91071,128,0,91525:0:0:0:0:
256,192,91071,1,4,0:0:0:0:
475,192,91071,1,4,0:0:0:0:
329,192,91184,1,0,0:0:0:0:
402,192,91298,1,0,0:0:0:0:
475,192,91412,1,0,0:0:0:0:
36,192,91525,128,0,91980:0:0:0:0:
402,192,91525,1,4,0:0:0:0:
182,192,91525,1,4,0:0:0:0:
329,192,91639,1,0,0:0:0:0:
256,192,91752,1,0,0:0:0:0:
182,192,91866,1,0,0:0:0:0:
109,192,91980,128,0,92434:0:0:0:0:
475,192,91980,128,0,92434:0:0:0:0:
256,192,91980,1,4,0:0:0:0:
329,192,92093,1,0,0:0:0:0:
256,192,92207,1,0,0:0:0:0:
329,192,92321,1,0,0:0:0:0:
182,192,92434,128,0,92662:0:0:0:0:
402,192,92434,1,4,0:0:0:0:
256,192,92548,1,0,0:0:0:0:
109,192,92662,128,0,93116:0:0:0:0:
329,192,92662,1,0,0:0:0:0:
402,192,92775,1,0,0:0:0:0:
475,192,92889,1,4,0:0:0:0:
182,192,92889,1,4,0:0:0:0:
256,192,93002,1,0,0:0:0:0:
182,192,93116,128,0,93571:0:0:0:0:
329,192,93116,1,0,0:0:0:0:
402,192,93230,1,0,0:0:0:0:
475,192,93343,1,4,0:0:0:0:
36,192,93343,1,4,0:0:0:0:
109,192,93457,1,0,0:0:0:0:
36,192,93571,128,0,94252:0:0:0:0:
256,192,93571,1,0,0:0:0:0:
329,192,93684,1,0,0:0:0:0:
402,192,93798,1,4,0:0:0:0:
182,192,93798,1,4,0:0:0:0:
475,192,93912,1,0,0:0:0:0:
402,192,94025,1,0,0:0:0:0:
182,192,94139,1,0,0:0:0:0:
329,192,94252,128,0,94480:0:0:0:0:
256,192,94252,1,4,0:0:0:0:
475,192,94252,1,4,0:0:0:0:
182,192,94366,1,0,0:0:0:0:
256,192,94480,128,0,94934:0:0:0:0:
109,192,94480,1,0,0:0:0:0:
36,192,94593,1,0,0:0:0:0:
109,192,94707,1,4,0:0:0:0:
475,192,94707,1,4,0:0:0:0:
182,192,94821,1,0,0:0:0:0:
329,192,94934,128,0,95389:0:0:0:0:
109,192,94934,1,0,0:0:0:0:
36,192,95048,1,0,0:0:0:0:
109,192,95162,1,4,0:0:0:0:
402,192,95162,1,4,0:0:0:0:
182,192,95275,1,0,0:0:0:0:
475,192,95389,128,0,96071:0:0:0:0:
256,192,95389,1,0,0:0:0:0:
182,192,95502,1,0,0:0:0:0:
109,192,95616,1,4,0:0:0:0:
329,192,95616,1,0,0:0:0:0:
182,192,95673,1,0,0:0:0:0:
256,192,95730,1,0,0:0:0:0:
329,192,95787,1,0,0:0:0:0:
402,192,95843,1,0,0:0:0:0:
182,192,95843,1,0,0:0:0:0:
109,192,95900,1,0,0:0:0:0:
182,192,95957,1,0,0:0:0:0:
256,192,96014,1,0,0:0:0:0:
329,192,96071,1,0,0:0:0:0:
109,192,96071,1,0,0:0:0:0:
182,192,96127,1,0,0:0:0:0:
402,192,96184,1,0,0:0:0:0:
256,192,96184,1,0,0:0:0:0:
475,192,96241,1,0,0:0:0:0:
402,192,96298,1,0,0:0:0:0:
329,192,96355,1,0,0:0:0:0:
256,192,96412,1,0,0:0:0:0:
182,192,96468,1,0,0:0:0:0:
402,192,96525,1,0,0:0:0:0:
329,192,96582,1,0,0:0:0:0:
256,192,96639,1,0,0:0:0:0:
182,192,96696,1,0,0:0:0:0:
402,192,96752,1,0,0:0:0:0:
329,192,96809,1,0,0:0:0:0:
256,192,96866,1,0,0:0:0:0:
182,192,96923,1,0,0:0:0:0:
109,192,96980,128,0,97207:0:0:0:0:
402,192,96980,128,0,97207:0:0:0:0:
182,192,97207,128,0,97434:0:0:0:0:
329,192,97207,128,0,97434:0:0:0:0:
109,192,97434,128,0,99707:0:0:0:0:
402,192,97434,128,0,99707:0:0:0:0:
