osu file format v13

[General]
AudioFilename: Agony.mp3
AudioLeadIn: 1511
PreviewTime: 83116
Countdown: 0
SampleSet: Soft
StackLeniency: 0.7
Mode: 3
LetterboxInBreaks: 0
EpilepsyWarning: 1
SpecialStyle: 0
WidescreenStoryboard: 1

[Editor]
DistanceSpacing: 1.1
BeatDivisor: 4
GridSize: 8
TimelineZoom: 1.8

[Metadata]
Title:agony (TV Size)
TitleUnicode:agony (TV Size)
Artist:KOTOKO
ArtistUnicode:KOTOKO
Creator:ExUsagi
Version:4K IN
Source:Kannazuki no Miko
Tags:ending Vinc_Angel YielShelion Simple_Star -Sh1n1-
BeatmapID:452982
BeatmapSetID:190190

[Difficulty]
HPDrainRate:8
CircleSize:4
OverallDifficulty:8.5
ApproachRate:5
SliderMultiplier:1.6
SliderTickRate:1

[Events]
//Background and Video events
0,0,"kannazukinomiko2 (1).jpg",0,0
//Break Periods
//Storyboard Layer 0 (Background)
//Storyboard Layer 1 (Fail)
//Storyboard Layer 2 (Pass)
//Storyboard Layer 3 (Foreground)
//Storyboard Sound Samples
//Background Colour Transformations
3,100,163,162,255

[TimingPoints]
1071,454.545454545455,4,2,1,45,1,0
4707,-100,4,2,1,45,0,0
55616,-100,4,2,1,45,0,1
84707,-100,4,2,1,45,0,0

[HitObjects]
192,192,1071,128,0,1298:0:0:0:0:
320,192,1184,1,0,0:0:0:0:
448,192,1298,1,0,0:0:0:0:
192,192,1752,1,0,0:0:0:0:
64,192,1752,128,0,4707:0:0:0:0:
192,192,1980,128,0,2207:0:0:0:0:
320,192,2093,1,0,0:0:0:0:
448,192,2207,1,0,0:0:0:0:
192,192,2662,1,0,0:0:0:0:
192,192,2889,128,0,3116:0:0:0:0:
320,192,3002,1,0,0:0:0:0:
448,192,3116,1,0,0:0:0:0:
448,192,3571,1,0,0:0:0:0:
448,192,3798,1,0,0:0:0:0:
192,192,3798,128,0,4707:0:0:0:0:
448,192,4707,128,0,5162:0:0:0:0:
320,192,4707,1,0,0:0:0:0:
192,192,4934,1,0,0:0:0:0:
64,192,5162,128,0,5616:0:0:0:0:
192,192,5389,1,0,0:0:0:0:
320,192,5616,128,0,6071:0:0:0:0:
192,192,5843,1,0,0:0:0:0:
448,192,6071,128,0,6980:0:0:0:0:
64,192,6298,128,0,6752:0:0:0:0:
192,192,6752,1,0,0:0:0:0:
320,192,6980,128,0,7434:0:0:0:0:
64,192,7207,1,0,0:0:0:0:
192,192,7434,128,0,8343:0:0:0:0:
64,192,7662,1,0,0:0:0:0:
448,192,7889,1,0,0:0:0:0:
64,192,8116,1,0,0:0:0:0:
320,192,8343,1,0,0:0:0:0:
448,192,8343,128,0,8798:0:0:0:0:
64,192,8571,1,0,0:0:0:0:
64,192,8798,128,0,9252:0:0:0:0:
320,192,8798,1,0,0:0:0:0:
192,192,9025,1,0,0:0:0:0:
320,192,9252,128,0,9707:0:0:0:0:
192,192,9480,1,0,0:0:0:0:
64,192,9707,128,0,10616:0:0:0:0:
320,192,9934,128,0,10389:0:0:0:0:
448,192,10389,1,0,0:0:0:0:
192,192,10616,128,0,11071:0:0:0:0:
448,192,10616,1,0,0:0:0:0:
320,192,10730,1,0,0:0:0:0:
64,192,10843,1,0,0:0:0:0:
448,192,11071,128,0,11980:0:0:0:0:
192,192,11298,1,0,0:0:0:0:
320,192,11525,1,0,0:0:0:0:
64,192,11525,128,0,11980:0:0:0:0:
192,192,11752,1,0,0:0:0:0:
192,192,11980,128,0,12434:0:0:0:0:
320,192,11980,1,0,0:0:0:0:
320,192,12207,1,0,0:0:0:0:
448,192,12321,1,0,0:0:0:0:
64,192,12435,128,0,12889:0:0:0:0:
448,192,12662,1,0,0:0:0:0:
320,192,12889,128,0,13344:0:0:0:0:
192,192,13116,1,0,0:0:0:0:
64,192,13230,1,0,0:0:0:0:
448,192,13344,128,0,14253:0:0:0:0:
64,192,13571,128,0,14025:0:0:0:0:
192,192,13684,1,0,0:0:0:0:
320,192,13798,1,0,0:0:0:0:
320,192,14025,1,0,0:0:0:0:
64,192,14139,1,0,0:0:0:0:
192,192,14252,128,0,14707:0:0:0:0:
320,192,14480,1,0,0:0:0:0:
448,192,14593,1,0,0:0:0:0:
64,192,14707,128,0,15616:0:0:0:0:
320,192,14934,1,0,0:0:0:0:
448,192,15162,1,0,0:0:0:0:
320,192,15389,1,0,0:0:0:0:
448,192,15616,1,0,0:0:0:0:
192,192,15616,128,0,16071:0:0:0:0:
320,192,15843,1,0,0:0:0:0:
448,192,15957,1,0,0:0:0:0:
64,192,16071,128,0,16525:0:0:0:0:
448,192,16298,1,0,0:0:0:0:
320,192,16525,128,0,16980:0:0:0:0:
64,192,16752,1,0,0:0:0:0:
192,192,16866,1,0,0:0:0:0:
448,192,16980,128,0,17662:0:0:0:0:
64,192,16980,1,0,0:0:0:0:
192,192,17207,128,0,17662:0:0:0:0:
64,192,17321,1,0,0:0:0:0:
320,192,17434,1,0,0:0:0:0:
64,192,17662,1,0,0:0:0:0:
320,192,17775,1,0,0:0:0:0:
64,192,17889,128,0,18343:0:0:0:0:
192,192,17889,1,0,0:0:0:0:
448,192,18002,1,0,0:0:0:0:
320,192,18116,1,0,0:0:0:0:
448,192,18230,1,0,0:0:0:0:
192,192,18343,128,0,19252:0:0:0:0:
320,192,18343,1,0,0:0:0:0:
448,192,18571,1,0,0:0:0:0:
64,192,18571,1,0,0:0:0:0:
320,192,18798,1,0,0:0:0:0:
64,192,18912,1,0,0:0:0:0:
448,192,19025,1,0,0:0:0:0:
320,192,19139,1,0,0:0:0:0:
64,192,19252,128,0,22889:0:0:0:0:
448,192,19252,1,0,0:0:0:0:
320,192,19366,1,0,0:0:0:0:
192,192,19480,1,0,0:0:0:0:
448,192,19593,1,0,0:0:0:0:
192,192,19707,1,0,0:0:0:0:
320,192,19821,1,0,0:0:0:0:
192,192,19934,1,0,0:0:0:0:
448,192,20048,1,0,0:0:0:0:
192,192,20162,128,0,20616:0:0:0:0:
448,192,20275,1,0,0:0:0:0:
320,192,20389,1,0,0:0:0:0:
448,192,20502,1,0,0:0:0:0:
320,192,20616,1,0,0:0:0:0:
448,192,20730,1,0,0:0:0:0:
320,192,20843,128,0,21298:0:0:0:0:
192,192,20957,1,0,0:0:0:0:
448,192,21071,1,0,0:0:0:0:
192,192,21184,1,0,0:0:0:0:
448,192,21298,1,0,0:0:0:0:
192,192,21412,1,0,0:0:0:0:
448,192,21525,128,0,21980:0:0:0:0:
320,192,21639,1,0,0:0:0:0:
192,192,21752,1,0,0:0:0:0:
320,192,21866,1,0,0:0:0:0:
192,192,21980,128,0,22434:0:0:0:0:
320,192,22093,1,0,0:0:0:0:
448,192,22207,1,0,0:0:0:0:
320,192,22321,1,0,0:0:0:0:
448,192,22434,128,0,22889:0:0:0:0:
192,192,22548,1,0,0:0:0:0:
320,192,22662,1,0,0:0:0:0:
192,192,22775,1,0,0:0:0:0:
320,192,22889,128,0,24707:0:0:0:0:
192,192,23002,1,0,0:0:0:0:
64,192,23116,1,0,0:0:0:0:
192,192,23230,1,0,0:0:0:0:
64,192,23343,128,0,23798:0:0:0:0:
192,192,23457,1,0,0:0:0:0:
448,192,23571,1,0,0:0:0:0:
192,192,23684,1,0,0:0:0:0:
448,192,23798,128,0,24252:0:0:0:0:
192,192,23912,1,0,0:0:0:0:
64,192,24025,1,0,0:0:0:0:
192,192,24139,1,0,0:0:0:0:
64,192,24252,1,0,0:0:0:0:
192,192,24366,1,0,0:0:0:0:
448,192,24480,1,0,0:0:0:0:
192,192,24593,1,0,0:0:0:0:
64,192,24707,1,0,0:0:0:0:
192,192,24764,1,0,0:0:0:0:
320,192,24821,1,0,0:0:0:0:
448,192,24877,1,0,0:0:0:0:
64,192,24934,1,0,0:0:0:0:
192,192,24991,1,0,0:0:0:0:
320,192,25048,1,0,0:0:0:0:
448,192,25105,1,0,0:0:0:0:
64,192,25162,1,0,0:0:0:0:
192,192,25218,1,0,0:0:0:0:
320,192,25275,1,0,0:0:0:0:
448,192,25332,1,0,0:0:0:0:
64,192,25389,1,0,0:0:0:0:
192,192,25446,1,0,0:0:0:0:
320,192,25502,1,0,0:0:0:0:
448,192,25559,1,0,0:0:0:0:
320,192,25616,1,0,0:0:0:0:
192,192,25673,1,0,0:0:0:0:
64,192,25730,1,0,0:0:0:0:
192,192,25787,1,0,0:0:0:0:
320,192,25843,1,0,0:0:0:0:
448,192,25900,1,0,0:0:0:0:
320,192,25957,1,0,0:0:0:0:
192,192,26014,1,0,0:0:0:0:
64,192,26071,1,0,0:0:0:0:
192,192,26127,1,0,0:0:0:0:
320,192,26184,1,0,0:0:0:0:
448,192,26241,1,0,0:0:0:0:
64,192,26298,1,0,0:0:0:0:
192,192,26355,1,0,0:0:0:0:
320,192,26412,1,0,0:0:0:0:
448,192,26468,1,0,0:0:0:0:
192,192,26525,1,0,0:0:0:0:
64,192,26525,128,0,26980:0:0:0:0:
320,192,26525,1,0,0:0:0:0:
320,192,26752,1,0,0:0:0:0:
192,192,26866,1,0,0:0:0:0:
448,192,26980,128,0,27207:0:0:0:0:
320,192,26980,1,0,0:0:0:0:
64,192,27207,1,0,0:0:0:0:
192,192,27321,1,0,0:0:0:0:
64,192,27434,1,0,0:0:0:0:
320,192,27434,1,0,0:0:0:0:
192,192,27662,128,0,27889:0:0:0:0:
64,192,27775,1,0,0:0:0:0:
320,192,27889,1,0,0:0:0:0:
448,192,27889,1,0,0:0:0:0:
64,192,28116,128,0,28798:0:0:0:0:
320,192,28230,1,0,0:0:0:0:
448,192,28343,1,0,0:0:0:0:
192,192,28343,1,0,0:0:0:0:
448,192,28571,1,0,0:0:0:0:
192,192,28684,1,0,0:0:0:0:
448,192,28798,1,0,0:0:0:0:
320,192,28798,1,0,0:0:0:0:
64,192,29025,1,0,0:0:0:0:
192,192,29139,1,0,0:0:0:0:
64,192,29252,1,0,0:0:0:0:
448,192,29252,1,0,0:0:0:0:
64,192,29480,1,0,0:0:0:0:
448,192,29480,128,0,29707:0:0:0:0:
192,192,29593,1,0,0:0:0:0:
320,192,29707,1,0,0:0:0:0:
64,192,29707,1,0,0:0:0:0:
64,192,29934,1,0,0:0:0:0:
448,192,29934,128,0,30616:0:0:0:0:
320,192,30048,1,0,0:0:0:0:
192,192,30162,1,0,0:0:0:0:
64,192,30162,1,0,0:0:0:0:
64,192,30389,1,0,0:0:0:0:
192,192,30502,1,0,0:0:0:0:
320,192,30616,1,0,0:0:0:0:
64,192,30616,1,0,0:0:0:0:
448,192,30843,1,0,0:0:0:0:
192,192,30957,1,0,0:0:0:0:
320,192,31071,1,0,0:0:0:0:
64,192,31071,1,0,0:0:0:0:
192,192,31298,128,0,31525:0:0:0:0:
64,192,31412,1,0,0:0:0:0:
320,192,31525,1,0,0:0:0:0:
448,192,31525,1,0,0:0:0:0:
192,192,31752,1,0,0:0:0:0:
448,192,31752,128,0,32434:0:0:0:0:
320,192,31866,1,0,0:0:0:0:
64,192,31980,1,0,0:0:0:0:
192,192,31980,1,0,0:0:0:0:
320,192,32207,1,0,0:0:0:0:
64,192,32321,1,0,0:0:0:0:
192,192,32434,1,0,0:0:0:0:
320,192,32434,1,0,0:0:0:0:
192,192,32662,1,0,0:0:0:0:
64,192,32775,1,0,0:0:0:0:
448,192,32889,128,0,33343:0:0:0:0:
192,192,32889,1,0,0:0:0:0:
320,192,33116,128,0,33343:0:0:0:0:
64,192,33230,1,0,0:0:0:0:
192,192,33343,128,0,33798:0:0:0:0:
64,192,33571,128,0,33798:0:0:0:0:
320,192,33684,1,0,0:0:0:0:
448,192,33798,1,0,0:0:0:0:
320,192,33798,1,0,0:0:0:0:
320,192,34025,1,0,0:0:0:0:
448,192,34139,1,0,0:0:0:0:
64,192,34252,1,0,0:0:0:0:
192,192,34252,1,0,0:0:0:0:
320,192,34480,1,0,0:0:0:0:
192,192,34593,1,0,0:0:0:0:
64,192,34707,1,0,0:0:0:0:
448,192,34707,1,0,0:0:0:0:
192,192,34934,1,0,0:0:0:0:
320,192,34934,128,0,35162:0:0:0:0:
64,192,35048,1,0,0:0:0:0:
448,192,35162,1,0,0:0:0:0:
192,192,35162,1,0,0:0:0:0:
64,192,35389,1,0,0:0:0:0:
448,192,35389,128,0,36071:0:0:0:0:
320,192,35502,1,0,0:0:0:0:
64,192,35616,1,0,0:0:0:0:
192,192,35616,1,0,0:0:0:0:
320,192,35843,1,0,0:0:0:0:
192,192,35957,1,0,0:0:0:0:
64,192,36071,1,0,0:0:0:0:
320,192,36071,1,0,0:0:0:0:
320,192,36298,1,0,0:0:0:0:
448,192,36412,1,0,0:0:0:0:
192,192,36525,1,0,0:0:0:0:
64,192,36525,1,0,0:0:0:0:
64,192,36752,128,0,36980:0:0:0:0:
192,192,36752,1,0,0:0:0:0:
320,192,36866,1,0,0:0:0:0:
192,192,36980,1,0,0:0:0:0:
448,192,36980,1,0,0:0:0:0:
64,192,37207,1,0,0:0:0:0:
448,192,37207,128,0,37889:0:0:0:0:
192,192,37321,1,0,0:0:0:0:
320,192,37434,1,0,0:0:0:0:
192,192,37510,1,0,0:0:0:0:
64,192,37586,1,0,0:0:0:0:
320,192,37662,1,0,0:0:0:0:
192,192,37737,1,0,0:0:0:0:
64,192,37813,1,0,0:0:0:0:
192,192,37889,1,0,0:0:0:0:
320,192,37889,1,0,0:0:0:0:
320,192,38116,1,0,0:0:0:0:
64,192,38230,1,0,0:0:0:0:
448,192,38230,1,0,0:0:0:0:
448,192,38343,1,0,0:0:0:0:
320,192,38419,1,0,0:0:0:0:
192,192,38495,1,0,0:0:0:0:
320,192,38571,1,0,0:0:0:0:
192,192,38646,1,0,0:0:0:0:
64,192,38722,1,0,0:0:0:0:
448,192,38798,1,0,0:0:0:0:
320,192,38798,1,0,0:0:0:0:
192,192,39025,1,0,0:0:0:0:
64,192,39139,1,0,0:0:0:0:
192,192,39252,1,0,0:0:0:0:
64,192,39366,1,0,0:0:0:0:
448,192,39366,1,0,0:0:0:0:
192,192,39480,1,0,0:0:0:0:
448,192,39593,1,0,0:0:0:0:
64,192,39707,1,0,0:0:0:0:
320,192,39707,1,0,0:0:0:0:
448,192,39821,1,0,0:0:0:0:
192,192,39821,1,0,0:0:0:0:
320,192,39934,1,0,0:0:0:0:
192,192,40048,1,0,0:0:0:0:
448,192,40162,1,0,0:0:0:0:
320,192,40162,1,0,0:0:0:0:
64,192,40275,1,0,0:0:0:0:
192,192,40275,1,0,0:0:0:0:
320,192,40389,1,0,0:0:0:0:
192,192,40502,1,0,0:0:0:0:
320,192,40616,1,0,0:0:0:0:
448,192,40616,1,0,0:0:0:0:
192,192,40730,1,0,0:0:0:0:
64,192,40730,1,0,0:0:0:0:
320,192,40843,1,0,0:0:0:0:
448,192,40843,1,0,0:0:0:0:
192,192,40957,1,0,0:0:0:0:
64,192,40957,1,0,0:0:0:0:
448,192,41071,128,0,42889:0:0:0:0:
320,192,41071,1,0,0:0:0:0:
320,192,41298,1,0,0:0:0:0:
192,192,41412,1,0,0:0:0:0:
64,192,41525,1,0,0:0:0:0:
320,192,41525,1,0,0:0:0:0:
192,192,41752,1,0,0:0:0:0:
64,192,41866,1,0,0:0:0:0:
320,192,41980,1,0,0:0:0:0:
64,192,42207,1,0,0:0:0:0:
320,192,42207,1,0,0:0:0:0:
192,192,42321,1,0,0:0:0:0:
320,192,42434,1,0,0:0:0:0:
64,192,42662,1,0,0:0:0:0:
320,192,42662,1,0,0:0:0:0:
192,192,42775,1,0,0:0:0:0:
320,192,42889,128,0,43798:0:0:0:0:
64,192,42889,1,0,0:0:0:0:
64,192,43116,1,0,0:0:0:0:
192,192,43230,1,0,0:0:0:0:
64,192,43343,1,0,0:0:0:0:
448,192,43343,1,0,0:0:0:0:
448,192,43571,1,0,0:0:0:0:
64,192,43684,1,0,0:0:0:0:
192,192,43798,128,0,44707:0:0:0:0:
448,192,43798,1,0,0:0:0:0:
320,192,44025,1,0,0:0:0:0:
64,192,44139,1,0,0:0:0:0:
448,192,44252,1,0,0:0:0:0:
320,192,44252,1,0,0:0:0:0:
320,192,44480,1,0,0:0:0:0:
448,192,44593,1,0,0:0:0:0:
64,192,44707,128,0,45616:0:0:0:0:
320,192,44707,128,0,44934:0:0:0:0:
448,192,44934,128,0,45048:0:0:0:0:
320,192,45048,128,0,45162:0:0:0:0:
192,192,45162,128,0,45389:0:0:0:0:
320,192,45389,1,0,0:0:0:0:
448,192,45502,1,0,0:0:0:0:
192,192,45616,128,0,46525:0:0:0:0:
320,192,45616,128,0,45843:0:0:0:0:
64,192,45843,128,0,45957:0:0:0:0:
448,192,45957,128,0,46071:0:0:0:0:
320,192,46071,128,0,46298:0:0:0:0:
64,192,46298,1,0,0:0:0:0:
320,192,46412,1,0,0:0:0:0:
64,192,46525,128,0,47434:0:0:0:0:
448,192,46525,128,0,46752:0:0:0:0:
320,192,46752,128,0,46866:0:0:0:0:
192,192,46866,128,0,46980:0:0:0:0:
448,192,46980,128,0,47207:0:0:0:0:
192,192,47207,1,0,0:0:0:0:
320,192,47321,1,0,0:0:0:0:
192,192,47434,1,0,0:0:0:0:
448,192,47434,1,0,0:0:0:0:
448,192,47662,1,0,0:0:0:0:
192,192,47662,1,0,0:0:0:0:
320,192,47889,1,0,0:0:0:0:
64,192,47889,1,0,0:0:0:0:
448,192,48116,1,0,0:0:0:0:
320,192,48116,1,0,0:0:0:0:
64,192,48343,1,0,0:0:0:0:
192,192,48343,1,0,0:0:0:0:
448,192,48343,1,0,0:0:0:0:
320,192,48571,128,0,48798:0:0:0:0:
192,192,48684,1,0,0:0:0:0:
64,192,48798,1,0,0:0:0:0:
448,192,48798,1,0,0:0:0:0:
192,192,48912,1,0,0:0:0:0:
320,192,49025,1,0,0:0:0:0:
448,192,49139,1,0,0:0:0:0:
64,192,49252,1,0,0:0:0:0:
192,192,49252,1,0,0:0:0:0:
320,192,49366,1,0,0:0:0:0:
192,192,49480,1,0,0:0:0:0:
320,192,49593,1,0,0:0:0:0:
64,192,49707,1,0,0:0:0:0:
448,192,49707,1,0,0:0:0:0:
192,192,49821,1,0,0:0:0:0:
320,192,49934,1,0,0:0:0:0:
448,192,50048,1,0,0:0:0:0:
64,192,50162,1,0,0:0:0:0:
192,192,50162,1,0,0:0:0:0:
320,192,50275,1,0,0:0:0:0:
192,192,50389,128,0,50616:0:0:0:0:
64,192,50502,1,0,0:0:0:0:
320,192,50616,1,0,0:0:0:0:
448,192,50616,1,0,0:0:0:0:
64,192,50730,1,0,0:0:0:0:
320,192,50843,1,0,0:0:0:0:
448,192,50957,1,0,0:0:0:0:
64,192,51071,1,0,0:0:0:0:
192,192,51071,1,0,0:0:0:0:
448,192,51184,1,0,0:0:0:0:
192,192,51298,1,0,0:0:0:0:
320,192,51412,1,0,0:0:0:0:
448,192,51525,1,0,0:0:0:0:
64,192,51525,1,0,0:0:0:0:
320,192,51639,1,0,0:0:0:0:
192,192,51752,1,0,0:0:0:0:
64,192,51866,1,0,0:0:0:0:
192,192,51980,128,0,52889:0:0:0:0:
448,192,51980,1,0,0:0:0:0:
320,192,51980,1,0,0:0:0:0:
64,192,52093,1,0,0:0:0:0:
320,192,52207,1,0,0:0:0:0:
448,192,52321,1,0,0:0:0:0:
320,192,52434,1,0,0:0:0:0:
64,192,52434,1,0,0:0:0:0:
448,192,52548,1,0,0:0:0:0:
320,192,52662,1,0,0:0:0:0:
64,192,52775,1,0,0:0:0:0:
320,192,52889,128,0,53116:0:0:0:0:
448,192,52889,1,0,0:0:0:0:
64,192,53002,1,0,0:0:0:0:
192,192,53116,128,0,53343:0:0:0:0:
448,192,53116,1,0,0:0:0:0:
64,192,53230,1,0,0:0:0:0:
320,192,53343,128,0,53571:0:0:0:0:
448,192,53343,1,0,0:0:0:0:
192,192,53457,1,0,0:0:0:0:
448,192,53571,128,0,53798:0:0:0:0:
64,192,53571,1,0,0:0:0:0:
192,192,53684,1,0,0:0:0:0:
320,192,53798,1,0,0:0:0:0:
192,192,53912,1,0,0:0:0:0:
64,192,54025,1,0,0:0:0:0:
320,192,54025,1,0,0:0:0:0:
320,192,54252,1,0,0:0:0:0:
448,192,54252,1,0,0:0:0:0:
64,192,54480,1,0,0:0:0:0:
192,192,54480,1,0,0:0:0:0:
448,192,54593,1,0,0:0:0:0:
320,192,54593,1,0,0:0:0:0:
192,192,54707,1,0,0:0:0:0:
320,192,54821,1,0,0:0:0:0:
64,192,54934,1,0,0:0:0:0:
192,192,55048,1,0,0:0:0:0:
64,192,55161,1,0,0:0:0:0:
448,192,55162,1,0,0:0:0:0:
192,192,55275,1,0,0:0:0:0:
320,192,55389,1,0,0:0:0:0:
64,192,55502,1,0,0:0:0:0:
448,192,55616,128,0,57434:0:0:0:0:
192,192,55616,1,0,0:0:0:0:
320,192,55616,1,0,0:0:0:0:
64,192,55730,1,0,0:0:0:0:
64,192,55957,1,0,0:0:0:0:
192,192,56071,1,0,0:0:0:0:
320,192,56071,1,0,0:0:0:0:
64,192,56298,1,0,0:0:0:0:
192,192,56412,1,0,0:0:0:0:
64,192,56525,1,0,0:0:0:0:
320,192,56525,1,0,0:0:0:0:
192,192,56639,1,0,0:0:0:0:
64,192,56752,1,0,0:0:0:0:
192,192,56866,1,0,0:0:0:0:
320,192,56980,1,0,0:0:0:0:
64,192,56980,1,0,0:0:0:0:
192,192,57093,1,0,0:0:0:0:
320,192,57207,1,0,0:0:0:0:
192,192,57321,1,0,0:0:0:0:
64,192,57434,128,0,58343:0:0:0:0:
320,192,57434,1,0,0:0:0:0:
192,192,57548,1,0,0:0:0:0:
448,192,57662,1,0,0:0:0:0:
320,192,57775,1,0,0:0:0:0:
448,192,57889,1,0,0:0:0:0:
192,192,57889,1,0,0:0:0:0:
448,192,58116,1,0,0:0:0:0:
192,192,58230,1,0,0:0:0:0:
320,192,58343,128,0,58798:0:0:0:0:
448,192,58343,1,0,0:0:0:0:
192,192,58457,1,0,0:0:0:0:
448,192,58571,1,0,0:0:0:0:
192,192,58684,1,0,0:0:0:0:
192,192,58798,128,0,59252:0:0:0:0:
64,192,58798,1,0,0:0:0:0:
448,192,58912,1,0,0:0:0:0:
64,192,59025,1,0,0:0:0:0:
320,192,59139,1,0,0:0:0:0:
64,192,59252,128,0,61071:0:0:0:0:
448,192,59252,1,0,0:0:0:0:
320,192,59366,1,0,0:0:0:0:
192,192,59480,1,0,0:0:0:0:
320,192,59593,1,0,0:0:0:0:
448,192,59707,1,0,0:0:0:0:
192,192,59707,1,0,0:0:0:0:
320,192,59934,1,0,0:0:0:0:
448,192,60048,1,0,0:0:0:0:
320,192,60162,1,0,0:0:0:0:
192,192,60162,1,0,0:0:0:0:
448,192,60275,1,0,0:0:0:0:
320,192,60389,1,0,0:0:0:0:
192,192,60502,1,0,0:0:0:0:
448,192,60616,1,0,0:0:0:0:
320,192,60616,1,0,0:0:0:0:
192,192,60843,1,0,0:0:0:0:
320,192,60957,1,0,0:0:0:0:
448,192,61071,128,0,61980:0:0:0:0:
192,192,61071,1,0,0:0:0:0:
320,192,61184,1,0,0:0:0:0:
64,192,61298,1,0,0:0:0:0:
320,192,61412,1,0,0:0:0:0:
192,192,61525,1,0,0:0:0:0:
64,192,61525,1,0,0:0:0:0:
320,192,61752,1,0,0:0:0:0:
192,192,61866,1,0,0:0:0:0:
320,192,61980,128,0,62889:0:0:0:0:
64,192,61980,1,0,0:0:0:0:
192,192,62093,1,0,0:0:0:0:
64,192,62207,1,0,0:0:0:0:
448,192,62321,1,0,0:0:0:0:
64,192,62434,1,0,0:0:0:0:
192,192,62434,1,0,0:0:0:0:
448,192,62548,1,0,0:0:0:0:
192,192,62662,1,0,0:0:0:0:
448,192,62775,1,0,0:0:0:0:
64,192,62889,128,0,63798:0:0:0:0:
192,192,62889,1,0,0:0:0:0:
448,192,63002,1,0,0:0:0:0:
320,192,63116,1,0,0:0:0:0:
192,192,63230,1,0,0:0:0:0:
448,192,63343,1,0,0:0:0:0:
320,192,63343,1,0,0:0:0:0:
192,192,63457,1,0,0:0:0:0:
320,192,63571,1,0,0:0:0:0:
448,192,63684,1,0,0:0:0:0:
192,192,63798,128,0,64707:0:0:0:0:
320,192,63798,1,0,0:0:0:0:
448,192,63912,1,0,0:0:0:0:
320,192,64025,1,0,0:0:0:0:
64,192,64139,1,0,0:0:0:0:
320,192,64252,1,0,0:0:0:0:
448,192,64252,1,0,0:0:0:0:
64,192,64366,1,0,0:0:0:0:
320,192,64480,1,0,0:0:0:0:
448,192,64593,1,0,0:0:0:0:
320,192,64707,128,0,65616:0:0:0:0:
64,192,64707,1,0,0:0:0:0:
448,192,64821,1,0,0:0:0:0:
192,192,64934,1,0,0:0:0:0:
64,192,65048,1,0,0:0:0:0:
448,192,65161,1,0,0:0:0:0:
192,192,65162,1,0,0:0:0:0:
64,192,65275,1,0,0:0:0:0:
192,192,65389,1,0,0:0:0:0:
64,192,65502,1,0,0:0:0:0:
192,192,65616,128,0,66071:0:0:0:0:
448,192,65616,128,0,65843:0:0:0:0:
320,192,65730,1,0,0:0:0:0:
320,192,65843,128,0,66071:0:0:0:0:
448,192,65957,1,0,0:0:0:0:
448,192,66071,128,0,66525:0:0:0:0:
64,192,66071,128,0,66298:0:0:0:0:
192,192,66184,1,0,0:0:0:0:
192,192,66298,128,0,66525:0:0:0:0:
64,192,66412,1,0,0:0:0:0:
64,192,66525,128,0,68116:0:0:0:0:
320,192,66525,1,0,0:0:0:0:
448,192,66639,1,0,0:0:0:0:
192,192,66752,1,0,0:0:0:0:
320,192,66866,1,0,0:0:0:0:
448,192,66980,1,0,0:0:0:0:
192,192,66980,1,0,0:0:0:0:
320,192,67207,1,0,0:0:0:0:
448,192,67207,1,0,0:0:0:0:
192,192,67321,1,0,0:0:0:0:
448,192,67434,1,0,0:0:0:0:
192,192,67548,1,0,0:0:0:0:
320,192,67662,1,0,0:0:0:0:
192,192,67775,1,0,0:0:0:0:
320,192,67889,1,0,0:0:0:0:
448,192,67889,1,0,0:0:0:0:
448,192,68116,128,0,68230:0:0:0:0:
320,192,68116,1,0,0:0:0:0:
192,192,68230,128,0,68343:0:0:0:0:
64,192,68343,128,0,69252:0:0:0:0:
448,192,68343,1,0,0:0:0:0:
320,192,68457,1,0,0:0:0:0:
192,192,68571,1,0,0:0:0:0:
448,192,68571,1,0,0:0:0:0:
448,192,68684,1,0,0:0:0:0:
320,192,68798,1,0,0:0:0:0:
192,192,68798,1,0,0:0:0:0:
192,192,68912,1,0,0:0:0:0:
320,192,69025,1,0,0:0:0:0:
320,192,69139,1,0,0:0:0:0:
448,192,69252,1,0,0:0:0:0:
192,192,69252,1,0,0:0:0:0:
448,192,69366,1,0,0:0:0:0:
320,192,69480,1,0,0:0:0:0:
192,192,69480,1,0,0:0:0:0:
64,192,69593,1,0,0:0:0:0:
192,192,69707,1,0,0:0:0:0:
448,192,69707,1,0,0:0:0:0:
320,192,69821,1,0,0:0:0:0:
448,192,69934,1,0,0:0:0:0:
64,192,69934,1,0,0:0:0:0:
64,192,70048,1,0,0:0:0:0:
320,192,70162,128,0,71980:0:0:0:0:
448,192,70162,1,0,0:0:0:0:
192,192,70162,1,0,0:0:0:0:
64,192,70275,128,0,70389:0:0:0:0:
448,192,70389,1,0,0:0:0:0:
448,192,70502,128,0,70616:0:0:0:0:
64,192,70616,1,0,0:0:0:0:
192,192,70616,1,0,0:0:0:0:
448,192,70730,1,0,0:0:0:0:
64,192,70843,128,0,70957:0:0:0:0:
192,192,70957,1,0,0:0:0:0:
448,192,71071,1,0,0:0:0:0:
192,192,71184,128,0,71298:0:0:0:0:
448,192,71298,1,0,0:0:0:0:
448,192,71412,128,0,71525:0:0:0:0:
192,192,71525,1,0,0:0:0:0:
64,192,71525,1,0,0:0:0:0:
192,192,71639,128,0,71752:0:0:0:0:
448,192,71752,1,0,0:0:0:0:
64,192,71866,1,0,0:0:0:0:
64,192,71980,128,0,73343:0:0:0:0:
448,192,71980,1,0,0:0:0:0:
192,192,72093,1,0,0:0:0:0:
320,192,72207,128,0,72321:0:0:0:0:
448,192,72321,1,0,0:0:0:0:
192,192,72434,1,0,0:0:0:0:
320,192,72434,1,0,0:0:0:0:
448,192,72548,1,0,0:0:0:0:
320,192,72662,128,0,72775:0:0:0:0:
192,192,72775,1,0,0:0:0:0:
448,192,72889,1,0,0:0:0:0:
320,192,73002,128,0,73116:0:0:0:0:
448,192,73116,1,0,0:0:0:0:
192,192,73230,1,0,0:0:0:0:
320,192,73343,128,0,73798:0:0:0:0:
448,192,73343,1,0,0:0:0:0:
192,192,73457,128,0,73571:0:0:0:0:
448,192,73571,1,0,0:0:0:0:
192,192,73684,128,0,73798:0:0:0:0:
64,192,73798,128,0,75616:0:0:0:0:
448,192,73798,1,0,0:0:0:0:
320,192,73912,1,0,0:0:0:0:
448,192,74025,128,0,74139:0:0:0:0:
192,192,74139,128,0,74252:0:0:0:0:
448,192,74252,1,0,0:0:0:0:
320,192,74366,128,0,74480:0:0:0:0:
192,192,74480,128,0,74593:0:0:0:0:
448,192,74593,1,0,0:0:0:0:
320,192,74707,128,0,74821:0:0:0:0:
448,192,74821,128,0,74934:0:0:0:0:
192,192,74934,128,0,75048:0:0:0:0:
320,192,75048,128,0,75162:0:0:0:0:
192,192,75162,1,0,0:0:0:0:
448,192,75162,128,0,75275:0:0:0:0:
448,192,75389,128,0,75502:0:0:0:0:
320,192,75502,128,0,75616:0:0:0:0:
192,192,75616,128,0,76525:0:0:0:0:
448,192,75616,128,0,75730:0:0:0:0:
320,192,75730,128,0,75843:0:0:0:0:
448,192,75843,128,0,75957:0:0:0:0:
320,192,75957,128,0,76071:0:0:0:0:
64,192,76071,1,0,0:0:0:0:
448,192,76071,1,0,0:0:0:0:
64,192,76184,128,0,76298:0:0:0:0:
320,192,76298,128,0,76412:0:0:0:0:
448,192,76525,128,0,77434:0:0:0:0:
320,192,76525,1,0,0:0:0:0:
64,192,76525,1,0,0:0:0:0:
192,192,76639,128,0,76752:0:0:0:0:
320,192,76752,128,0,76866:0:0:0:0:
64,192,76866,1,0,0:0:0:0:
320,192,76980,1,0,0:0:0:0:
192,192,76980,128,0,77093:0:0:0:0:
64,192,77093,128,0,77207:0:0:0:0:
320,192,77207,128,0,77321:0:0:0:0:
192,192,77321,128,0,77434:0:0:0:0:
64,192,77434,128,0,79252:0:0:0:0:
320,192,77434,1,0,0:0:0:0:
448,192,77548,128,0,77662:0:0:0:0:
320,192,77662,1,0,0:0:0:0:
192,192,77775,128,0,77889:0:0:0:0:
448,192,77889,1,0,0:0:0:0:
320,192,77889,1,0,0:0:0:0:
192,192,78002,1,0,0:0:0:0:
448,192,78116,1,0,0:0:0:0:
320,192,78230,128,0,78343:0:0:0:0:
448,192,78343,1,0,0:0:0:0:
320,192,78457,128,0,78571:0:0:0:0:
192,192,78571,1,0,0:0:0:0:
320,192,78684,128,0,78798:0:0:0:0:
448,192,78798,1,0,0:0:0:0:
192,192,78798,1,0,0:0:0:0:
448,192,78912,128,0,79139:0:0:0:0:
320,192,79025,128,0,79139:0:0:0:0:
192,192,79139,1,0,0:0:0:0:
192,192,79252,128,0,79480:0:0:0:0:
320,192,79366,128,0,79480:0:0:0:0:
448,192,79480,128,0,79707:0:0:0:0:
192,192,79593,128,0,79707:0:0:0:0:
64,192,79707,1,0,0:0:0:0:
320,192,79707,1,0,0:0:0:0:
448,192,79934,128,0,80162:0:0:0:0:
320,192,80048,128,0,80162:0:0:0:0:
64,192,80162,1,0,0:0:0:0:
192,192,80162,128,0,80502:0:0:0:0:
64,192,80275,128,0,80616:0:0:0:0:
320,192,80389,128,0,80730:0:0:0:0:
448,192,80502,128,0,80843:0:0:0:0:
192,192,80616,128,0,81071:0:0:0:0:
64,192,80729,128,0,80956:0:0:0:0:
320,192,80843,128,0,81184:0:0:0:0:
448,192,80957,128,0,81298:0:0:0:0:
64,192,81071,1,0,0:0:0:0:
192,192,81184,1,0,0:0:0:0:
320,192,81298,1,0,0:0:0:0:
448,192,81412,1,0,0:0:0:0:
64,192,81525,1,0,0:0:0:0:
192,192,81525,1,0,0:0:0:0:
448,192,81752,1,0,0:0:0:0:
192,192,81866,1,0,0:0:0:0:
320,192,81980,1,0,0:0:0:0:
448,192,81980,1,0,0:0:0:0:
64,192,81980,1,0,0:0:0:0:
192,192,82093,1,0,0:0:0:0:
320,192,82207,1,0,0:0:0:0:
64,192,82321,1,0,0:0:0:0:
448,192,82321,1,0,0:0:0:0:
192,192,82321,1,0,0:0:0:0:
320,192,82434,1,0,0:0:0:0:
192,192,82548,1,0,0:0:0:0:
320,192,82661,1,0,0:0:0:0:
448,192,82662,1,0,0:0:0:0:
64,192,82662,1,0,0:0:0:0:
192,192,82775,1,0,0:0:0:0:
64,192,82889,128,0,83798:0:0:0:0:
448,192,82889,128,0,83798:0:0:0:0:
192,192,83798,128,0,84025:0:0:0:0:
320,192,83798,128,0,84025:0:0:0:0:
192,192,84139,1,0,0:0:0:0:
320,192,84139,1,0,0:0:0:0:
64,192,84252,1,0,0:0:0:0:
192,192,84309,1,0,0:0:0:0:
320,192,84366,1,0,0:0:0:0:
448,192,84423,1,0,0:0:0:0:
64,192,84480,1,0,0:0:0:0:
192,192,84537,1,0,0:0:0:0:
320,192,84593,1,0,0:0:0:0:
448,192,84650,1,0,0:0:0:0:
192,192,84707,1,0,0:0:0:0:
64,192,84707,1,0,0:0:0:0:
320,192,84934,1,0,0:0:0:0:
192,192,85161,1,0,0:0:0:0:
448,192,85162,128,0,85389:0:0:0:0:
64,192,85162,1,0,0:0:0:0:
320,192,85275,1,0,0:0:0:0:
192,192,85389,128,0,85843:0:0:0:0:
64,192,85502,1,0,0:0:0:0:
320,192,85616,1,0,0:0:0:0:
448,192,85730,1,0,0:0:0:0:
320,192,85843,128,0,86298:0:0:0:0:
64,192,85843,1,0,0:0:0:0:
448,192,85957,1,0,0:0:0:0:
192,192,86071,1,0,0:0:0:0:
448,192,86184,1,0,0:0:0:0:
64,192,86298,128,0,86980:0:0:0:0:
192,192,86298,1,0,0:0:0:0:
448,192,86412,1,0,0:0:0:0:
320,192,86525,1,0,0:0:0:0:
192,192,86639,1,0,0:0:0:0:
448,192,86752,1,0,0:0:0:0:
192,192,86866,1,0,0:0:0:0:
448,192,86980,128,0,87207:0:0:0:0:
320,192,86980,1,0,0:0:0:0:
192,192,87093,1,0,0:0:0:0:
64,192,87207,128,0,87662:0:0:0:0:
320,192,87207,1,0,0:0:0:0:
192,192,87321,1,0,0:0:0:0:
448,192,87434,1,0,0:0:0:0:
320,192,87548,1,0,0:0:0:0:
192,192,87662,128,0,88116:0:0:0:0:
448,192,87662,1,0,0:0:0:0:
320,192,87775,1,0,0:0:0:0:
448,192,87889,1,0,0:0:0:0:
64,192,88002,1,0,0:0:0:0:
448,192,88116,128,0,88571:0:0:0:0:
320,192,88116,128,0,88230:0:0:0:0:
64,192,88230,128,0,88343:0:0:0:0:
192,192,88343,128,0,88457:0:0:0:0:
320,192,88457,128,0,88571:0:0:0:0:
192,192,88571,128,0,88684:0:0:0:0:
64,192,88684,128,0,88798:0:0:0:0:
192,192,88798,128,0,88911:0:0:0:0:
320,192,88798,1,0,0:0:0:0:
448,192,88912,128,0,89025:0:0:0:0:
192,192,89025,128,0,89139:0:0:0:0:
320,192,89025,1,0,0:0:0:0:
64,192,89139,128,0,89252:0:0:0:0:
448,192,89252,128,0,89366:0:0:0:0:
64,192,89366,128,0,89480:0:0:0:0:
448,192,89480,128,0,89593:0:0:0:0:
320,192,89480,1,0,0:0:0:0:
192,192,89593,1,0,0:0:0:0:
320,192,89707,128,0,89821:0:0:0:0:
448,192,89821,1,0,0:0:0:0:
64,192,89934,128,0,90048:0:0:0:0:
320,192,89934,1,0,0:0:0:0:
448,192,90048,1,0,0:0:0:0:
64,192,90162,1,0,0:0:0:0:
192,192,90162,1,0,0:0:0:0:
320,192,90275,1,0,0:0:0:0:
448,192,90275,1,0,0:0:0:0:
64,192,90389,1,0,0:0:0:0:
192,192,90389,1,0,0:0:0:0:
448,192,90502,1,0,0:0:0:0:
320,192,90502,1,0,0:0:0:0:
64,192,90616,1,0,0:0:0:0:
192,192,90616,1,0,0:0:0:0:
320,192,90730,1,0,0:0:0:0:
448,192,90730,1,0,0:0:0:0:
192,192,90843,1,0,0:0:0:0:
64,192,90843,1,0,0:0:0:0:
448,192,90957,1,0,0:0:0:0:
320,192,90957,1,0,0:0:0:0:
64,192,91071,1,0,0:0:0:0:
192,192,91071,1,0,0:0:0:0:
320,192,91184,1,0,0:0:0:0:
448,192,91184,1,0,0:0:0:0:
192,192,91298,1,0,0:0:0:0:
64,192,91298,1,0,0:0:0:0:
448,192,91412,1,0,0:0:0:0:
320,192,91412,1,0,0:0:0:0:
64,192,91525,1,0,0:0:0:0:
192,192,91525,1,0,0:0:0:0:
320,192,91639,1,0,0:0:0:0:
448,192,91639,1,0,0:0:0:0:
64,192,91752,1,0,0:0:0:0:
192,192,91752,1,0,0:0:0:0:
448,192,91866,1,0,0:0:0:0:
320,192,91866,1,0,0:0:0:0:
320,192,91980,1,0,0:0:0:0:
64,192,91980,1,0,0:0:0:0:
192,192,91980,1,0,0:0:0:0:
448,192,92093,1,0,0:0:0:0:
320,192,92207,1,0,0:0:0:0:
64,192,92207,1,0,0:0:0:0:
448,192,92321,1,0,0:0:0:0:
320,192,92434,1,0,0:0:0:0:
192,192,92434,1,0,0:0:0:0:
64,192,92548,1,0,0:0:0:0:
320,192,92662,1,0,0:0:0:0:
192,192,92662,1,0,0:0:0:0:
448,192,92775,1,0,0:0:0:0:
320,192,92889,1,0,0:0:0:0:
64,192,92889,1,0,0:0:0:0:
192,192,93002,1,0,0:0:0:0:
64,192,93116,1,0,0:0:0:0:
448,192,93116,1,0,0:0:0:0:
320,192,93230,1,0,0:0:0:0:
192,192,93343,1,0,0:0:0:0:
448,192,93343,1,0,0:0:0:0:
320,192,93457,1,0,0:0:0:0:
64,192,93571,1,0,0:0:0:0:
448,192,93571,1,0,0:0:0:0:
192,192,93684,1,0,0:0:0:0:
64,192,93798,1,0,0:0:0:0:
320,192,93798,1,0,0:0:0:0:
192,192,93912,1,0,0:0:0:0:
320,192,94025,1,0,0:0:0:0:
448,192,94025,1,0,0:0:0:0:
320,192,94139,1,0,0:0:0:0:
64,192,94252,1,0,0:0:0:0:
192,192,94252,1,0,0:0:0:0:
192,192,94366,1,0,0:0:0:0:
320,192,94480,1,0,0:0:0:0:
448,192,94480,1,0,0:0:0:0:
448,192,94593,1,0,0:0:0:0:
192,192,94707,1,0,0:0:0:0:
64,192,94707,1,0,0:0:0:0:
64,192,94821,1,0,0:0:0:0:
192,192,94934,1,0,0:0:0:0:
448,192,94934,1,0,0:0:0:0:
448,192,95048,1,0,0:0:0:0:
320,192,95162,1,0,0:0:0:0:
64,192,95162,1,0,0:0:0:0:
64,192,95275,1,0,0:0:0:0:
192,192,95389,1,0,0:0:0:0:
320,192,95389,1,0,0:0:0:0:
320,192,95502,1,0,0:0:0:0:
192,192,95616,1,0,0:0:0:0:
448,192,95616,1,0,0:0:0:0:
192,192,95730,1,0,0:0:0:0:
448,192,95843,128,0,96980:0:0:0:0:
320,192,95843,1,0,0:0:0:0:
64,192,95843,1,0,0:0:0:0:
192,192,95957,1,0,0:0:0:0:
320,192,96071,1,0,0:0:0:0:
64,192,96071,1,0,0:0:0:0:
320,192,96184,1,0,0:0:0:0:
192,192,96184,1,0,0:0:0:0:
64,192,96298,1,0,0:0:0:0:
192,192,96412,1,0,0:0:0:0:
320,192,96412,1,0,0:0:0:0:
320,192,96525,1,0,0:0:0:0:
64,192,96525,1,0,0:0:0:0:
192,192,96639,1,0,0:0:0:0:
64,192,96752,1,0,0:0:0:0:
320,192,96752,1,0,0:0:0:0:
192,192,96866,1,0,0:0:0:0:
64,192,96980,128,0,97434:0:0:0:0:
192,192,97037,1,0,0:0:0:0:
320,192,97093,1,0,0:0:0:0:
448,192,97150,1,0,0:0:0:0:
192,192,97207,1,0,0:0:0:0:
320,192,97264,1,0,0:0:0:0:
448,192,97321,1,0,0:0:0:0:
192,192,97377,1,0,0:0:0:0:
320,192,97434,1,0,0:0:0:0:
448,192,97434,1,0,0:0:0:0:
320,192,97775,1,0,0:0:0:0:
320,192,98002,1,0,0:0:0:0:
192,192,98230,1,0,0:0:0:0:
192,192,98457,1,0,0:0:0:0:
320,192,98684,1,0,0:0:0:0:
320,192,98912,1,0,0:0:0:0:
192,192,99139,1,0,0:0:0:0:
192,192,99366,1,0,0:0:0:0:
320,192,99593,1,0,0:0:0:0:
320,192,99821,1,0,0:0:0:0:
192,192,100048,1,0,0:0:0:0:
192,192,100275,1,0,0:0:0:0:
