osu file format v4

[General]
AudioFilename: KOTOKO - Agony.mp3
AudioLeadIn: 0
AudioHash: 12257d24bb753cc12122b1a541b0ffe6
PreviewTime: -1
SampleSet: Normal
EditorBookmarks: 206269

[Metadata]
Title:agony
Artist:KOTOKO
Creator:K-S-O
Version:Insane

[Difficulty]
HPDrainRate:8
CircleSize:7
OverallDifficulty:8
SliderMultiplier: 2.4
SliderTickRate: 1

[Events]
0,0,"wallpaper_KnM_pb1.jpg"
2,40372,53736
2,83998,97590
2,156708,170300
3,0,163,162,255

[TimingPoints]
25630,454.43993945541,4,1,1

[HitObjects]
176,192,25630,1,0,
208,152,25857,1,0,
240,168,25970,1,0,
288,120,26311,1,2,
288,120,26425,1,2,
288,120,26538,1,2,
344,152,26766,1,2,
376,128,26879,1,2,
408,192,27220,1,0,
408,192,27334,1,0,
408,192,27447,1,0,
368,248,27674,1,4,
336,240,27788,1,4,
288,280,28129,5,0,
288,280,28243,1,0,
288,280,28356,2,2,B|288:280|224:256|200:200,4,120
280,208,29492,5,0,
240,216,29606,1,0,
296,144,29947,1,2,
296,144,30060,1,2,
296,144,30174,1,2,
272,88,30401,1,2,
304,72,30515,1,2,
360,104,30856,1,0,
360,104,30969,1,0,
360,104,31083,1,0,
344,152,31310,1,4,
376,168,31424,1,4,
424,120,31764,5,0,
424,120,31878,1,0,
464,120,31992,2,2,B|464:120|464:72|424:32|392:16,4,120
448,176,33128,5,0,
416,184,33241,1,0,
392,256,33582,1,2,
392,256,33696,1,2,
392,256,33809,1,2,
336,216,34037,1,2,
304,224,34150,1,2,
256,184,34491,1,0,
256,184,34605,1,0,
256,184,34718,1,0,
200,224,34946,1,4,
168,208,35059,1,4,
96,232,35400,5,4,
96,232,35514,1,4,
96,232,35627,2,2,B|96:232|96:288|72:304|16:304,3,120
24,240,36536,5,0,
24,240,36649,1,0,
24,240,36763,1,0,
48,184,36990,1,0,
48,184,37104,2,0,B|48:184|72:104|136:104,1,120
127,104,37445,2,0,B|127:104|224:104|192:16,1,120
224,32,37786,1,0,
280,64,38013,1,0,
280,64,38127,1,0,
336,120,38354,5,0,
336,120,38467,1,0,
336,120,38581,1,0,
336,200,38808,1,0,
336,200,38922,1,0,
336,200,39035,1,0,
256,280,39263,5,0,
256,328,39490,1,0,
256,280,39717,1,0,
256,232,39944,1,0,
256,280,40172,1,0,
256,192,54486,5,0,
256,192,54600,1,0,
256,192,54714,2,2,B|256:192|256:56,1,120
256,120,55168,1,4,
256,120,55282,1,4,
256,120,55395,1,4,
304,120,55623,2,2,B|304:120|304:248,1,120
352,240,56077,1,0,
352,192,56304,1,4,
352,192,56418,1,4,
328,128,56645,5,4,
360,80,56872,1,4,
384,88,56986,1,4,
408,136,57213,5,2,
408,136,57327,1,2,
408,136,57440,2,2,B|408:136|392:272,2,120
392,88,58122,1,4,
392,88,58235,1,4,
344,32,58463,5,4,
288,32,58690,1,4,
296,56,58804,1,4,
288,104,59031,5,2,
288,104,59145,1,2,
288,104,59258,2,2,B|288:104|152:88,2,120
336,88,59940,1,4,
336,88,60053,1,4,
280,80,60281,5,4,
240,120,60508,1,4,
232,144,60621,1,4,
288,136,60849,5,4,
288,176,61076,2,4,B|288:176|208:176|152:208,1,120
208,240,61530,2,4,B|208:240|304:240|336:280,1,120
272,296,61985,6,2,B|272:296|208:264|184:192,1,120
200,176,62326,1,2,
136,200,62666,5,0,
136,200,62780,1,0,
136,200,62894,2,2,B|136:200|80:136|88:88,1,120
64,72,63234,1,2,
16,136,63575,5,0,
16,136,63689,1,0,
16,136,63802,2,2,B|16:136|72:176|96:248,1,120
72,248,64143,1,2,
32,320,64484,5,0,
32,320,64598,1,0,
32,320,64711,1,0,
80,296,64939,1,0,
120,248,65166,1,0,
152,200,65393,1,0,
208,216,65620,5,2,
208,216,65734,1,2,
208,216,65847,1,2,
264,232,66075,1,0,
264,232,66188,1,4,
288,168,66415,1,0,
288,168,66529,2,0,B|288:168|392:152|408:120,1,120
400,130,66870,2,0,B|400:130|344:72|280:64,1,120
272,48,67211,1,4,
232,96,67438,5,2,
232,96,67552,1,2,
232,96,67665,1,2,
176,80,67893,1,4,
176,80,68006,1,4,
152,144,68233,1,0,
152,144,68347,2,0,B|152:144|48:160|32:192,1,120
40,182,68688,2,0,B|40:182|96:240|160:248,1,120
168,264,69029,1,4,
184,328,69256,6,0,B|184:328|256:304|320:328,1,120
320,352,69597,1,4,
352,352,69710,1,4,
408,352,69937,1,0,
408,296,70165,1,4,
408,232,70392,5,0,
392,176,70619,2,4,B|392:176|352:112|288:104,1,120
296,72,70960,1,4,
264,16,71187,5,4,
216,40,71414,1,4,
232,64,71528,1,4,
240,112,71755,5,0,
240,112,71869,1,0,
240,112,71982,2,2,B|240:112|184:152|112:160,2,120
192,80,72664,1,4,
192,80,72778,1,4,
136,40,73005,5,4,
104,88,73232,1,4,
128,104,73346,1,4,
120,160,73573,5,0,
120,160,73687,1,0,
120,160,73800,2,2,B|120:160|80:104|72:32,2,120
152,112,74482,1,4,
152,112,74596,1,4,
208,88,74823,5,4,
248,128,75050,1,4,
224,152,75163,1,4,
200,192,75391,5,4,
240,216,75618,2,4,B|240:216|320:200|360:160,1,120
352,216,76072,2,4,B|352:216|288:200|232:168,1,120
280,112,76527,5,0,
232,72,76754,1,0,
232,72,76868,1,2,
200,152,77208,1,0,
200,152,77322,1,0,
200,152,77436,1,2,
200,216,77663,1,0,
200,216,77776,1,2,
144,184,78117,5,0,
144,184,78231,1,0,
144,184,78345,1,2,
104,136,78572,1,0,
104,136,78685,1,2,
160,104,79026,5,0,
200,152,79253,2,0,B|200:152|272:152|320:112,1,120
328,168,79708,2,0,B|328:168|280:224|200:208,1,120
168,240,80162,1,0,
128,288,80390,1,4,
128,288,80503,1,4,
200,312,80730,5,0,
232,312,80844,1,0,
256,288,80958,1,0,
328,288,81185,1,2,
344,264,81298,1,2,
408,264,81526,1,2,
424,240,81639,1,2,
440,176,81866,1,2,
432,144,81980,1,2,
392,96,82207,1,0,
368,80,82321,1,0,
336,72,82434,5,0,
304,120,82662,1,0,
304,120,82775,1,2,
256,176,83116,1,4,
200,144,83343,1,4,
168,200,83571,1,4,
224,232,83798,1,4,
96,128,98340,5,0,
144,80,98567,1,0,
168,104,98681,1,0,
224,160,99022,1,0,
224,160,99135,1,0,
224,160,99249,1,2,
296,120,99476,1,2,
320,144,99590,1,2,
280,208,99930,5,0,
280,208,100044,1,0,
280,208,100158,1,0,
216,224,100385,1,0,
184,208,100498,1,0,
176,280,100839,1,0,
176,280,100953,1,0,
176,280,101067,2,2,B|176:280|112:280|104:376,4,120
168,224,102203,1,4,
136,240,102316,1,4,
168,168,102657,5,0,
168,168,102771,1,0,
168,168,102884,1,0,
224,136,103112,1,0,
240,104,103225,1,0,
280,200,103566,1,0,
280,200,103680,1,0,
280,200,103793,1,4,
328,144,104020,1,4,
328,144,104134,1,4,
368,216,104475,5,0,
368,216,104588,1,0,
368,216,104702,2,2,B|368:216|424:264|432:304|440:320,4,120
376,152,105838,1,0,
344,168,105952,1,0,
416,112,106293,5,0,
416,112,106406,1,0,
416,112,106520,1,2,
368,80,106747,1,2,
384,48,106861,1,2,
304,96,107201,1,0,
304,96,107315,1,0,
304,96,107429,1,4,
272,160,107656,1,4,
240,152,107770,1,4,
224,224,108110,5,0,
224,224,108224,1,0,
224,224,108338,1,2,
176,256,108565,1,2,
144,208,108792,1,2,
120,264,109019,1,2,
152,312,109246,1,2,
152,312,109360,1,2,
152,312,109474,1,2,
232,272,109701,5,2,
232,272,109814,1,2,
232,200,110042,1,2,
232,200,110156,1,2,
288,136,110383,1,2,
288,136,110496,1,2,
176,136,110723,1,2,
176,136,110837,1,2,
232,136,111064,5,0,
232,136,111178,1,0,
232,136,111291,1,0,
288,80,111519,1,2,
288,80,111632,1,2,
288,200,111859,1,2,
288,200,111973,1,2,
176,200,112200,1,2,
176,200,112314,1,2,
176,80,112541,1,2,
176,80,112655,1,2,
128,136,112882,6,0,B|128:136|256:120|376:144,1,240
366,142,113564,1,0,
366,142,113791,1,4,
366,142,113904,1,4,
366,142,114018,2,4,B|366:142|432:192|432:264,1,120
368,304,114473,5,0,
368,304,114586,1,0,
368,304,114700,2,2,B|368:304|304:320|264:240,1,120
232,200,115154,1,0,
184,152,115381,2,2,B|184:152|104:160|88:216,1,120
56,248,115836,1,2,
16,192,116063,1,4,
48,128,116290,5,0,
48,128,116404,1,0,
48,128,116517,2,2,B|48:128|136:120|160:72,1,120
154,81,116972,1,4,
216,48,117199,5,0,
216,48,117313,1,0,
216,48,117426,2,2,B|216:48|304:88|304:136,1,120
302,125,117881,1,4,
376,136,118108,5,0,
376,136,118222,1,0,
376,136,118335,2,2,B|376:136|328:200|264:208,1,120
280,204,118790,1,4,
256,280,119017,5,0,
256,280,119131,1,0,
256,280,119244,1,0,
256,336,119471,1,0,
312,280,119699,1,0,
256,224,119926,1,0,
200,280,120153,1,0,
256,280,120607,5,0,
256,280,120721,1,0,
256,280,120835,1,0,
216,224,121062,1,2,
216,224,121175,1,2,
296,224,121403,1,2,
296,224,121516,1,2,
256,168,121744,1,4,
256,168,121857,1,4,
256,168,121971,1,4,
256,112,122198,5,0,
296,64,122425,1,0,
352,40,122652,2,0,B|352:40|416:64|432:128,3,120
384,160,123561,1,0,
440,200,123789,5,4,
440,256,124016,1,4,
440,256,124130,1,4,
376,224,124470,5,0,
376,224,124584,1,0,
376,224,124697,1,2,
336,184,124925,1,2,
288,160,125152,1,2,
232,144,125379,1,2,
232,80,125834,5,0,
232,80,126062,1,0,
184,56,126288,1,0,
184,56,126401,1,0,
280,56,126629,1,0,
280,56,126742,1,0,
232,128,126970,1,0,
232,128,127083,1,0,
232,184,127197,5,0,
232,184,127311,1,0,
232,184,127425,2,2,B|232:184|312:168|336:128,2,120
184,232,128106,1,0,
184,232,128219,1,0,
184,232,128333,2,2,B|184:232|96:200|88:128,1,120
152,144,128787,1,0,
192,96,129015,1,4,
192,96,129129,1,4,
232,56,129355,5,0,
232,56,129583,1,0,
232,56,129696,1,0,
272,96,129923,5,0,
272,96,130036,1,0,
272,96,130151,2,2,B|272:96|336:128|344:208,2,120
232,144,130832,1,4,
232,144,130946,1,4,
280,184,131173,5,0,
280,184,131400,1,4,
280,184,131514,1,4,
328,144,131741,5,0,
328,144,131855,1,0,
328,144,131968,2,2,B|328:144|384:176|400:216|400:248,2,120
320,96,132650,1,4,
320,96,132764,1,4,
240,112,132991,5,0,
240,112,133218,1,4,
240,112,133332,1,4,
168,136,133559,5,0,
216,176,133786,1,0,
216,176,133900,1,0,
216,176,134013,1,0,
184,224,134241,1,0,
184,224,134354,1,0,
184,224,134468,1,0,
248,208,134695,6,2,B|248:208|248:336,1,120
248,328,135036,1,4,
288,328,135377,1,2,
288,328,135490,1,2,
312,328,135604,2,6,B|312:328|312:192,1,120
312,184,135945,1,4,
352,184,136286,5,0,
352,184,136399,1,0,
376,184,136513,2,2,B|376:184|376:56,1,120
376,64,136854,1,4,
344,64,137195,1,2,
344,64,137308,1,2,
320,64,137422,2,2,B|320:64|320:192,1,120
288,224,137876,1,4,
240,248,138103,1,4,
192,208,138331,5,4,
192,208,138444,1,4,
192,208,138558,1,4,
144,248,138785,1,4,
144,248,138899,2,2,B|144:248|80:208|72:144,1,120
73,154,139239,2,0,B|73:154|104:56|152:56,1,120
168,56,139580,1,4,
200,104,139808,1,0,
200,104,139921,1,4,
320,208,140148,5,4,
320,208,140261,1,4,
320,208,140375,1,4,
368,248,140602,1,4,
368,248,140716,2,2,B|368:248|432:208|440:144,1,120
439,154,141056,2,0,B|439:154|408:56|360:56,1,120
336,96,141512,1,0,
304,56,141739,1,0,
248,112,141966,6,2,B|248:112|336:152|296:232,1,120
368,184,142421,1,0,
368,184,142534,1,0,
368,184,142648,2,2,B|368:184|280:256|240:216,2,120
344,136,143329,1,0,
400,136,143557,1,4,
400,136,143670,1,4,
448,168,143897,5,4,
448,168,144125,1,4,
448,168,144238,1,4,
432,224,144466,5,0,
432,224,144579,1,0,
432,224,144693,2,2,B|432:224|368:272|312:272,2,120
376,192,145374,1,4,
376,192,145488,1,4,
312,200,145715,5,4,
312,200,145942,1,4,
312,200,146056,1,4,
248,232,146283,5,0,
248,232,146397,1,0,
248,232,146511,2,2,B|248:232|152:272|104:248,2,120
200,192,147192,1,4,
200,192,147306,1,4,
160,152,147533,5,4,
160,152,147760,1,4,
160,152,147874,1,4,
184,104,148101,5,4,
128,120,148328,2,4,B|128:120|64:112|0:48,1,120
32,16,148783,2,4,B|32:16|88:56|152:72,1,120
216,64,149237,5,0,
192,120,149464,1,4,
192,120,149578,1,4,
240,160,149919,1,0,
240,160,150032,1,0,
240,160,150146,1,2,
216,216,150373,1,2,
216,216,150487,1,2,
272,248,150828,5,0,
272,248,150941,1,0,
272,248,151055,1,2,
232,304,151282,1,2,
232,304,151396,1,2,
304,336,151737,5,2,
368,336,151964,2,2,B|368:336|424:312|464:232,3,120
416,208,152873,1,6,
368,168,153100,5,0,
368,168,153214,1,0,
368,168,153327,1,0,
352,112,153554,1,2,
352,112,153668,1,2,
272,144,153895,1,2,
272,144,154009,1,2,
192,176,154236,1,2,
192,176,154350,1,2,
112,208,154577,1,2,
112,208,154690,1,2,
80,272,155145,5,0,
136,288,155372,1,0,
136,288,155486,1,0,
200,296,155827,2,0,B|200:296|248:336|320:288,3,120
88,192,171050,6,0,B|88:192|88:120|176:120|264:120|264:200,1,240
320,192,171732,1,0,
384,192,172186,1,0,
384,240,172414,1,0,
384,288,172641,1,0,
384,288,172754,1,0,
256,288,173550,5,0,
256,288,173663,1,0,
256,288,173777,1,0,
208,248,174004,1,0,
232,200,174231,1,0,
176,168,174459,1,0,
176,168,174572,1,0,
248,104,175367,5,0,
248,104,175480,1,0,
248,104,175594,1,0,
296,144,175821,1,0,
272,192,176048,1,0,
328,224,176276,1,0,
328,224,176389,1,0,
360,128,177185,5,0,
304,160,177412,2,0,B|304:160|232:120|184:72,1,120
208,160,177867,2,0,B|208:160|264:128|312:88,1,120
272,40,178378,5,0,
208,72,178605,1,0,
208,72,178719,1,0,
136,56,179003,1,0,
136,56,179117,1,0,
136,56,179230,1,0,
88,104,179457,1,0,
88,104,179571,1,0,
136,160,179912,5,0,
136,160,180025,1,0,
136,160,180139,1,0,
112,216,180366,1,0,
112,216,180480,1,0,
168,256,180821,1,0,
168,256,180934,1,0,
168,256,181048,1,0,
232,264,181275,5,0,
264,208,181502,1,0,
328,224,181730,1,0,
256,192,181957,12,4,187524
112,80,187865,1,0,
152,120,188092,2,0,B|152:120|264:176|392:104,1,240
424,152,188773,1,0,
392,200,189001,1,4,
392,200,189114,1,4,
328,184,189341,5,4,
304,240,189569,1,4,
304,240,189682,1,4,
264,192,189910,5,4,
264,192,190023,1,4,
264,192,190137,1,2,
208,216,190364,1,2,
184,160,190591,1,2,
128,128,190818,1,4,
128,128,190932,1,4,
144,184,191159,5,4,
152,240,191386,1,4,
152,240,191500,1,4,
88,216,191727,5,0,
88,216,191841,1,0,
88,216,191955,1,2,
104,272,192182,1,2,
72,320,192409,1,2,
128,320,192636,1,4,
128,320,192750,1,4,
176,272,192977,5,4,
176,272,193204,1,4,
176,272,193318,1,4,
232,272,193545,5,4,
232,272,193772,2,4,B|232:272|232:144,1,120
232,152,194227,2,4,B|232:152|232:280,1,120
288,272,194681,5,0,
320,224,194908,1,0,
320,224,195022,1,2,
296,168,195363,1,0,
296,168,195476,1,0,
296,168,195590,1,2,
336,120,195817,1,0,
336,120,195931,1,2,
376,168,196272,5,0,
376,168,196385,1,0,
376,168,196499,1,2,
432,208,196726,1,0,
432,208,196840,1,2,
368,240,197181,1,0,
368,240,197294,1,0,
368,240,197408,1,2,
312,200,197635,1,0,
264,240,197862,1,2,
216,288,198089,1,2,
192,208,198317,5,4,
192,208,198430,1,4,
192,208,198544,1,4,
144,248,198771,1,4,
144,248,198885,2,2,B|144:248|80:208|72:144,1,120
73,154,199225,2,0,B|73:154|104:56|152:56,1,120
168,56,199566,1,4,
200,104,199794,1,0,
200,104,199907,1,4,
320,208,200134,5,4,
320,208,200247,1,4,
320,208,200361,1,4,
368,248,200588,1,4,
368,248,200702,2,2,B|368:248|432:208|440:144,1,120
439,154,201042,2,0,B|439:154|408:56|360:56,1,120
336,96,201498,1,0,
304,56,201725,1,0,
248,112,201952,6,2,B|248:112|336:152|296:232,1,120
368,184,202407,1,0,
368,184,202520,1,0,
368,184,202634,2,2,B|368:184|280:256|240:216,2,120
344,136,203315,1,0,
400,136,203543,1,4,
400,136,203656,1,4,
448,168,203883,5,4,
448,168,204111,1,4,
448,168,204224,1,4,
432,224,204452,5,0,
432,224,204565,1,0,
432,224,204679,2,2,B|432:224|368:272|312:272,2,120
376,192,205360,1,4,
376,192,205474,1,4,
312,200,205701,5,4,
312,200,205928,1,4,
312,200,206042,1,4,
248,232,206269,5,0,
248,232,206383,1,0,
248,232,206497,2,2,B|248:232|152:272|104:248,2,120
200,192,207178,1,4,
200,192,207292,1,4,
160,152,207519,5,4,
160,152,207746,1,4,
160,152,207860,1,4,
184,104,208087,5,4,
128,120,208314,2,4,B|128:120|64:112|0:48,1,120
32,16,208769,2,4,B|32:16|88:56|152:72,1,120
216,64,209223,5,0,
192,120,209450,1,4,
192,120,209564,1,4,
240,160,209905,1,0,
240,160,210018,1,0,
240,160,210132,1,2,
216,216,210359,1,2,
216,216,210473,1,2,
272,248,210814,5,0,
272,248,210927,1,0,
272,248,211041,1,2,
232,304,211268,1,2,
232,304,211382,1,2,
304,336,211723,5,2,
368,336,211950,2,2,B|368:336|424:312|464:232,3,120
416,208,212859,1,6,
368,168,213086,5,0,
368,168,213200,1,0,
368,168,213313,1,0,
352,112,213540,1,0,
352,112,213654,2,2,B|352:112|296:64|240:64,1,120
216,80,213995,1,2,
176,136,214222,1,2,
144,144,214336,1,2,
128,168,214449,1,2,
64,192,214677,1,2,
88,208,214790,1,2,
80,272,215131,5,0,
136,288,215358,1,0,
136,288,215472,1,0,
200,296,215813,2,0,B|200:296|248:336|320:288,3,120
