osu file format v3

[General]
AudioFilename: KOTOKO - Agony.mp3
AudioLeadIn: 0
AudioHash: 12257d24bb753cc12122b1a541b0ffe6
PreviewTime: -1
SampleSet: Normal
EditorBookmarks: 206269

[Metadata]
Title:agony
Artist:KOTOKO
Creator:K-S-O
Version:Hard

[Difficulty]
HPDrainRate:6
CircleSize:6
OverallDifficulty:6
SliderMultiplier: 1.7
SliderTickRate: 2

[Events]
0,0,"wallpaper_KnM_pb1.jpg"
2,40372,53274
2,83998,97290
2,156708,169610
3,0,163,162,255

[TimingPoints]
25630,454.43993945541

[HitObjects]
48,96,25630,1,0,
112,128,25857,1,0,
112,128,25970,1,0,
160,240,26538,1,0,
224,208,26766,1,0,
224,208,26879,1,0,
272,96,27447,1,0,
336,128,27674,1,0,
336,128,27788,1,0,
464,128,28129,5,0,
464,128,28243,1,0,
464,128,28356,2,2,B|464:128|464:224|440:255|384:256,2,170
400,80,29492,1,0,
400,80,29606,1,0,
256,128,30174,5,0,
192,176,30401,1,0,
192,176,30515,1,0,
96,80,31083,1,0,
160,112,31310,1,0,
160,112,31424,1,0,
240,80,31764,5,0,
240,80,31878,1,0,
240,80,31992,2,6,B|240:80|352:80|386:108|400:128,2,170
240,160,33128,1,4,
240,160,33241,1,4,
288,240,33809,5,0,
352,192,34037,1,0,
352,192,34150,1,0,
432,128,34718,1,0,
368,80,34946,1,0,
368,80,35059,1,0,
272,96,35400,1,0,
272,96,35514,1,0,
272,96,35627,2,0,B|272:96|192:96|144:128|144:192,2,170
368,80,36990,5,0,
368,144,37445,2,0,B|368:144|368:240|240:240,1,170
176,256,38354,2,0,B|176:256|96:336|16:256,1,170
16,192,39263,2,4,B|16:192|16:112|96:64|144:128|208:192|288:128|288:96,1,340
112,128,54486,5,0,
112,128,54600,1,0,
112,128,54714,2,2,B|112:128|192:128|256:224,1,170
256,272,55395,1,0,
368,256,55850,1,0,
432,192,56077,1,0,
432,112,56304,1,0,
432,112,56418,1,0,
224,64,57213,5,0,
224,64,57327,1,0,
224,64,57440,2,2,B|224:64|346:97|272:192,1,170
208,192,58122,1,0,
208,192,58235,1,0,
144,128,59031,5,0,
144,128,59145,1,0,
144,128,59258,2,2,B|144:128|22:161|96:256,1,170
160,256,59940,1,0,
160,256,60053,1,0,
336,240,60849,5,4,
352,304,61076,2,4,B|352:304|400:288|416:240|416:192|384:176|368:160,1,170
384,128,61985,5,0,
336,64,62212,1,0,
336,64,62326,1,0,
272,128,62894,1,0,
208,176,63122,1,0,
208,176,63235,1,0,
144,224,63802,1,0,
64,176,64030,1,0,
64,176,64143,1,0,
80,80,64484,5,0,
80,80,64598,1,0,
80,80,64711,2,0,B|80:80|128:128|192:128|256:96,1,170
288,96,65620,6,0,B|288:96|357:117|384:212|288:256,1,212.5
256,272,66302,1,0,
224,256,66415,2,0,B|224:256|137:229|144:138|224:96,1,212.5
256,80,67324,2,6,B|256:80|256:192|192:240|128:240,1,212.5
48,144,68120,5,0,
48,144,68233,1,0,
112,96,68574,2,2,B|112:96|144:64|192:96,1,85
240,144,69029,1,0,
272,96,69256,6,2,B|272:96|336:48|400:112|416:160,2,170
208,64,70392,1,0,
208,128,70619,1,0,
272,160,70846,1,4,
272,160,70960,1,4,
176,256,71755,5,0,
176,256,71869,1,0,
176,256,71982,2,2,B|176:256|112:192|224:112,1,170
288,96,72664,1,4,
288,96,72778,1,4,
416,48,73573,5,0,
416,48,73687,1,0,
416,48,73800,2,2,B|416:48|480:96|480:160|448:208,1,170
400,160,74482,1,4,
400,160,74595,1,4,
256,224,75391,5,4,
320,208,75618,2,4,B|320:208|304:160|256:128|208:160|192:224,1,170
144,128,76527,5,0,
112,208,76754,1,0,
112,208,76868,1,0,
192,240,77436,1,0,
224,160,77663,1,0,
224,160,77776,1,0,
304,192,78345,1,0,
272,272,78572,1,0,
272,272,78685,1,0,
352,288,79026,5,0,
432,288,79253,2,2,B|432:288|432:224|384:176|320:176,1,170
400,128,80162,5,0,
336,96,80390,1,0,
336,96,80503,2,0,B|336:96|256:48|112:80|48:144,1,297.5
64,208,81639,2,2,B|64:208|128:304|224:288,1,170
288,240,82434,5,4,
352,192,82662,1,4,
352,192,82775,1,4,
424,152,83116,1,6,
472,216,83343,1,6,
416,264,83571,1,6,
344,312,83798,1,6,
80,80,98340,6,0,B|80:80|144:80|160:112,1,85
176,128,98681,1,0,
176,224,99249,2,0,B|176:224|128:224|96:256,1,85
80,272,99590,1,0,
224,320,100158,2,0,B|224:320|256:272|240:224,1,85
256,208,100498,1,0,
336,192,100839,5,0,
336,192,100953,1,0,
336,192,101067,2,0,B|336:192|432:160|448:64,2,170
288,128,102203,5,0,
288,128,102316,1,0,
208,224,102884,2,0,B|208:224|192:176|144:144,1,85
144,144,103225,1,0,
64,240,103793,2,0,B|64:240|112:224|128:288,1,85
144,288,104134,1,0,
240,256,104475,5,0,
240,256,104588,1,0,
240,256,104702,2,0,B|240:256|336:240|352:192|320:128,2,170
192,208,105838,5,0,
192,208,105952,1,0,
192,112,106520,2,0,B|192:112|256:80|304:96|272:96,1,85
288,112,106861,1,0,
352,176,107429,2,0,B|352:176|336:224|288:224,1,85
256,224,107770,1,0,
128,192,108110,5,0,
128,192,108224,1,0,
128,192,108338,2,0,B|128:192|64:160|64:32,2,170
176,128,109701,1,0,
224,176,109928,2,2,B|224:176|320:176|368:80,1,170
416,128,110610,2,4,B|416:128|336:208|352:288|128:256,1,340
64,192,111973,5,0,
96,144,112200,1,0,
144,176,112428,1,0,
176,128,112655,1,0,
224,96,112882,2,2,B|224:96|320:96|384:176,1,170
416,128,113564,1,6,
448,176,113791,1,6,
368,272,114473,5,0,
368,272,114586,1,0,
368,272,114700,2,2,B|368:272|240:272|240:176,1,170
240,128,115381,1,0,
144,192,115836,1,4,
112,144,116063,1,4,
144,80,116290,5,0,
144,80,116404,1,0,
144,80,116517,1,0,
256,144,117199,1,0,
256,144,117313,1,0,
256,144,117426,1,0,
304,240,118108,1,0,
304,240,118222,1,0,
304,240,118335,1,0,
400,192,119017,5,0,
400,192,119131,1,0,
400,192,119244,2,2,B|400:192|416:112|352:80|288:64,2,170
352,256,120494,1,0,
296,200,120835,1,4,
224,240,121062,1,4,
64,144,122198,5,0,
128,112,122425,1,0,
176,160,122652,2,2,B|176:160|272:160|352:112,1,170
400,80,123334,1,0,
448,144,123561,1,0,
400,208,123789,5,0,
336,160,124016,1,2,
336,160,124129,1,2,
272,224,124470,1,0,
336,272,124697,1,0,
272,320,124925,1,4,
208,272,125152,1,4,
144,224,125379,1,4,
48,128,127197,5,0,
48,128,127310,1,0,
48,128,127424,2,2,B|48:128|176:128|160:224,2,170
96,80,128560,1,2,
144,128,128787,1,2,
192,80,129015,1,4,
192,80,129128,1,4,
288,160,129923,5,2,
288,160,130037,1,2,
288,160,130151,2,2,B|288:160|336:160|384:224|384:288,2,170
224,160,131741,5,2,
224,160,131855,1,2,
224,160,131969,2,2,B|224:160|176:160|128:224|128:288,2,170
272,112,133559,5,0,
336,112,133786,2,0,B|336:112|332:184|234:201|208:128,1,170
176,176,134695,6,0,B|176:176|112:176|112:112,1,85
176,112,135036,1,0,
176,48,135604,2,0,B|176:48|224:48|240:96,1,85
240,160,135945,1,0,
240,224,136513,2,0,B|240:224|300:215|304:160,1,85
304,112,136854,1,0,
448,160,137422,5,0,
416,224,137649,1,0,
384,160,137876,1,0,
352,224,138103,1,0,
320,160,138331,2,0,B|320:160|246:193|192:112|146:193|64:160,1,255
64,96,139239,2,2,B|64:96|96:48|160:48|192:96|176:144,2,170
80,192,140603,6,0,B|80:192|96:240|144:240,1,85
192,240,140944,1,0,
272,192,141284,1,0,
304,128,141512,1,0,
336,192,141739,1,0,
400,192,141966,6,0,B|400:192|400:272|336:304|272:288,1,170
240,336,142648,1,0,
144,272,143102,1,2,
96,320,143329,1,2,
48,272,143557,1,4,
48,272,143671,1,4,
96,144,144466,5,0,
96,144,144579,1,0,
96,144,144693,1,2,
144,192,144920,1,2,
192,144,145147,1,2,
240,192,145374,1,4,
240,192,145488,1,4,
320,96,146283,5,0,
320,96,146397,1,0,
320,96,146511,1,2,
368,144,146738,1,2,
320,192,146965,1,2,
368,240,147192,1,4,
368,240,147306,1,4,
240,240,148101,5,0,
176,240,148328,2,6,B|176:240|160:288|96:288|48:256|32:224,1,170
96,144,149237,6,0,B|96:144|112:80|160:80,1,85
192,80,149578,1,0,
192,144,150146,2,0,B|192:144|240:160|256:208,1,85
256,240,150487,1,0,
320,240,151055,2,0,B|320:240|368:224|384:176,1,85
384,144,151396,1,0,
320,80,151737,5,0,
288,144,151964,2,0,B|288:144|240:176|160:176|128:128,1,170
192,128,152873,1,0,
144,192,153100,1,0,
144,192,153214,2,2,B|144:192|160:256|210:257|288:256,3,170
336,144,155145,5,0,
384,192,155372,1,2,
384,192,155486,1,2,
384,272,155827,1,4,
320,240,156054,1,4,
320,304,156281,1,4,
256,272,156508,1,4,
128,240,171050,6,0,B|128:240|48:163|128:80,1,170
160,48,171732,1,0,
224,112,172186,1,0,
272,160,172414,1,0,
256,224,172641,1,0,
256,224,172754,1,0,
192,320,173550,5,0,
192,320,173663,1,0,
192,320,173777,1,0,
144,272,174004,1,0,
80,272,174231,1,0,
32,320,174459,1,4,
32,320,174572,1,4,
32,128,175367,5,0,
32,128,175481,1,0,
32,128,175595,1,0,
80,176,175822,1,0,
144,176,176049,1,0,
192,128,176276,1,4,
192,128,176390,1,4,
304,64,177185,5,4,
368,64,177412,2,4,B|368:64|368:144|400:176|480:176,1,170
320,176,178321,5,0,
272,224,178549,1,0,
272,224,178662,1,0,
208,176,179230,1,0,
160,224,179457,1,0,
160,224,179571,1,0,
208,288,180139,1,0,
272,288,180366,1,0,
272,288,180479,1,0,
320,240,180821,5,0,
352,176,181048,1,0,
288,144,181275,1,0,
256,80,181502,1,0,
256,192,181730,12,4,187410
336,144,187865,1,0,
368,208,188093,1,0,
256,240,188546,1,2,
240,304,188773,1,2,
176,272,189000,1,4,
176,272,189114,1,4,
112,160,189910,5,0,
112,160,190023,1,0,
112,160,190137,1,2,
160,128,190364,1,2,
192,176,190591,1,2,
256,176,190818,1,4,
256,176,190932,1,4,
336,240,191727,5,0,
336,240,191841,1,0,
336,240,191955,1,2,
400,208,192182,1,2,
432,272,192409,1,2,
480,224,192636,1,4,
480,224,192750,1,4,
432,112,193545,5,4,
432,176,193772,2,4,B|432:176|384:160|352:128|352:80|400:32,1,170
304,48,194681,5,0,
256,112,194908,1,0,
256,112,195022,1,0,
144,96,195590,1,0,
96,160,195817,1,0,
96,160,195931,1,0,
192,192,196499,1,0,
144,256,196726,1,0,
144,256,196840,1,0,
288,256,197181,5,2,
288,256,197294,1,2,
288,256,197408,1,2,
352,208,197635,1,0,
288,160,197862,1,0,
208,160,198089,1,0,
208,240,198317,2,2,B|208:240|144:208|128:144|176:80,1,170
192,64,198998,1,0,
192,64,199111,1,0,
192,64,199226,2,2,B|192:64|288:80|336:160,1,170
352,208,199907,5,0,
416,208,200134,1,0,
480,208,200362,2,2,B|480:208|480:288|416:320|320:272|256:272,1,255
96,208,201952,6,0,B|96:208|32:160|32:64|96:64,1,170
144,64,202634,1,0,
176,144,203088,1,2,
240,112,203316,1,2,
288,176,203543,1,4,
288,176,203656,1,4,
384,80,204452,5,4,
384,80,204565,1,4,
384,80,204679,1,2,
432,128,204906,1,2,
368,144,205133,1,2,
336,208,205360,1,4,
336,208,205474,1,4,
256,176,206269,5,4,
256,176,206382,1,4,
256,176,206496,1,2,
304,128,206723,1,2,
240,112,206950,1,2,
208,48,207177,1,4,
208,48,207291,1,4,
144,160,208087,5,4,
112,112,208314,2,4,B|112:112|80:160|80:192|144:224|192:208,1,170
272,144,209223,5,0,
320,192,209450,1,0,
320,192,209564,1,0,
384,128,210132,1,0,
432,176,210359,1,0,
432,176,210473,1,0,
448,64,211041,1,0,
496,112,211268,1,0,
496,112,211382,1,0,
496,176,211723,5,0,
432,192,211950,2,4,B|432:192|400:256|320:240|288:176,1,170
384,144,212859,1,0,
384,80,213086,1,0,
384,80,213200,1,0,
384,80,213313,2,2,B|384:80|304:80|256:144|256:192,2,170
432,128,214449,1,4,
384,176,214677,1,4,
432,224,214904,1,4,
368,240,215131,5,0,
320,288,215358,1,2,
320,288,215472,1,2,
240,240,215813,1,4,
192,288,216040,1,4,
144,240,216267,1,4,
96,288,216494,1,4,
