osu file format v4

[General]
AudioFilename: KOTOKO - Agony.mp3
AudioLeadIn: 0
AudioHash: 12257d24bb753cc12122b1a541b0ffe6
PreviewTime: -1
SampleSet: Normal

[Metadata]
Title:agony
Artist:KOTOKO
Creator:K-S-O
Version:Easy

[Difficulty]
HPDrainRate:3
CircleSize:3
OverallDifficulty:3
SliderMultiplier: 1.3
SliderTickRate: 4

[Events]
0,0,"wallpaper_KnM_pb1.jpg"
2,40372,53274
2,83997,96900
2,156708,169610
3,0,163,162,255

[TimingPoints]
25630,454.43993945541,4,1,1

[HitObjects]
96,32,25630,1,0,
96,192,26538,1,0,
96,352,27447,1,0,
288,288,28356,2,2,C|288:288|384:192|288:96,1,260
224,160,30174,5,0,
320,256,31083,1,0,
320,64,31992,2,2,L|320:64|192:64|192:224,1,260
288,288,33809,5,0,
160,160,34718,1,0,
96,288,35627,2,2,L|96:288|256:288|256:160,1,260
416,128,37218,6,0,C|416:128|319:55|96:64|0:160,1,455
192,192,39717,1,0,
288,192,40172,1,0,
64,224,54714,6,0,L|64:224|64:64|192:64,1,260
352,64,56531,1,6,
320,192,57440,6,2,C|320:192|160:192,2,130
320,288,59258,2,2,C|320:288|160:288,2,130
352,192,61076,5,2,
352,288,61530,1,4,
256,288,61985,5,2,
160,192,62894,1,2,
352,192,63802,1,2,
448,96,64711,1,2,
256,96,65620,2,2,C|256:96|96:96|0:160,3,260
64,256,69256,5,0,
256,256,70165,1,0,
256,160,70619,2,0,C|256:160|96:160,1,130
96,64,71982,5,2,
192,64,72437,2,0,C|192:64|352:64,1,130
416,160,73800,1,2,
320,160,74255,2,0,C|320:160|160:160,1,130
96,256,75618,5,0,
192,256,76072,1,0,
288,256,76527,6,0,C|288:256|448:256,1,130
480,192,77436,2,2,C|480:192|480:32,1,130
384,32,78345,2,2,C|384:32|224:32,1,130
160,32,79253,2,0,C|160:32|0:32,1,130
32,224,80617,2,6,C|32:224|192:224,3,130
256,320,82434,2,0,L|256:320|480:320|480:128,1,390
98,66,98340,5,0,
288,128,99249,1,0,
480,192,100158,1,0,
384,288,101067,2,2,C|384:288|96:288,1,260
96,192,102884,5,0,
96,64,103793,1,0,
224,64,104702,2,2,L|224:64|384:64|384:192,1,260
256,192,106520,5,0,
128,192,107429,1,0,
256,64,108338,1,2,
384,64,109246,2,6,L|384:64|384:256|288:256,3,260
128,192,112882,6,0,C|128:192|238:103|352:192,1,260
256,192,114700,1,0,
352,288,115609,2,0,C|352:288|352:128,1,130
384,64,116517,5,0,
128,64,117426,5,0,
128,320,118335,5,0,
384,320,119244,5,0,
320,192,120153,6,2,C|320:192|160:192,4,130
256,64,122880,5,0,
352,192,123789,2,0,L|352:192|352:288|160:288|160:160,1,390
96,96,126061,5,0,
448,192,127424,6,2,C|448:192|384:288|224:320,2,260
384,64,130151,2,0,C|384:64|96:64,1,260
128,160,131968,2,2,C|128:160|416:160,1,260
416,256,133786,5,4,
320,256,134241,1,4,
192,288,134695,6,2,C|192:288|64:192|32:96,3,260
96,32,137876,1,0,
192,32,138331,2,0,C|192:32|320:96|416:192,3,260
192,288,141966,6,0,L|192:288|64:288|64:128,1,260
160,64,143784,1,0,
288,64,144693,6,2,C|288:64|352:96|416:160,2,130
288,192,146511,2,2,C|288:192|224:160|160:96,2,130
320,64,148328,5,0,
416,128,148783,1,0,
416,224,149237,6,0,C|416:224|352:271|260:268|192:192,3,260
192,128,152418,1,0,
288,128,152873,1,0,
384,128,153327,2,2,L|384:128|384:32|192:32,2,260
384,224,156054,5,0,
288,224,156508,1,0,
256,192,171050,5,0,
384,96,171959,5,0,
128,96,172868,5,0,
128,288,173777,5,0,
384,288,174686,5,0,
256,192,175595,5,0,
256,64,176504,5,0,
320,192,177412,5,0,
192,192,177867,1,0,
128,96,178321,2,0,L|128:96|416:96,3,260
256,192,181957,12,4,186501
448,192,187410,2,2,C|448:192|416:110|348:67|256:64,3,260
160,96,191046,1,4,
128,256,191955,5,0,
224,256,192409,1,0,
320,256,192863,1,4,
384,128,193772,5,2,
288,128,194227,1,0,
256,224,194681,6,2,C|256:224|416:224,3,130
256,288,196499,2,4,C|256:288|96:288,3,130
352,256,198317,6,4,L|352:256|352:128|192:128,3,260
128,128,201498,1,4,
64,224,201952,6,2,L|64:224|64:32|416:32,1,520
448,128,204679,2,2,L|448:128|448:256|288:256,1,260
320,128,206497,2,2,L|320:128|160:128|160:256,1,260
288,256,208314,5,0,
288,160,208769,1,2,
384,64,209223,5,0,
384,160,209678,1,0,
384,256,210132,1,0,
384,352,210587,1,2,
288,352,211041,1,0,
288,256,211495,1,0,
288,160,211950,1,2,
288,64,212404,1,2,
192,64,212859,1,2,
96,64,213313,1,2,
128,192,215131,6,6,L|128:192|256:342|384:192,1,390
